osu file format v14

[General]
AudioFilename: audio.mp3
AudioLeadIn: 0
PreviewTime: 66285
Countdown: 0
SampleSet: Normal
StackLeniency: 0.7
Mode: 1
LetterboxInBreaks: 0
WidescreenStoryboard: 1

[Editor]
Bookmarks: 5331,25729,35888,46206,56206,61444
DistanceSpacing: 1
BeatDivisor: 2
GridSize: 32
TimelineZoom: 0.6999998

[Metadata]
Title:DEAD OR LIE (TV Size)
TitleUnicode:DEAD OR LIE (TV Size)
Artist:Maon Kurosaki feat. TRUSTRICK
ArtistUnicode:黒崎真音 feat. TRUSTRICK
Creator:[-E S I A-]
Version:KANTAN
Source:ダンガンロンパ3-The End of 希望ヶ峰学園- 未来編
Tags:danganronpa dangan ronpa kibougamine gakuen mirai-hen mirai hen future arc the end of hope's peak academy high school highschool 黒瀬圭亮 UROBOROS opening op anime japanese rock j-rock jrock lerche 霧切響子 kirigiri kyouko 苗木誠 naegi makoto 朝日奈葵 asahina aoi E_S_I_A [-E_S_I_A-] ESIA [-ESIA-]
BeatmapID:4033159
BeatmapSetID:1947477

[Difficulty]
HPDrainRate:8
CircleSize:2
OverallDifficulty:3
ApproachRate:10
SliderMultiplier:1.4
SliderTickRate:1

[Events]
//Background and Video events
0,0,"bg1.jpg",0,115
//Break Periods
//Storyboard Layer 0 (Background)
//Storyboard Layer 1 (Fail)
//Storyboard Layer 2 (Pass)
//Storyboard Layer 3 (Foreground)
//Storyboard Layer 4 (Overlay)
//Storyboard Sound Samples

[TimingPoints]
114,326.086956521739,4,1,0,60,1,0
14461,317.460317460317,4,1,0,70,1,0
15492,-100,4,1,0,80,0,0
15730,317.460317460317,4,1,0,80,1,0
25571,-100,4,1,0,60,0,0
35809,-100,4,1,0,70,0,0
46047,-100,4,1,0,65,0,0
51047,-100,4,1,0,70,0,0
56047,-100,4,1,0,75,0,0
61206,-100,4,1,0,80,0,0
66364,-100,4,1,0,90,0,1
86682,-100,4,1,0,80,0,0
96999,-100,4,1,0,75,0,0
97317,-100,4,1,0,70,0,0
97634,-100,4,1,0,65,0,0
97952,-100,4,1,0,60,0,0
98269,-100,4,1,0,55,0,0
98587,-100,4,1,0,50,0,0
98904,-100,4,1,0,45,0,0
99222,-100,4,1,0,40,0,0
99539,-100,4,1,0,35,0,0
99856,-100,4,1,0,30,0,0
100174,-100,4,1,0,25,0,0
100491,-100,4,1,0,20,0,0
100809,-100,4,1,0,15,0,0

[HitObjects]
277,143,5331,5,0,0:0:0:0:
292,238,7940,1,0,0:0:0:0:
149,205,10548,1,0,0:0:0:0:
149,205,11200,1,0,0:0:0:0:
243,155,11527,1,0,0:0:0:0:
149,205,11853,1,8,0:0:0:0:
244,228,12505,1,0,0:0:0:0:
149,205,13157,1,8,0:0:0:0:
223,204,14461,1,8,0:0:0:0:
194,193,15095,1,8,0:0:0:0:
113,206,15572,1,4,0:0:0:0:
370,226,16523,1,0,0:0:0:0:
179,203,16841,1,8,0:0:0:0:
220,176,17476,1,8,0:0:0:0:
179,203,17793,1,8,0:0:0:0:
160,199,18110,1,0,0:0:0:0:
220,278,19063,1,8,0:0:0:0:
239,262,19380,1,0,0:0:0:0:
201,245,20174,1,12,0:0:0:0:
312,215,20650,1,4,0:0:0:0:
348,240,21444,1,0,0:0:0:0:
204,204,21761,1,8,0:0:0:0:
233,266,22396,1,8,0:0:0:0:
165,268,23031,1,0,0:0:0:0:
232,290,23349,1,12,0:0:0:0:
237,275,23825,1,8,0:0:0:0:
237,275,24301,1,0,0:0:0:0:
229,288,24777,1,8,0:0:0:0:
297,270,25253,1,8,0:0:0:0:
267,303,25729,1,4,0:0:0:0:
270,279,27158,1,0,0:0:0:0:
325,216,28269,1,8,0:0:0:0:
250,208,29539,1,0,0:0:0:0:
259,252,30333,1,8,0:0:0:0:
242,179,30809,1,4,0:0:0:0:
266,168,32079,1,0,0:0:0:0:
237,258,33349,1,0,0:0:0:0:
205,231,33825,1,12,0:0:0:0:
205,231,34301,1,12,0:0:0:0:
205,231,34777,1,8,0:0:0:0:
244,175,35412,1,8,0:0:0:0:
290,163,35888,1,4,0:0:0:0:
116,165,36682,1,0,0:0:0:0:
198,215,37317,1,8,0:0:0:0:
167,128,37793,1,8,0:0:0:0:
195,235,38110,1,8,0:0:0:0:
271,196,38428,1,0,0:0:0:0:
283,199,38904,1,8,0:0:0:0:
243,196,39380,1,0,0:0:0:0:
237,216,39698,1,8,0:0:0:0:
203,176,40491,1,8,0:0:0:0:
24,160,40968,1,4,0:0:0:0:
239,166,41285,1,0,0:0:0:0:
149,129,41761,1,8,0:0:0:0:
141,202,42237,1,0,0:0:0:0:
141,202,42555,1,8,0:0:0:0:
118,204,43031,1,0,0:0:0:0:
167,203,43507,1,4,0:0:0:0:
131,179,44618,1,8,0:0:0:0:
88,204,44936,1,0,0:0:0:0:
206,231,45571,1,8,0:0:0:0:
113,165,46206,1,4,0:0:0:0:
258,222,46841,1,8,0:0:0:0:
277,226,47158,1,0,0:0:0:0:
308,216,47476,1,8,0:0:0:0:
370,192,48110,1,8,0:0:0:0:
308,211,48745,1,0,0:0:0:0:
178,204,49380,1,0,0:0:0:0:
192,185,49698,1,0,0:0:0:0:
277,149,50015,1,8,0:0:0:0:
220,204,50650,1,8,0:0:0:0:
213,220,51126,1,4,0:0:0:0:
187,166,52396,1,0,0:0:0:0:
157,201,52872,1,0,0:0:0:0:
173,183,53190,1,8,0:0:0:0:
163,248,53825,1,12,0:0:0:0:
309,166,54301,1,12,0:0:0:0:
120,221,54777,1,12,0:0:0:0:
202,196,55253,1,12,0:0:0:0:
223,186,55729,1,8,0:0:0:0:
221,219,56206,1,4,0:0:0:0:
264,181,57317,1,8,0:0:0:0:
258,162,57634,1,0,0:0:0:0:
346,173,58110,1,8,0:0:0:0:
247,184,58587,1,0,0:0:0:0:
224,214,58904,1,8,0:0:0:0:
120,183,59380,1,8,0:0:0:0:
267,190,60015,1,0,0:0:0:0:
267,190,60491,1,8,0:0:0:0:
195,179,61285,5,4,0:0:0:0:
293,230,62079,1,0,0:0:0:0:
213,218,62714,1,8,0:0:0:0:
232,201,63349,1,8,0:0:0:0:
198,188,63666,1,0,0:0:0:0:
190,165,63983,1,12,0:0:0:0:
190,165,64460,1,12,0:0:0:0:
172,209,64936,1,12,0:0:0:0:
154,279,66364,5,12,0:0:0:0:
149,221,66841,1,8,0:0:0:0:
278,202,67158,1,0,0:0:0:0:
265,206,67476,1,8,0:0:0:0:
199,259,68110,1,0,0:0:0:0:
252,213,68428,1,8,0:0:0:0:
243,228,69063,1,8,0:0:0:0:
255,209,69698,1,0,0:0:0:0:
289,179,70174,1,8,0:0:0:0:
247,264,70491,1,0,0:0:0:0:
279,177,70809,1,8,0:0:0:0:
238,281,71444,1,12,0:0:0:0:
261,196,72237,1,0,0:0:0:0:
396,194,72714,1,12,0:0:0:0:
268,219,73507,1,8,0:0:0:0:
292,185,73983,1,4,0:0:0:0:
255,190,75095,1,8,0:0:0:0:
329,170,75412,1,8,0:0:0:0:
197,249,75729,1,8,0:0:0:0:
209,202,76047,1,0,0:0:0:0:
180,158,76523,1,4,0:0:0:0:
213,142,76999,1,8,0:0:0:0:
217,155,77317,1,8,0:0:0:0:
225,193,77793,1,0,0:0:0:0:
163,179,78269,1,8,0:0:0:0:
241,158,78587,1,0,0:0:0:0:
214,172,79222,1,0,0:0:0:0:
214,172,79539,1,8,0:0:0:0:
250,203,79856,1,0,0:0:0:0:
277,172,80333,1,8,0:0:0:0:
315,171,81603,1,4,0:0:0:0:
363,235,82396,1,8,0:0:0:0:
306,273,82872,1,0,0:0:0:0:
187,220,83349,1,0,0:0:0:0:
392,240,83666,1,8,0:0:0:0:
205,262,84301,1,12,0:0:0:0:
269,288,84777,1,4,0:0:0:0:
249,296,85253,1,12,0:0:0:0:
188,274,86206,1,8,0:0:0:0:
305,241,86682,1,4,0:0:0:0:
370,226,87634,1,0,0:0:0:0:
179,203,87952,1,8,0:0:0:0:
220,176,88587,1,8,0:0:0:0:
179,203,88904,1,8,0:0:0:0:
160,199,89222,1,0,0:0:0:0:
220,278,90174,1,8,0:0:0:0:
239,262,90491,1,0,0:0:0:0:
201,245,91285,1,12,0:0:0:0:
312,215,91761,1,4,0:0:0:0:
348,240,92555,1,0,0:0:0:0:
204,204,92872,1,8,0:0:0:0:
233,266,93507,1,8,0:0:0:0:
165,268,94142,1,0,0:0:0:0:
232,290,94460,1,12,0:0:0:0:
237,275,94936,1,8,0:0:0:0:
237,275,95412,1,0,0:0:0:0:
229,288,95888,1,8,0:0:0:0:
297,270,96364,1,8,0:0:0:0:
267,303,96841,5,4,0:0:0:0:
256,192,96999,12,0,100809,0:0:0:0:
