osu file format v14

[General]
AudioFilename: audio.mp3
AudioLeadIn: 0
PreviewTime: 45867
Countdown: 0
SampleSet: Soft
StackLeniency: 0.7
Mode: 0
LetterboxInBreaks: 0
EpilepsyWarning: 1
WidescreenStoryboard: 1

[Editor]
Bookmarks: 4128,18041,24997,38910,45867,59780,73693,87606
DistanceSpacing: 0.8
BeatDivisor: 4
GridSize: 16
TimelineZoom: 1.8

[Metadata]
Title:X-encounter (TV-size)
TitleUnicode:X-encounter (TV-size)
Artist:Maon Kurosaki
ArtistUnicode:黒崎真音
Creator:Starfy
Version:X-tra
Source:東京レイヴンズ
Tags:starforyou - G I D Z - GIDZ gee Chaoslitz opening op Tokyo Ravens Reivunzu
BeatmapID:1412095
BeatmapSetID:667352

[Difficulty]
HPDrainRate:7
CircleSize:4
OverallDifficulty:9
ApproachRate:9.2
SliderMultiplier:2.4
SliderTickRate:1

[Events]
//Background and Video events
0,0,"Bgee.jpg",0,0
//Break Periods
//Storyboard Layer 0 (Background)
//Storyboard Layer 1 (Fail)
//Storyboard Layer 2 (Pass)
//Storyboard Layer 3 (Foreground)
Sprite,Foreground,Centre,"sb\light.png",0,0 M,0,87606,87633,384,184,388.0758,190.273 F,2,87606,88150,1,0 S,2,87606,88150,0.75,0.15 P,0,87606,88150,A M,0,87633,87660,388.0758,190.273,391.8823,196.6611 M,0,87660,87687,391.8823,196.6611,394.9761,203.4269 M,0,87687,87714,394.9761,203.4269,397.3207,210.4931 M,0,87714,87741,397.3207,210.4931,398.8875,217.7787 M,0,87741,87769,398.8875,217.7787,399.6565,225.1998 M,0,87769,87796,399.6565,225.1998,399.6165,232.6713 M,0,87796,87823,399.6165,232.6713,398.765,240.1066 M,0,87823,87850,398.765,240.1066,397.1087,247.4193 M,0,87850,87877,397.1087,247.4193,394.0909,254.2644 M,0,87877,87904,394.0909,254.2644,390.8224,260.9435 M,0,87904,87932,390.8224,260.9435,386.8481,267.2323
Sprite,Foreground,Centre,"sb\light.png",0,0 M,0,88041,88068,420,276,420.9746,287.2077 F,2,88041,88476,1,0 S,2,88041,88476,0.75,0.15 P,0,88041,88476,A M,0,88068,88095,420.9746,287.2077,421.9492,298.4154 M,0,88095,88122,421.9492,298.4154,422.9237,309.6231 M,0,88122,88149,422.9237,309.6231,423.8983,320.8308 M,0,88149,88176,423.8983,320.8308,424.8729,332.0385 M,0,88176,88204,424.8729,332.0385,425.8475,343.2462 M,0,88204,88231,425.8475,343.2462,426.8221,354.4539 M,0,88231,88258,426.8221,354.4539,427.7967,365.6617
Sprite,Foreground,Centre,"sb\light.png",0,0 M,0,88476,88503,512,120,497.0332,120.9978 F,2,88476,88911,1,0 S,2,88476,88911,0.75,0.15 P,0,88476,88911,A M,0,88503,88530,497.0332,120.9978,482.0664,121.9956 M,0,88530,88557,482.0664,121.9956,467.0997,122.9934 M,0,88557,88584,467.0997,122.9934,452.1329,123.9911 M,0,88584,88611,452.1329,123.9911,437.1661,124.9889 M,0,88611,88639,437.1661,124.9889,422.1993,125.9867 M,0,88639,88666,422.1993,125.9867,407.2325,126.9845 M,0,88666,88693,407.2325,126.9845,392.2658,127.9823
Sprite,Foreground,Centre,"sb\light.png",0,0 M,0,88802,88829,355,103,336.2837,104.123 F,2,88802,89237,1,0 S,2,88802,89237,0.75,0.15 P,0,88802,89237,A M,0,88829,88856,336.2837,104.123,317.5673,105.246 M,0,88856,88883,317.5673,105.246,298.851,106.3689 M,0,88883,88910,298.851,106.3689,280.1346,107.4919 M,0,88910,88937,280.1346,107.4919,261.4183,108.6149 M,0,88937,88965,261.4183,108.6149,242.702,109.7379 M,0,88965,88992,242.702,109.7379,223.9856,110.8609 M,0,88992,89019,223.9856,110.8609,205.2693,111.9838
Sprite,Foreground,Centre,"sb\light.png",0,0 M,0,89128,89155,96,408,118.4337,406.2743 F,2,89128,89454,1,0 S,2,89128,89454,0.75,0.15 P,0,89128,89454,A M,0,89155,89182,118.4337,406.2743,140.8675,404.5486 M,0,89182,89209,140.8675,404.5486,163.3012,402.823 M,0,89209,89236,163.3012,402.823,185.7349,401.0973
//Storyboard Sound Samples

[TimingPoints]
650,434.782608695652,4,2,1,40,1,0
650,-200,4,2,1,40,0,0
4128,434.782608695652,4,2,1,60,1,0
4128,-100,4,2,1,60,0,0
18041,-133.333333333333,4,2,1,60,0,0
38476,-80,4,2,1,60,0,0
38910,-133.333333333333,4,2,1,60,0,0
45867,-100,4,2,1,80,0,1
46519,-66.6666666666667,4,2,1,80,0,1
46736,-80,4,2,1,80,0,1
47606,-100,4,2,1,80,0,1
48258,-66.6666666666667,4,2,1,80,0,1
48476,-80,4,2,1,80,0,1
49345,-100,4,2,1,80,0,1
49997,-66.6666666666667,4,2,1,80,0,1
50215,-80,4,2,1,80,0,1
51084,-100,4,2,1,80,0,1
51736,-66.6666666666667,4,2,1,80,0,1
51954,-80,4,2,1,80,0,1
52823,-66.6666666666667,4,2,1,80,0,1
53258,-100,4,2,1,80,0,1
53476,-80,4,2,1,80,0,1
53910,-100,4,2,1,80,0,1
54563,-66.6666666666667,4,2,1,80,0,1
54997,-100,4,2,1,80,0,1
55215,-80,4,2,1,80,0,1
55649,-66.6666666666667,4,2,1,80,0,1
57171,-100,4,2,1,80,0,1
58041,-80,4,2,1,80,0,1
59780,-66.6666666666667,4,2,1,80,0,1
60215,-100,4,2,1,80,0,1
60432,-80,4,2,1,80,0,1
60649,-100,4,2,1,80,0,1
61519,-66.6666666666667,4,2,1,80,0,1
61954,-100,4,2,1,80,0,1
62171,-80,4,2,1,80,0,1
62389,-100,4,2,1,80,0,1
63910,-66.6666666666667,4,2,1,80,0,1
64128,-80,4,2,1,80,0,1
64997,-100,4,2,1,80,0,1
65649,-66.6666666666667,4,2,1,80,0,1
65867,-80,4,2,1,80,0,1
66736,-100,4,2,1,80,0,1
67389,-66.6666666666667,4,2,1,80,0,1
67606,-80,4,2,1,80,0,1
68476,-100,4,2,1,80,0,1
69128,-66.6666666666667,4,2,1,80,0,1
69345,-80,4,2,1,80,0,1
69563,-66.6666666666667,4,2,1,80,0,1
70649,-100,4,2,1,80,0,1
70867,-80,4,2,1,80,0,1
71302,-100,4,2,1,80,0,1
71954,-80,4,2,1,80,0,1
73693,-133.333333333333,4,2,1,80,0,0
87606,-200,4,2,1,80,0,0
88041,-133.333333333333,4,2,1,80,0,0
88476,-100,4,2,1,80,0,0
88802,-80,4,2,1,80,0,0
89128,-66.6666666666667,4,2,1,80,0,0

[Colours]
Combo1 : 255,64,64
Combo2 : 255,128,255
Combo3 : 255,128,128
Combo4 : 255,64,128

[HitObjects]
32,352,650,5,0,0:0:0:0:
128,320,867,2,0,L|120:360,1,30
224,288,1084,1,0,0:0:0:0:
218,317,1193,1,0,0:0:0:0:
37,381,1410,1,0,0:0:0:0:
32,352,1519,5,0,0:0:0:0:
128,320,1736,2,0,L|120:360,2,30
224,288,2171,1,0,0:0:0:0:
224,288,2497,6,0,L|226:273,2,15
218,317,2715,1,0,0:0:0:0:
212,346,2823,5,0,0:0:0:0:
224,288,2932,1,0,0:0:0:0:
308,198,3149,1,0,0:0:0:0:
314,227,3258,1,0,0:0:0:0:
320,256,3367,1,0,0:0:0:0:
416,288,3476,5,0,0:0:0:0:
416,288,3584,2,0,L|424:248,1,30
397,171,3802,1,0,0:0:0:0:
397,171,3910,2,0,L|405:131,1,30
479,32,4128,6,0,P|421:35|372:0,1,120,6|2,0:0|0:0,0:0:0:0:
373,0,4454,1,4,0:0:0:0:
192,108,4671,1,2,0:0:0:0:
192,108,4780,2,0,L|316:100,1,120,4|2,0:0|0:0,0:0:0:0:
342,100,5106,5,0,0:0:0:0:
372,0,5323,1,0,0:0:0:0:
372,0,5432,2,0,B|336:24|336:24|344:120,1,120,10|4,0:0|0:0,0:0:0:0:
427,69,5758,1,0,0:0:0:0:
304,220,5867,6,0,L|312:100,1,120,4|10,0:0|0:0,0:0:0:0:
312,100,6193,1,0,0:0:0:0:
256,28,6302,1,8,0:0:0:0:
256,28,6410,2,0,P|228:36|184:36,1,60,6|0,0:0|0:0,0:0:0:0:
108,20,6628,1,8,0:0:0:0:
49,89,6736,5,6,0:0:0:0:
56,118,6845,1,0,0:0:0:0:
56,118,7063,5,2,0:0:0:0:
49,89,7171,2,0,L|57:57,6,30,8|4|4|4|6|4|4,0:0|0:0|0:0|0:0|0:0|0:0|0:0,0:0:0:0:
145,162,7606,6,0,P|168:107|163:48,1,120,4|2,0:0|0:0,0:0:0:0:
163,48,7932,1,4,0:0:0:0:
280,224,8149,1,2,0:0:0:0:
280,224,8258,2,0,L|272:344,1,120,4|2,0:0|0:0,0:0:0:0:
284,372,8584,1,0,0:0:0:0:
402,364,8802,5,6,0:0:0:0:
402,364,8910,2,0,B|354:356|354:356|285:372,1,120,8|6,0:0|0:0,0:0:0:0:
192,384,9236,1,0,0:0:0:0:
292,252,9345,6,0,L|284:372,1,120,6|8,0:0|0:0,0:0:0:0:
384,224,9780,1,10,0:0:0:0:
384,224,9889,2,0,P|412:232|472:232,1,60,4|2,0:0|0:0,0:0:0:0:
512,176,10106,1,8,0:0:0:0:
496,87,10215,5,4,0:0:0:0:
503,58,10323,1,4,0:0:0:0:
510,29,10432,1,6,0:0:0:0:
443,235,10649,2,0,L|447:267,6,30,6|4|4|4|6|4|4,0:0|0:0|0:0|0:0|0:0|0:0|0:0,0:0:0:0:
500,372,11084,6,0,P|444:356|372:364,1,120,4|2,0:0|0:0,0:0:0:0:
354,368,11410,1,4,0:0:0:0:
180,246,11628,1,2,0:0:0:0:
180,246,11736,2,0,L|300:254,1,120,4|2,0:0|0:0,0:0:0:0:
330,258,12063,1,0,0:0:0:0:
354,368,12280,5,2,0:0:0:0:
354,368,12389,2,0,B|322:320|322:320|330:258,1,120,8|4,0:0|0:0,0:0:0:0:
410,300,12715,1,0,0:0:0:0:
292,134,12823,6,0,L|300:254,1,120,4|10,0:0|0:0,0:0:0:0:
300,254,13149,1,0,0:0:0:0:
240,320,13258,1,8,0:0:0:0:
240,320,13367,2,0,P|208:328|160:328,1,60,6|0,0:0|0:0,0:0:0:0:
96,304,13584,1,8,0:0:0:0:
76,218,13693,5,6,0:0:0:0:
83,189,13802,1,0,0:0:0:0:
83,189,14019,5,2,0:0:0:0:
76,218,14128,2,0,L|80:250,6,30,8|4|4|4|6|4|4,0:0|0:0|0:0|0:0|0:0|0:0|0:0,0:0:0:0:
148,316,14563,6,0,P|180:266|163:204,1,120,4|2,0:0|0:0,0:0:0:0:
168,210,14889,1,4,0:0:0:0:
372,160,15106,1,2,0:0:0:0:
372,160,15215,2,0,L|380:40,1,120,4|2,0:0|0:0,0:0:0:0:
368,12,15541,1,0,0:0:0:0:
252,12,15758,5,6,0:0:0:0:
252,12,15867,2,0,B|312:28|312:28|368:12,1,120,8|6,0:0|0:0,0:0:0:0:
456,0,16193,1,0,0:0:0:0:
360,132,16302,6,0,L|368:12,1,120,6|10,0:0|0:0,0:0:0:0:
280,168,16736,1,10,0:0:0:0:
280,168,16845,2,0,P|272:200|272:232,1,60,4|2,0:0|0:0,0:0:0:0:
304,312,17063,1,8,0:0:0:0:
388,350,17171,5,4,0:0:0:0:
417,343,17280,1,8,0:0:0:0:
446,336,17389,1,6,0:0:0:0:
475,329,17497,1,4,0:0:0:0:
504,322,17606,2,0,L|508:290,6,30,6|4|4|4|6|4|4,0:0|0:0|0:0|0:0|0:0|0:0|0:0,0:0:0:0:
512,192,18041,5,4,0:1:0:0:
509,170,18149,1,2,0:0:0:0:
420,240,18367,1,6,0:0:0:0:
417,218,18476,5,10,0:0:0:0:
332,140,18693,1,6,0:0:0:0:
329,162,18802,1,4,0:0:0:0:
329,162,19128,5,6,0:0:0:0:
240,92,19345,1,8,0:0:0:0:
237,114,19454,2,0,P|189:114|149:90,1,90.0000034332277,4|0,0:0|0:0,0:0:0:0:
32,160,19780,5,4,0:0:0:0:
54,163,19889,1,2,0:0:0:0:
102,255,20106,1,6,0:0:0:0:
80,258,20215,5,8,0:0:0:0:
32,350,20432,1,6,0:0:0:0:
54,347,20541,1,4,0:0:0:0:
54,347,20867,5,6,0:0:0:0:
80,258,21084,1,10,0:0:0:0:
102,255,21193,2,0,P|118:215|110:159,1,90.0000034332277,4|0,0:0|0:0,0:0:0:0:
176,40,21519,5,4,0:0:0:0:
178,62,21628,1,2,0:0:0:0:
264,112,21845,1,6,0:0:0:0:
266,134,21954,5,10,0:0:0:0:
392,103,22171,1,6,0:0:0:0:
394,81,22280,1,0,0:0:0:0:
394,81,22606,5,6,0:0:0:0:
480,31,22823,1,8,0:0:0:0:
482,9,22932,2,0,L|490:105,1,90.0000034332277,4|0,0:0|0:0,0:0:0:0:
408,192,23258,6,0,L|360:184,2,45.0000017166138,6|0|0,0:0|0:0|0:0,0:0:0:0:
486,205,23584,1,4,0:0:0:0:
392,208,23693,6,0,L|344:200,2,45.0000017166138,10|0|6,0:0|0:0|0:0,0:0:0:0:
491,224,24019,1,4,0:0:0:0:
376,224,24128,6,0,L|328:216,1,45.0000017166138,2|8,0:0|0:0,0:0:0:0:
496,243,24345,2,0,L|448:235,1,45.0000017166138,2|8,0:0|0:0,0:0:0:0:
360,240,24563,6,0,L|312:232,1,45.0000017166138,10|8,0:0|0:0,0:0:0:0:
501,262,24780,2,0,L|453:254,1,45.0000017166138,10|8,0:0|0:0,0:0:0:0:
256,358,24997,5,4,0:1:0:0:
248,338,25106,1,0,0:0:0:0:
148,246,25215,2,0,L|140:302,1,45.0000017166138,2|0,0:0|0:0,0:0:0:0:
240,318,25432,5,8,0:0:0:0:
140,226,25541,2,0,L|133:181,2,45.0000017166138,2|0|0,0:0|0:0|0:0,0:0:0:0:
232,298,25867,5,6,0:0:0:0:
248,338,25976,1,0,0:0:0:0:
264,378,26084,1,0,0:0:0:0:
291,345,26193,5,2,0:0:0:0:
318,312,26302,1,8,0:0:0:0:
345,279,26410,1,0,0:0:0:0:
302,272,26519,5,0,0:0:0:0:
259,265,26628,1,0,0:0:0:0:
216,258,26736,5,6,0:0:0:0:
224,238,26845,1,0,0:0:0:0:
304,128,26954,2,0,L|309:172,1,45.0000017166138,2|0,0:0|0:0,0:0:0:0:
231,217,27171,5,8,0:0:0:0:
311,107,27280,2,0,L|303:43,2,45.0000017166138,2|0|0,0:0|0:0|0:0,0:0:0:0:
236,202,27606,5,6,0:0:0:0:
224,238,27715,1,0,0:0:0:0:
212,274,27823,1,0,0:0:0:0:
186,245,27932,5,2,0:0:0:0:
160,216,28041,1,8,0:0:0:0:
134,187,28149,1,0,0:0:0:0:
172,178,28258,5,2,0:0:0:0:
210,169,28367,1,0,0:0:0:0:
248,160,28476,5,6,0:0:0:0:
240,140,28584,1,0,0:0:0:0:
363,78,28693,2,0,L|318:72,1,45.0000017166138,2|0,0:0|0:0,0:0:0:0:
232,120,28910,5,8,0:0:0:0:
371,98,29019,2,0,L|415:92,2,45.0000017166138,2|0|0,0:0|0:0|0:0,0:0:0:0:
224,100,29345,5,6,0:0:0:0:
240,140,29454,1,0,0:0:0:0:
256,180,29563,1,0,0:0:0:0:
283,147,29671,5,2,0:0:0:0:
310,114,29780,1,8,0:0:0:0:
337,81,29889,1,0,0:0:0:0:
294,74,29997,5,2,0:0:0:0:
251,67,30106,1,0,0:0:0:0:
208,60,30215,6,0,L|224:18,1,45.0000017166138,6|0,0:0|0:0,0:0:0:0:
144,0,30432,2,0,L|127:41,1,45.0000017166138
80,192,30649,6,0,L|63:150,1,45.0000017166138,10|0,0:0|0:0,0:0:0:0:
152,128,30867,2,0,L|168:169,1,45.0000017166138,2|0,0:0|0:0,0:0:0:0:
112,320,31084,6,0,L|128:278,1,45.0000017166138,4|0,0:0|0:0,0:0:0:0:
224,302,31302,2,0,L|207:343,1,45.0000017166138,2|0,0:0|0:0,0:0:0:0:
32,352,31519,5,10,0:0:0:0:
232,48,31736,1,6,0:0:0:0:
244,120,31845,1,4,0:0:0:0:
256,192,31954,5,4,0:0:0:0:
276,200,32063,1,0,0:0:0:0:
384,121,32171,2,0,L|340:128,1,45.0000017166138,2|0,0:0|0:0,0:0:0:0:
296,208,32389,5,8,0:0:0:0:
404,129,32497,2,0,L|448:136,2,45.0000017166138,2|0|0,0:0|0:0|0:0,0:0:0:0:
316,216,32823,5,4,0:0:0:0:
322,258,32932,1,0,0:0:0:0:
396,224,33041,5,0,0:0:0:0:
396,224,33149,2,0,L|408:304,1,45.0000017166138,0|8,0:0|0:0,0:0:0:0:
476,232,33367,1,0,0:0:0:0:
478,246,33476,1,0,0:0:0:0:
480,261,33584,1,0,0:0:0:0:
482,276,33693,5,4,0:0:0:0:
474,296,33802,1,0,0:0:0:0:
344,307,33910,2,0,L|352:352,1,45.0000017166138,2|0,0:0|0:0,0:0:0:0:
466,316,34128,5,8,0:0:0:0:
329,302,34236,2,0,L|322:258,2,45.0000017166138,2|0|0,0:0|0:0|0:0,0:0:0:0:
458,336,34563,5,6,0:0:0:0:
431,302,34671,1,0,0:0:0:0:
404,268,34780,1,0,0:0:0:0:
446,261,34889,5,2,0:0:0:0:
460,221,34997,1,8,0:0:0:0:
474,181,35106,1,0,0:0:0:0:
433,189,35215,5,2,0:0:0:0:
406,155,35323,1,0,0:0:0:0:
379,121,35432,5,4,0:0:0:0:
387,101,35541,1,0,0:0:0:0:
256,72,35649,2,0,L|264:128,1,45.0000017166138,2|0,0:0|0:0,0:0:0:0:
395,81,35867,5,8,0:0:0:0:
248,52,35976,2,0,L|254:7,2,45.0000017166138,2|0|0,0:0|0:0|0:0,0:0:0:0:
403,61,36302,5,6,0:0:0:0:
429,94,36410,1,0,0:0:0:0:
455,127,36519,1,0,0:0:0:0:
471,88,36628,5,2,0:0:0:0:
487,49,36736,1,8,0:0:0:0:
503,10,36845,1,0,0:0:0:0:
461,15,36954,5,2,0:0:0:0:
419,20,37063,1,2,0:0:0:0:
377,25,37171,6,0,L|369:81,1,45.0000017166138,4|0,0:0|0:0,0:0:0:0:
356,172,37389,2,0,L|348:228,1,45.0000017166138,6|0,0:0|0:0,0:0:0:0:
335,319,37606,5,6,0:0:0:0:
330,297,37715,1,8,0:0:0:0:
270,240,37823,2,0,P|246:232|214:232,1,45.0000017166138,6|8,0:0|0:0,0:0:0:0:
114,342,38041,6,0,P|136:340|157:332,1,45.0000017166138,4|8,0:0|0:0,0:0:0:0:
217,275,38258,1,6,0:0:0:0:
222,253,38367,1,4,0:0:0:0:
270,240,38476,6,0,L|262:80,1,150,10|6,0:0|0:0,0:0:0:0:
376,48,38802,1,4,0:0:0:0:
360,32,38910,5,4,0:1:0:0:
360,32,39019,2,0,L|352:121,1,90.0000034332277,2|0,0:0|0:0,0:0:0:0:
360,144,39345,1,8,0:1:0:0:
440,184,39563,2,0,P|464:224|456:280,1,90.0000034332277,2|4,0:0|0:0,0:0:0:0:
422,346,39997,2,0,P|382:370|326:362,1,90.0000034332277,2|8,0:0|0:1,0:0:0:0:
260,328,40432,1,2,0:0:0:0:
300,248,40649,5,4,0:0:0:0:
300,248,40758,2,0,P|323:210|322:165,1,90.0000034332277,2|0,0:0|0:0,0:0:0:0:
312,144,41084,1,8,0:1:0:0:
248,80,41302,2,0,L|144:88,1,90.0000034332277,2|4,0:0|0:0,0:0:0:0:
4,143,41736,2,0,L|94:150,1,90.0000034332277,2|8,0:0|0:1,0:0:0:0:
157,212,42171,1,2,0:0:0:0:
135,298,42389,5,6,0:0:0:0:
135,298,42497,2,0,P|192:292|232:256,1,90.0000034332277,2|0,0:0|0:0,0:0:0:0:
232,256,42823,1,8,0:1:0:0:
320,276,43041,2,0,P|341:236|340:192,1,90.0000034332277,2|4,0:0|0:0,0:0:0:0:
402,125,43476,2,0,P|378:87|339:65,1,90.0000034332277,2|8,0:0|0:1,0:0:0:0:
256,36,43910,1,2,0:0:0:0:
187,93,44128,6,0,L|195:153,1,45.0000017166138,6|0,0:0|0:0,0:0:0:0:
300,172,44345,2,0,L|292:112,1,45.0000017166138,4|2,0:0|0:0,0:0:0:0:
169,127,44563,6,0,L|177:187,1,45.0000017166138,10|0,0:0|0:0,0:0:0:0:
282,206,44780,2,0,L|274:146,1,45.0000017166138,6|8,0:0|0:0,0:0:0:0:
152,162,44997,5,6,0:0:0:0:
123,180,45106,1,10,0:0:0:0:
88,186,45215,1,10,0:0:0:0:
55,178,45323,1,6,0:0:0:0:
27,157,45432,5,10,0:0:0:0:
8,128,45541,1,6,0:0:0:0:
2,93,45649,1,6,0:0:0:0:
10,60,45758,1,6,0:0:0:0:
32,32,45867,5,6,0:1:0:0:
224,64,45976,1,2,0:0:0:0:
224,64,46193,5,2,0:0:0:0:
174,190,46302,2,0,P|158:167|164:138,1,60,8|0,0:0|0:0,0:0:0:0:
318,77,46519,6,0,L|415:86,1,90.0000034332277,6|0,0:1|0:0,0:0:0:0:
500,100,46736,5,4,0:0:0:0:
498,119,46845,1,0,0:0:0:0:
365,173,46954,2,0,P|348:139|352:102,1,75,2|0,0:0|0:0,0:0:0:0:
480,224,47171,5,8,0:0:0:0:
432,240,47280,1,4,0:0:0:0:
402,281,47389,1,4,0:0:0:0:
401,331,47497,1,4,0:0:0:0:
480,308,47606,5,6,0:0:0:0:
288,276,47715,1,2,0:0:0:0:
288,276,47932,5,2,0:0:0:0:
335,153,48041,2,0,P|351:178|352:208,1,60,8|0,0:0|0:0,0:0:0:0:
189,262,48258,6,0,P|164:224|168:176,1,90.0000034332277,6|0,0:1|0:0,0:0:0:0:
208,96,48476,5,4,0:0:0:0:
226,98,48584,1,0,0:0:0:0:
148,152,48693,2,0,L|140:232,1,75,2|0,0:0|0:0,0:0:0:0:
244,100,48910,5,8,0:0:0:0:
293,106,49019,1,4,0:0:0:0:
336,83,49128,1,6,0:0:0:0:
357,38,49236,1,4,0:0:0:0:
276,24,49345,5,6,0:0:0:0:
308,216,49454,1,2,0:0:0:0:
308,216,49671,5,2,0:0:0:0:
438,177,49780,2,0,P|413:161|384:164,1,60,8|0,0:0|0:0,0:0:0:0:
316,308,49997,6,0,P|300:344|332:381,1,90.0000034332277,6|0,0:1|0:0,0:0:0:0:
408,328,50215,5,4,0:0:0:0:
407,309,50323,1,0,0:0:0:0:
283,351,50432,2,0,P|245:349|212:332,1,75,2|0,0:0|0:0,0:0:0:0:
104,192,50649,5,8,0:0:0:0:
153,175,50758,1,4,0:0:0:0:
203,191,50867,1,4,0:0:0:0:
233,232,50976,1,4,0:0:0:0:
155,257,51085,5,6,0:0:0:0:
123,65,51193,1,2,0:0:0:0:
123,65,51410,5,2,0:0:0:0:
32,162,51519,2,0,P|28:133|48:112,1,60,8|0,0:0|0:0,0:0:0:0:
202,107,51736,6,0,P|244:128|296:116,1,90.0000034332277,6|0,0:1|0:0,0:0:0:0:
364,52,51954,5,4,0:0:0:0:
362,33,52063,1,0,0:0:0:0:
296,112,52171,2,0,L|288:186,1,75,2|0,0:0|0:0,0:0:0:0:
208,336,52389,5,8,0:0:0:0:
240,296,52497,1,6,0:0:0:0:
289,282,52606,1,4,0:0:0:0:
336,299,52715,1,4,0:0:0:0:
285,366,52823,6,0,B|205:342|149:374|149:374|77:342|77:342|109:326|133:342,1,270.000010299683,6|0,0:1|0:0,0:0:0:0:
140,312,53258,6,0,L|132:252,1,60,8|0,0:0|0:0,0:0:0:0:
72,113,53476,6,0,L|63:188,1,75,2|0,0:0|0:0,0:0:0:0:
224,224,53693,5,4,0:0:0:0:
226,205,53802,1,0,0:0:0:0:
118,278,53910,2,0,L|126:338,1,60,2|0,0:0|0:0,0:0:0:0:
238,249,54128,5,10,0:0:0:0:
238,249,54236,2,0,L|253:120,1,120,2|0,0:0|0:0,0:0:0:0:
178,89,54563,6,0,B|224:96|251:130|251:130|288:89|352:105|352:105|400:97|400:41,1,270.000010299683,6|0,0:0|0:0,0:0:0:0:
373,42,54997,6,0,P|365:82|373:114,1,60,10|0,0:0|0:0,0:0:0:0:
448,229,55215,6,0,P|456:193|448:149,1,75,2|0,0:0|0:0,0:0:0:0:
279,145,55432,5,4,0:0:0:0:
281,164,55541,1,4,0:0:0:0:
451,156,55649,6,0,P|476:79|391:60,1,180.000006866455,2|8,0:0|0:0,0:0:0:0:
322,235,55976,2,0,B|405:194|413:274|494:235,1,180.000006866455,2|0,0:0|0:0,0:0:0:0:
368,136,56302,6,0,B|320:136|280:164|280:164|216:93|100:112,2,270.000010299683,6|2|2,0:0|0:0|0:0,0:0:0:0:
480,352,57171,6,0,P|448:352|424:336,1,60,6|0,0:0|0:0,0:0:0:0:
359,275,57389,2,0,P|343:247|344:218,1,60
339,364,57606,6,0,L|275:372,1,60,8|0,0:0|0:0,0:0:0:0:
425,337,57823,2,0,L|361:345,1,60,6|0,0:0|0:0,0:0:0:0:
511,310,58041,6,0,L|501:235,1,75,14|0,0:0|0:0,0:0:0:0:
335,145,58258,2,0,L|344:219,1,75,4|2,0:0|0:0,0:0:0:0:
495,330,58476,6,0,L|485:255,1,75,8|0,0:0|0:0,0:0:0:0:
319,165,58693,2,0,L|328:239,1,75,6|0,0:0|0:0,0:0:0:0:
480,352,58910,5,6,0:0:0:0:
453,325,59019,1,4,0:0:0:0:
416,315,59128,1,4,0:0:0:0:
379,324,59236,1,4,0:0:0:0:
351,351,59345,5,10,0:0:0:0:
313,360,59454,1,2,0:0:0:0:
275,349,59563,1,6,0:0:0:0:
248,320,59672,1,6,0:0:0:0:
272,160,59780,6,0,B|257:131|289:99|289:99|385:179|315:276,1,270.000010299683,6|2,0:1|0:0,0:0:0:0:
291,292,60215,6,0,P|267:284|227:284,1,60,8|0,0:0|0:0,0:0:0:0:
83,308,60432,6,0,L|91:388,1,75,2|0,0:0|0:0,0:0:0:0:
150,251,60649,6,0,P|158:222|160:192,1,60,6|0,0:0|0:0,0:0:0:0:
82,76,60867,2,0,P|84:105|92:134,1,60,2|0,0:0|0:0,0:0:0:0:
245,161,61084,5,8,0:0:0:0:
280,124,61193,1,4,0:0:0:0:
330,114,61302,1,4,0:0:0:0:
376,135,61410,1,4,0:0:0:0:
320,200,61519,6,0,B|396:160|500:160|500:160|440:144|410:110,1,270.000010299683,6|2,0:0|0:0,0:0:0:0:
436,95,61954,6,0,L|444:159,1,60,8|0,0:0|0:0,0:0:0:0:
488,310,62171,6,0,P|504:278|496:230,1,75,2|0,0:0|0:0,0:0:0:0:
344,164,62389,6,0,L|264:172,1,60,4|0,0:0|0:0,0:0:0:0:
172,245,62606,2,0,L|232:240,1,60,2|0,0:0|0:0,0:0:0:0:
251,90,62823,5,8,0:0:0:0:
216,128,62932,1,4,0:0:0:0:
165,138,63041,1,6,0:0:0:0:
117,116,63149,1,4,0:0:0:0:
175,58,63258,5,6,0:0:0:0:
367,90,63367,1,2,0:0:0:0:
367,90,63584,5,2,0:0:0:0:
330,221,63693,2,0,P|314:196|320:168,1,60,8|0,0:0|0:0,0:0:0:0:
459,92,63910,6,0,L|452:184,1,90.0000034332277,6|0,0:1|0:0,0:0:0:0:
512,252,64128,5,4,0:0:0:0:
494,254,64236,1,0,0:0:0:0:
424,136,64345,2,0,P|408:104|416:56,1,75,2|0,0:0|0:0,0:0:0:0:
330,221,64563,5,8,0:0:0:0:
284,232,64671,1,4,0:0:0:0:
254,267,64780,1,4,0:0:0:0:
251,312,64889,1,4,0:0:0:0:
330,301,64997,5,6,0:0:0:0:
138,269,65106,1,2,0:0:0:0:
138,269,65323,5,2,0:0:0:0:
170,137,65432,2,0,P|186:162|183:191,1,60,8|0,0:0|0:0,0:0:0:0:
48,267,65649,6,0,P|24:232|48:180,1,90.0000034332277,6|0,0:1|0:0,0:0:0:0:
88,100,65867,5,4,0:0:0:0:
94,118,65976,1,0,0:0:0:0:
176,76,66084,2,0,L|183:1,1,75,2|0,0:0|0:0,0:0:0:0:
288,160,66302,5,8,0:0:0:0:
316,202,66410,1,6,0:0:0:0:
364,220,66519,1,4,0:0:0:0:
412,205,66628,1,4,0:0:0:0:
368,136,66736,5,6,0:0:0:0:
336,328,66845,1,2,0:0:0:0:
336,328,67062,5,2,0:0:0:0:
470,306,67171,2,0,P|445:290|416:288,1,60,8|2,0:0|0:0,0:0:0:0:
256,368,67389,6,0,L|248:276,1,90.0000034332277,6|0,0:1|0:0,0:0:0:0:
316,202,67606,5,4,0:0:0:0:
298,204,67715,1,0,0:0:0:0:
336,328,67823,2,0,P|372:331|406:315,1,75,2|0,0:0|0:0,0:0:0:0:
496,176,68041,5,10,0:0:0:0:
445,176,68149,1,2,0:0:0:0:
403,146,68258,1,0,0:0:0:0:
387,96,68367,1,0,0:0:0:0:
468,99,68476,5,6,0:0:0:0:
276,131,68584,1,2,0:0:0:0:
276,131,68802,5,2,0:0:0:0:
303,1,68910,2,0,P|319:26|320:56,1,60,8|2,0:0|0:0,0:0:0:0:
189,131,69128,6,0,P|151:130|108:100,1,90.0000034332277,6|0,0:1|0:0,0:0:0:0:
32,32,69345,5,4,0:0:0:0:
36,14,69454,1,0,0:0:0:0:
96,208,69563,6,0,B|48:192|32:152|32:152|16:208|48:248,1,180.000006866455,2|8,0:0|0:0,0:0:0:0:
150,377,69889,2,0,P|223:334|210:251,1,180.000006866455,2|0,0:0|0:0,0:0:0:0:
55,340,70215,6,0,B|148:368|216:320|216:320|272:308|323:360,1,270.000010299683,6|2,0:0|0:0,0:0:0:0:
344,344,70649,6,0,L|336:272,1,60,8|2,0:0|0:0,0:0:0:0:
448,180,70867,6,0,L|439:254,1,75,2|0,0:0|0:0,0:0:0:0:
259,209,71084,5,4,0:0:0:0:
261,190,71193,1,0,0:0:0:0:
312,298,71302,2,0,L|319:358,1,60,2|0,0:0|0:0,0:0:0:0:
233,222,71519,5,8,0:0:0:0:
233,222,71628,2,0,L|247:89,1,120
160,64,71954,6,0,L|240:56,1,75,14|0,0:0|0:0,0:0:0:0:
386,188,72171,2,0,L|306:196,1,75,4|6,0:0|0:0,0:0:0:0:
132,92,72389,6,0,L|212:84,1,75,8|4,0:0|0:0,0:0:0:0:
358,216,72606,2,0,L|278:224,1,75,6|4,0:0|0:0,0:0:0:0:
104,120,72823,5,6,0:0:0:0:
76,148,72932,1,8,0:0:0:0:
65,186,73041,1,8,0:0:0:0:
75,224,73149,1,6,0:0:0:0:
102,252,73258,5,10,0:0:0:0:
140,262,73367,1,6,0:0:0:0:
178,252,73476,1,6,0:0:0:0:
206,225,73584,1,6,0:0:0:0:
217,187,73693,5,6,0:1:0:0:
480,224,74128,2,0,L|472:358,1,135.000005149841,10|0,0:0|0:0,0:0:0:0:
472,358,74563,5,6,0:0:0:0:
331,266,74889,1,2,0:0:0:0:
331,266,74997,2,0,P|323:245|328:224,1,45.0000017166138,8|2,0:0|0:0,0:0:0:0:
415,169,75215,1,2,0:0:0:0:
407,177,75323,1,0,0:0:0:0:
399,185,75432,6,0,P|335:193|271:169,1,135.000005149841,6|2,0:0|0:0,0:0:0:0:
270,168,75867,1,8,0:0:0:0:
192,88,76084,2,0,B|160:56|160:56|120:192,1,180.000006866455,2|2,0:0|0:0,0:0:0:0:
84,292,76736,1,8,0:0:0:0:
228,356,76954,1,2,0:0:0:0:
220,348,77063,1,0,0:0:0:0:
212,340,77171,6,0,L|220:196,1,135.000005149841,6|0,0:0|0:0,0:0:0:0:
219,205,77606,1,10,0:0:0:0:
416,32,78041,2,0,P|440:88|432:160,1,135.000005149841,6|2,0:0|0:0,0:0:0:0:
512,240,78584,1,2,0:0:0:0:
512,240,78693,2,0,L|504:288,1,45.0000017166138,2|0,0:0|0:0,0:0:0:0:
384,352,78910,6,0,P|360:348|352:328,1,45.0000017166138,6|0,0:0|0:0,0:0:0:0:
392,212,79128,1,0,0:0:0:0:
392,212,79236,2,0,P|400:234|387:251,1,45.0000017166138,2|8,0:0|0:0,0:0:0:0:
301,259,79454,1,0,0:0:0:0:
301,259,79563,2,0,L|253:255,1,45.0000017166138,2|0,0:0|0:0,0:0:0:0:
178,244,79780,5,6,0:0:0:0:
208,112,79997,1,4,0:0:0:0:
208,112,80106,1,2,0:0:0:0:
208,112,80215,2,0,L|200:64,1,45.0000017166138,8|0,0:0|0:0,0:0:0:0:
178,244,80432,2,0,L|170:196,1,45.0000017166138,2|0,0:0|0:0,0:0:0:0:
148,376,80649,5,6,0:0:0:0:
352,352,80976,1,2,0:0:0:0:
352,352,81084,2,0,P|376:312|368:264,1,90.0000034332277,8|2,0:0|0:0,0:0:0:0:
432,176,81519,2,0,L|272:184,1,135.000005149841,6|2,0:0|0:0,0:0:0:0:
212,148,81954,1,8,0:0:0:0:
204,140,82063,1,2,0:0:0:0:
196,132,82171,2,0,P|184:116|180:88,1,45.0000017166138,2|0,0:0|0:0,0:0:0:0:
272,80,82389,6,0,L|256:216,1,135.000005149841,6|2,0:0|0:0,0:0:0:0:
256,214,82823,1,8,0:0:0:0:
288,320,83041,2,0,P|352:352|464:336,1,180.000006866455,2|2,0:0|0:0,0:0:0:0:
512,240,83693,1,8,0:0:0:0:
448,96,83910,1,0,0:0:0:0:
440,104,84019,1,0,0:0:0:0:
432,112,84128,6,0,L|296:104,1,135.000005149841,6|6,0:1|0:0,0:0:0:0:
297,104,84563,1,8,0:0:0:0:
126,46,84780,6,0,L|216:40,1,90.0000034332277,2|4,0:0|0:0,0:0:0:0:
328,28,85215,1,6,0:0:0:0:
266,180,85432,1,8,0:0:0:0:
266,180,85541,1,4,0:0:0:0:
266,180,85867,6,0,P|242:180|218:172,1,45.0000017166138,6|0,0:0|0:0,0:0:0:0:
117,113,86084,2,0,P|106:93|101:72,1,45.0000017166138,4|2,0:0|0:0,0:0:0:0:
254,204,86302,6,0,P|234:189|219:169,1,45.0000017166138,8|0,0:0|0:0,0:0:0:0:
73,107,86519,2,0,P|75:84|84:64,1,45.0000017166138,6|0,0:0|0:0,0:0:0:0:
230,217,86736,6,0,P|222:194|222:168,1,45.0000017166138,4|8,0:0|0:0,0:0:0:0:
40,76,86954,2,0,P|54:59|74:48,1,45.0000017166138,6|0,0:0|0:0,0:0:0:0:
201,213,87171,6,0,P|208:192|221:174,1,45.0000017166138,10|0,0:0|0:0,0:0:0:0:
31,32,87389,2,0,P|53:27|76:28,1,45.0000017166138,4|4,0:0|0:0,0:0:0:0:
320,128,87606,6,0,P|336:172|316:220,1,90,6|2,0:0|0:0,0:0:0:0:
356,220,88041,6,0,L|364:312,1,90.0000034332277,0|2,0:0|0:0,0:0:0:0:
448,64,88476,6,0,L|328:72,1,120,2|0,0:0|0:0,0:0:0:0:
291,47,88802,6,0,L|141:56,1,150,2|2,0:0|0:0,0:0:0:0:
32,352,89128,6,0,L|136:344,1,90.0000034332277,2|2,0:0|0:0,0:0:0:0:
