osu file format v14

[General]
AudioFilename: audio.mp3
AudioLeadIn: 0
PreviewTime: 45867
Countdown: 0
SampleSet: Soft
StackLeniency: 0.7
Mode: 0
LetterboxInBreaks: 0
EpilepsyWarning: 1
WidescreenStoryboard: 1

[Editor]
Bookmarks: 4128,18041,24997,38910,45867,59780,73693,80649,87606
DistanceSpacing: 0.9
BeatDivisor: 4
GridSize: 4
TimelineZoom: 1.8

[Metadata]
Title:X-encounter (TV-size)
TitleUnicode:X-encounter (TV-size)
Artist:Maon Kurosaki
ArtistUnicode:黒崎真音
Creator:Starfy
Version:Normal
Source:東京レイヴンズ
Tags:starforyou - G I D Z - GIDZ gee Chaoslitz opening op Tokyo Ravens Reivunzu
BeatmapID:1414724
BeatmapSetID:667352

[Difficulty]
HPDrainRate:4
CircleSize:3.5
OverallDifficulty:4
ApproachRate:5
SliderMultiplier:1.3
SliderTickRate:1

[Events]
//Background and Video events
0,0,"Bgee.jpg",0,0
//Break Periods
//Storyboard Layer 0 (Background)
//Storyboard Layer 1 (Fail)
//Storyboard Layer 2 (Pass)
//Storyboard Layer 3 (Foreground)
//Storyboard Sound Samples

[TimingPoints]
650,434.782608695652,4,2,1,40,1,0
4128,434.782608695652,4,2,1,60,1,0
4128,-100,4,2,1,60,0,0
45867,-100,4,2,1,80,0,1
73693,-100,4,2,1,80,0,0

[Colours]
Combo1 : 255,64,64
Combo2 : 255,128,255
Combo3 : 255,128,128
Combo4 : 255,64,128

[HitObjects]
192,128,4128,6,0,L|80:120,2,97.4999999999999,6|4|4,0:0|0:0|0:0,0:0:0:0:
356,192,5432,2,0,P|364:224|356:256,1,65,10|4,0:0|0:0,0:0:0:0:
316,296,5867,5,4,0:0:0:0:
260,281,6084,2,0,L|252:385,2,97.4999999999999,10|6|6,0:0|0:0|0:0,0:0:0:0:
232,168,7171,2,0,P|200:160|168:160,1,65,8|6,0:0|0:0,0:0:0:0:
120,192,7606,6,0,P|80:208|24:200,2,97.5,4|4|4,0:0|0:0|0:0,0:0:0:0:
296,216,8910,2,0,L|288:280,1,65,8|6,0:0|0:0,0:0:0:0:
320,328,9345,6,0,P|376:352|448:336,1,130,6|10,0:0|0:0,0:0:0:0:
489,307,9997,2,0,L|481:171,1,130,2|2,0:0|0:0,0:0:0:0:
426,160,10649,2,0,P|394:168|354:168,1,65,6|6,0:0|0:0,0:0:0:0:
308,148,11084,6,0,P|284:108|292:52,2,97.5,4|4|4,0:0|0:0|0:0,0:0:0:0:
456,248,12389,2,0,P|463:284|455:324,1,65,8|4,0:0|0:0,0:0:0:0:
414,348,12823,5,4,0:0:0:0:
359,327,13041,2,0,P|312:312|264:320,2,97.5,10|6|6,0:0|0:0|0:0,0:0:0:0:
416,224,14128,2,0,P|432:192|432:152,1,65,8|6,0:0|0:0,0:0:0:0:
388,128,14563,6,0,L|380:30,2,97.5,4|4|4,0:0|0:0|0:0,0:0:0:0:
256,244,15867,2,0,P|220:252|180:248,1,65,8|6,0:0|0:0,0:0:0:0:
136,264,16302,6,0,L|128:344,2,65,6|10|10,0:0|0:0|0:0,0:0:0:0:
95,222,16954,2,0,P|71:158|87:94,1,130,2|6,0:0|0:0,0:0:0:0:
124,56,17606,2,0,P|155:48|187:47,1,65,6|6,0:0|0:0,0:0:0:0:
245,60,18041,5,4,0:1:0:0:
308,160,18476,2,0,P|340:159|371:151,1,65,8|6,0:0|0:0,0:0:0:0:
427,131,18910,1,0,0:0:0:0:
427,131,19128,2,0,P|407:192|417:255,1,130,4|0,0:0|0:0,0:0:0:0:
352,352,19997,6,0,L|280:344,1,65,0|8,0:0|0:0,0:0:0:0:
256,296,20432,2,0,P|196:316|128:308,1,130,6|4,0:0|0:0,0:0:0:0:
92,264,21084,2,0,P|80:234|86:202,1,65,8|0,0:0|0:0,0:0:0:0:
106,146,21519,5,4,0:0:0:0:
216,104,21954,2,0,P|228:134|222:166,1,65,8|6,0:0|0:0,0:0:0:0:
200,220,22389,1,0,0:0:0:0:
200,220,22606,2,0,L|340:228,1,130,4|0,0:0|0:0,0:0:0:0:
388,232,23258,5,4,0:0:0:0:
496,192,23693,2,0,P|498:159|490:128,1,65,8|4,0:0|0:0,0:0:0:0:
448,88,24128,2,0,L|376:96,1,65,0|0,0:0|0:0,0:0:0:0:
341,135,24563,2,0,L|269:127,1,65,8|8,0:0|0:0,0:0:0:0:
223,103,24997,6,0,L|239:239,1,130,4|8,0:1|0:0,0:0:0:0:
352,264,25867,2,0,L|344:361,2,97.5,6|2|0,0:0|0:0|0:0,0:0:0:0:
358,206,26736,5,6,0:0:0:0:
364,148,26954,2,0,P|409:132|457:136,2,97.5,2|2|6,0:0|0:0|0:0,0:0:0:0:
280,232,28041,2,0,P|248:240|216:240,1,65,8|2,0:0|0:0,0:0:0:0:
160,224,28476,6,0,P|136:168|152:96,1,130,6|8,0:0|0:0,0:0:0:0:
264,112,29345,2,0,L|249:15,2,97.5,6|2|2,0:0|0:0|0:0,0:0:0:0:
296,160,30215,6,0,P|363:166|419:142,1,130,6|10,0:0|0:0,0:0:0:0:
456,96,30867,2,0,P|449:163|473:219,1,130,2|2,0:0|0:0,0:0:0:0:
512,264,31519,2,0,L|504:328,1,65,10|6,0:0|0:0,0:0:0:0:
450,352,31954,6,0,L|314:344,1,130,4|8,0:0|0:0,0:0:0:0:
224,280,32823,2,0,P|184:264|112:272,2,97.5,4|0|0,0:0|0:0|0:0,0:0:0:0:
276,252,33693,6,0,P|299:192|287:129,1,130,4|8,0:0|0:0,0:0:0:0:
172,104,34563,2,0,P|164:56|179:10,2,97.5,6|2|2,0:0|0:0|0:0,0:0:0:0:
192,160,35432,6,0,P|136:136|64:152,1,130,4|8,0:0|0:0,0:0:0:0:
32,260,36302,2,0,L|40:360,2,97.5,6|2|2,0:0|0:0|0:0,0:0:0:0:
60,208,37171,6,0,P|92:200|128:204,1,65,4|6,0:0|0:0,0:0:0:0:
176,230,37606,1,6,0:0:0:0:
226,199,37823,2,0,P|250:143|234:71,1,130,6|6,0:0|0:0,0:0:0:0:
276,32,38476,2,0,P|308:40|356:40,1,65,10|6,0:0|0:0,0:0:0:0:
388,76,38910,6,0,L|468:68,2,65,4|0|8,0:1|0:0|0:0,0:0:0:0:
354,124,39563,2,0,P|330:180|346:252,1,130,2|2,0:0|0:0,0:0:0:0:
424,328,40432,6,0,L|272:344,1,130,2|0,0:0|0:0,0:0:0:0:
240,360,41084,1,8,0:0:0:0:
240,360,41302,2,0,P|184:336|112:344,1,130,2|2,0:0|0:0,0:0:0:0:
92,288,41954,2,0,L|100:224,1,65,8|2,0:0|0:0,0:0:0:0:
104,164,42389,6,0,P|72:172|28:168,2,65,6|0|8,0:0|0:0|0:0,0:0:0:0:
160,144,43041,2,0,P|192:88|192:24,1,130,2|2,0:0|0:0,0:0:0:0:
304,56,43910,1,2,0:0:0:0:
304,56,44128,6,0,L|408:48,2,97.5,6|0|6,0:0|0:0|0:0,0:0:0:0:
256,88,44997,2,0,P|232:152|248:216,1,130,6|10,0:0|0:0,0:0:0:0:
344,272,45867,6,0,L|456:264,2,97.5,6|2|6,0:1|0:0|0:1,0:0:0:0:
304,312,46736,1,4,0:0:0:0:
304,312,46954,2,0,P|248:288|176:296,1,130,2|0,0:0|0:0,0:0:0:0:
128,268,47606,6,0,L|134:365,2,97.5,6|2|6,0:0|0:0|0:1,0:0:0:0:
76,240,48476,1,4,0:0:0:0:
76,240,48693,2,0,L|84:104,1,130,2|2,0:0|0:0,0:0:0:0:
88,52,49345,6,0,P|152:76|216:60,1,130,6|8,0:0|0:0,0:0:0:0:
256,26,49997,1,6,0:1:0:0:
352,92,50432,1,2,0:0:0:0:
352,92,50649,2,0,P|384:84|424:88,1,65,8|0,0:0|0:0,0:0:0:0:
464,120,51084,6,0,P|488:176|472:248,1,130,6|8,0:0|0:0,0:0:0:0:
440,288,51736,1,6,0:1:0:0:
344,352,52171,1,2,0:0:0:0:
344,352,52389,2,0,P|312:344|280:344,1,65,8|4,0:0|0:0,0:0:0:0:
232,312,52823,6,0,P|176:336|112:320,1,130,6|8,0:1|0:0,0:0:0:0:
72,276,53476,2,0,L|80:140,1,130,2|2,0:0|0:0,0:0:0:0:
84,88,54128,1,10,0:0:0:0:
190,39,54563,6,0,L|320:32,1,130,6|10,0:0|0:0,0:0:0:0:
369,65,55215,2,0,P|386:127|378:192,1,130,2|2,0:0|0:0,0:0:0:0:
344,240,55867,1,8,0:0:0:0:
224,248,56302,6,0,L|230:345,2,97.5,6|2|2,0:0|0:0|0:0,0:0:0:0:
184,208,57171,2,0,P|96:200|72:104,1,195,6|6,0:0|0:0,0:0:0:0:
96,56,58041,5,6,0:0:0:0:
204,100,58476,2,0,P|240:96|264:80,1,65,8|6,0:0|0:0,0:0:0:0:
288,28,58910,2,0,P|344:52|416:36,1,130,6|10,0:0|0:0,0:0:0:0:
480,136,59780,6,0,L|472:240,2,97.5,6|2|2,0:1|0:0|0:0,0:0:0:0:
484,78,60649,1,6,0:0:0:0:
484,78,60867,2,0,P|421:65|361:89,1,130,2|0,0:0|0:0,0:0:0:0:
327,136,61519,6,0,P|287:152|223:144,2,97.5,6|2|2,0:0|0:0|0:0,0:0:0:0:
351,188,62389,1,4,0:0:0:0:
351,188,62606,2,0,P|336:256|335:332,1,130,2|2,0:0|0:0,0:0:0:0:
368,364,63258,6,0,P|312:340|240:348,1,130,6|8,0:0|0:0,0:0:0:0:
188,364,63910,2,0,L|196:232,1,130,6|2,0:1|0:0,0:0:0:0:
198,176,64563,1,8,0:0:0:0:
116,95,64997,6,0,P|160:67|251:75,1,130,6|8,0:0|0:0,0:0:0:0:
288,95,65649,2,0,L|424:87,1,130,6|2,0:1|0:0,0:0:0:0:
476,85,66302,1,8,0:0:0:0:
504,200,66736,6,0,P|512:248|496:296,2,97.5,6|2|6,0:1|0:0|0:1,0:0:0:0:
456,168,67606,1,4,0:0:0:0:
456,168,67823,2,0,L|326:175,1,130,2|0,0:0|0:0,0:0:0:0:
288,132,68476,6,0,L|296:28,2,97.5,6|2|6,0:0|0:0|0:1,0:0:0:0:
246,171,69345,1,4,0:0:0:0:
246,171,69563,2,0,P|224:216|232:264,1,97.5,2|2,0:0|0:0,0:0:0:0:
288,328,70215,6,0,P|336:344|392:328,2,97.5,6|2|2,0:0|0:0|0:0,0:0:0:0:
234,352,71084,1,4,0:0:0:0:
234,352,71302,2,0,P|178:328|98:336,1,130,2|0,0:0|0:0,0:0:0:0:
86,278,71954,6,0,P|54:223|64:160,1,130,6|8,0:0|0:0,0:0:0:0:
112,128,72606,1,6,0:0:0:0:
112,128,72823,2,0,L|104:16,2,97.5,6|2|2,0:0|0:0|0:0,0:0:0:0:
164,154,73693,6,0,P|228:186|292:170,1,130,6|10,0:1|0:0,0:0:0:0:
392,128,74563,2,0,L|384:264,1,130,6|8,0:0|0:0,0:0:0:0:
340,296,75215,1,2,0:0:0:0:
285,277,75432,6,0,P|245:261|189:269,1,97.5,6|2,0:0|0:0,0:0:0:0:
112,240,76084,2,0,L|125:369,2,130,2|2|2,0:0|0:0|0:0,0:0:0:0:
80,192,77171,6,0,P|104:136|96:64,1,130,6|10,0:0|0:0,0:0:0:0:
208,32,78041,2,0,L|337:38,1,130,6|8,0:0|0:0,0:0:0:0:
396,28,78693,1,2,0:0:0:0:
435,73,78910,6,0,P|456:120|440:176,1,97.5,6|2,0:0|0:0,0:0:0:0:
384,224,79563,1,2,0:0:0:0:
384,224,79780,2,0,L|392:344,2,97.5,6|2|2,0:0|0:0|0:0,0:0:0:0:
336,192,80649,6,0,P|280:168|204:178,1,130,6|8,0:1|0:0,0:0:0:0:
157,192,81302,1,2,0:0:0:0:
123,240,81519,2,0,L|139:376,1,130,6|8,0:0|0:0,0:0:0:0:
256,352,82389,6,0,P|304:336|352:344,2,97.5,6|2|2,0:0|0:0|0:0,0:0:0:0:
212,314,83258,1,4,0:0:0:0:
212,314,83476,2,0,P|188:254|200:191,1,130,2|0,0:0|0:0,0:0:0:0:
256,176,84128,6,0,L|248:68,1,97.5,6|6,0:1|0:0,0:0:0:0:
324,36,84780,2,0,P|396:36|452:88,1,130,2|2,0:0|0:0,0:0:0:0:
468,120,85432,1,8,0:0:0:0:
416,224,85867,6,0,P|400:272|408:320,1,97.5,6|2,0:0|0:0,0:0:0:0:
485,357,86519,2,0,L|285:365,1,195,6|10,0:0|0:0,0:0:0:0:
256,252,87606,5,6,0:0:0:0:
256,192,87823,12,0,89236,0:0:0:0:
