osu file format v14

[General]
AudioFilename: audio.mp3
AudioLeadIn: 0
PreviewTime: 45867
Countdown: 0
SampleSet: Soft
StackLeniency: 0.7
Mode: 0
LetterboxInBreaks: 0
EpilepsyWarning: 1
WidescreenStoryboard: 1

[Editor]
Bookmarks: 4128,18041,24997,38910,45867,59780,73693,80649,87606
DistanceSpacing: 1
BeatDivisor: 4
GridSize: 4
TimelineZoom: 1.8

[Metadata]
Title:X-encounter (TV-size)
TitleUnicode:X-encounter (TV-size)
Artist:Maon Kurosaki
ArtistUnicode:黒崎真音
Creator:Starfy
Version:Easy
Source:東京レイヴンズ
Tags:starforyou - G I D Z - GIDZ gee Chaoslitz opening op Tokyo Ravens Reivunzu
BeatmapID:1412734
BeatmapSetID:667352

[Difficulty]
HPDrainRate:2
CircleSize:3
OverallDifficulty:2
ApproachRate:2
SliderMultiplier:0.999999999999999
SliderTickRate:1

[Events]
//Background and Video events
0,0,"Bgee.jpg",0,0
//Break Periods
//Storyboard Layer 0 (Background)
//Storyboard Layer 1 (Fail)
//Storyboard Layer 2 (Pass)
//Storyboard Layer 3 (Foreground)
//Storyboard Sound Samples

[TimingPoints]
650,434.782608695652,4,2,1,40,1,0
4128,434.782608695652,4,2,1,60,1,0
4128,-100,4,2,1,60,0,0
41084,-100,4,2,99,60,0,0
41519,-100,4,2,1,60,0,0
44563,-100,4,2,99,60,0,0
44997,-100,4,2,1,60,0,0
45867,-100,4,2,1,80,0,1
73693,-100,4,2,1,80,0,0

[Colours]
Combo1 : 255,64,64
Combo2 : 255,128,255
Combo3 : 255,128,128
Combo4 : 255,64,128

[HitObjects]
304,144,4128,6,0,P|240:112|152:136,2,150,6|4|10,0:0|0:0|0:0,0:0:0:0:
375,215,5867,2,0,P|434:175|457:87,2,150,4|0|8,0:0|0:0|0:0,0:0:0:0:
278,240,7606,6,0,P|282:311|347:375,2,150,4|4|8,0:0|0:0|0:0,0:0:0:0:
304,144,9345,2,0,P|353:89|358:15,2,150,6|2|6,0:0|0:0|0:0,0:0:0:0:
207,169,11084,6,0,L|47:153,2,150,4|4|8,0:0|0:0|0:0,0:0:0:0:
288,228,12823,2,0,L|437:213,2,150,4|0|8,0:0|0:0|0:0,0:0:0:0:
207,287,14563,6,0,L|58:272,2,150,4|4|8,0:0|0:0|0:0,0:0:0:0:
287,346,16302,2,0,P|307:300|300:248,1,99.9999999999999,6|10,0:0|0:0,0:0:0:0:
394,211,17171,2,0,P|364:171|315:151,1,99.9999999999999,4|6,0:0|0:0,0:0:0:0:
224,187,18041,5,4,0:1:0:0:
206,287,18476,2,0,P|124:338|33:306,1,200,8|8,0:0|0:0,0:0:0:0:
17,207,19780,1,4,0:0:0:0:
1,108,20215,2,0,B|73:100|73:100|129:124|129:124|217:116,1,200,8|8,0:0|0:0,0:0:0:0:
296,112,21519,5,4,0:0:0:0:
252,202,21954,2,0,P|348:198|396:114,1,200,8|8,0:0|0:0,0:0:0:0:
349,27,23258,1,4,0:0:0:0:
296,112,23693,1,8,0:0:0:0:
196,118,24128,2,0,P|148:102|100:110,1,99.9999999999999,4|8,0:0|0:0,0:0:0:0:
44,192,24997,5,4,0:1:0:0:
126,249,25432,2,0,L|110:347,2,99.9999999999999,8|6|8,0:0|0:0|0:0,0:0:0:0:
216,206,26736,1,6,0:0:0:0:
298,262,27171,2,0,P|346:278|394:270,2,99.9999999999999,8|6|8,0:0|0:0|0:0,0:0:0:0:
209,306,28476,5,6,0:0:0:0:
126,249,28910,2,0,P|78:233|30:241,2,99.9999999999999,8|6|8,0:0|0:0|0:0,0:0:0:0:
216,206,30215,2,0,L|200:108,1,99.9999999999999,6|10,0:0|0:0,0:0:0:0:
288,60,31084,2,0,L|304:158,1,99.9999999999999,4|10,0:0|0:0,0:0:0:0:
392,205,31954,5,4,0:0:0:0:
307,258,32389,2,0,P|291:306|299:354,2,99.9999999999999,8|4|8,0:0|0:0|0:0,0:0:0:0:
304,158,33693,1,4,0:0:0:0:
389,105,34128,2,0,P|405:57|397:9,2,99.9999999999999,8|6|8,0:0|0:0|0:0,0:0:0:0:
392,205,35432,5,4,0:0:0:0:
307,258,35867,2,0,L|203:250,2,99.9999999999999,8|6|8,0:0|0:0|0:0,0:0:0:0:
395,305,37171,2,0,P|419:265|411:209,1,99.9999999999999,4|6,0:0|0:0,0:0:0:0:
389,169,37823,2,0,P|328:128|256:139,1,150,6|10,0:0|0:0,0:0:0:0:
171,192,38910,6,0,L|179:296,1,99.9999999999999,4|8,0:1|0:0,0:0:0:0:
264,344,39780,2,0,L|271:244,1,99.9999999999999,4|8,0:0|0:0,0:0:0:0:
256,144,40649,2,0,P|342:97|447:112,1,200,4|4,0:0|0:0,0:0:0:0:
496,192,41954,1,8,0:0:0:0:
453,282,42389,6,0,P|404:288|360:266,1,99.9999999999999,6|8,0:0|0:0,0:0:0:0:
276,212,43258,2,0,P|227:205|183:227,1,99.9999999999999,4|8,0:0|0:0,0:0:0:0:
98,281,44128,2,0,P|58:192|98:104,1,200,6|6,0:0|0:0,0:0:0:0:
266,57,45867,6,0,P|338:89|410:73,2,150,6|6|8,0:1|0:1|0:0,0:0:0:0:
216,144,47606,2,0,P|152:190|130:260,2,150,6|6|8,0:0|0:1|0:0,0:0:0:0:
165,57,49345,6,0,L|61:65,1,99.9999999999999,6|8,0:0|0:0,0:0:0:0:
16,152,50215,2,0,P|0:200|8:264,1,99.9999999999999,4|8,0:0|0:0,0:0:0:0:
71,319,51084,2,0,P|152:316|208:368,2,150,6|6|8,0:0|0:1|0:0,0:0:0:0:
98,224,52823,6,0,P|114:176|110:128,1,99.9999999999999,6|8,0:1|0:0,0:0:0:0:
72,36,53693,2,0,L|176:40,1,99.9999999999999,4|10,0:0|0:0,0:0:0:0:
256,96,54563,2,0,P|336:96|384:48,1,150,6|2,0:0|0:0,0:0:0:0:
464,112,55649,2,0,L|448:272,1,150,2|6,0:0|0:0,0:0:0:0:
440,360,56736,5,8,0:0:0:0:
359,303,57171,2,0,P|311:287|255:295,1,99.9999999999999,6|8,0:0|0:0,0:0:0:0:
179,352,58041,2,0,P|92:315|87:220,1,200,6|6,0:0|0:0,0:0:0:0:
128,128,59345,1,10,0:0:0:0:
188,209,59780,6,0,P|236:225|348:145,1,200,6|6,0:1|0:0,0:0:0:0:
314,51,61084,1,8,0:0:0:0:
249,128,61519,2,0,L|324:324,1,200,6|4,0:0|0:0,0:0:0:0:
232,364,62823,1,8,0:0:0:0:
146,312,63258,6,0,P|74:288|2:296,2,150,6|6|8,0:0|0:1|0:0,0:0:0:0:
235,264,64997,2,0,P|291:213|320:147,2,150,6|6|8,0:0|0:1|0:0,0:0:0:0:
149,212,66736,6,0,L|-3:220,2,150,6|6|10,0:1|0:1|0:0,0:0:0:0:
237,163,68476,2,0,L|386:170,2,150,6|6|8,0:0|0:1|0:0,0:0:0:0:
152,112,70215,6,0,P|136:64|152:16,1,99.9999999999999,6|8,0:0|0:0,0:0:0:0:
250,16,71084,2,0,L|362:24,1,99.9999999999999,4|8,0:0|0:0,0:0:0:0:
408,104,71954,2,0,P|448:192|410:281,1,200,6|6,0:0|0:0,0:0:0:0:
340,352,73258,1,10,0:0:0:0:
245,327,73693,5,6,0:1:0:0:
220,233,74128,2,0,L|228:129,2,99.9999999999999,10|6|8,0:0|0:0|0:0,0:0:0:0:
152,302,75432,2,0,P|79:296|32:352,2,150,6|2|8,0:0|0:0|0:0,0:0:0:0:
245,327,77171,6,0,P|293:343|349:335,1,99.9999999999999,6|10,0:0|0:0,0:0:0:0:
411,270,78041,2,0,P|448:236|469:183,1,99.9999999999999,6|8,0:0|0:0,0:0:0:0:
444,97,78910,5,6,0:0:0:0:
374,164,79345,1,8,0:0:0:0:
280,136,79780,2,0,P|232:120|184:120,1,99.9999999999999,6|8,0:0|0:0,0:0:0:0:
113,187,80649,5,6,0:1:0:0:
137,282,81084,2,0,P|153:330|145:394,2,99.9999999999999,8|6|8,0:0|0:0|0:0,0:0:0:0:
42,255,82389,2,0,L|26:103,2,150,6|2|8,0:0|0:0|0:0,0:0:0:0:
55,354,84128,6,0,P|120:320|208:336,1,150,6|2,0:1|0:0,0:0:0:0:
292,348,85215,2,0,L|308:196,2,150,6|6|6,0:0|0:0|0:0,0:0:0:0:
440,359,87171,2,0,P|471:321|480:272,1,99.9999999999999,10|6,0:0|0:0,0:0:0:0:
256,192,87823,12,0,89236,0:0:0:0:
