osu file format v14

[General]
AudioFilename: audio.mp3
AudioLeadIn: 0
PreviewTime: 61874
Countdown: 0
SampleSet: Soft
StackLeniency: 0.2
Mode: 0
LetterboxInBreaks: 0
WidescreenStoryboard: 0

[Editor]
DistanceSpacing: 0.8
BeatDivisor: 4
GridSize: 32
TimelineZoom: 3.699999

[Metadata]
Title:Setsuna no Kajitsu
TitleUnicode:刹那の果実
Artist:Maon Kurosaki
ArtistUnicode:黒崎真音
Creator:bite you death
Version:Melancholy
Source:グリザイアの楽園 -LE EDEN DE LA GRISAIA-
Tags:grisaia no rakuen frontwing opening tv size visual novel byd
BeatmapID:1806254
BeatmapSetID:863531

[Difficulty]
HPDrainRate:5.6
CircleSize:4
OverallDifficulty:9.2
ApproachRate:9.2
SliderMultiplier:1.77
SliderTickRate:1

[Events]
//Background and Video events
0,0,"bg.jpg",0,0
Video,0,"video.avi"
//Break Periods
//Storyboard Layer 0 (Background)
//Storyboard Layer 1 (Fail)
//Storyboard Layer 2 (Pass)
//Storyboard Layer 3 (Foreground)
//Storyboard Sound Samples

[TimingPoints]
581,368.098159509202,4,2,2,40,1,0
2053,357.142857142857,4,2,2,40,1,0
3481,337.078651685393,4,2,2,40,1,0
4829,314.13612565445,4,2,2,40,1,0
5457,297.029702970297,4,2,2,40,1,0
6051,297.029702970297,4,2,2,45,1,0
8575,-100,4,2,2,50,0,0
9763,-100,4,2,2,60,0,0
10209,-100,4,2,2,65,0,0
10654,-100,4,2,2,70,0,1
16595,-80,4,2,2,70,0,1
17189,-100,4,2,2,70,0,1
19714,-74.0740740740741,4,2,2,65,0,0
20308,-133.333333333333,4,2,2,50,0,0
20753,-222.222222222221,4,2,2,50,0,0
21199,-133.333333333333,4,2,2,50,0,0
21645,-222.222222222221,4,2,2,50,0,0
22090,-125,4,2,2,60,0,0
22684,-80.0000000000001,4,2,2,65,0,0
22981,-105.263157894737,4,2,2,65,0,0
29516,-125,4,2,2,65,0,0
29813,-117.64705882353,4,2,2,65,0,0
30258,-181.818181818183,4,2,2,65,0,0
30704,-117.64705882353,4,2,2,65,0,0
31150,-200,4,2,2,65,0,0
31595,-111.111111111111,4,2,2,65,0,0
32189,-74.0740740740741,4,2,2,65,0,0
32486,-99.9999999999999,4,2,2,65,0,0
44070,-133.333333333333,4,2,2,65,0,0
44367,-80,4,2,2,65,0,0
44664,-99.9999999999999,4,2,2,65,0,0
48823,-142.857142857143,4,2,2,65,0,0
49120,-76.9230769230769,4,2,2,65,0,0
49417,-99.9999999999999,4,2,2,65,0,0
51199,-153.846153846153,4,2,2,65,0,0
51496,-74.0740740740741,4,2,2,65,0,0
51793,-99.9999999999999,4,2,2,65,0,0
53575,-149.253731343284,4,2,2,65,0,0
55951,-83.3333333333333,4,2,2,65,0,0
61298,-83.3333333333333,4,2,4,65,0,0
61372,-83.3333333333333,4,2,2,65,0,0
61892,-83.3333333333333,4,2,2,75,0,1
76595,-83.3333333333333,4,2,2,45,0,1
76892,-83.3333333333333,4,2,2,75,0,1
78377,-100,4,2,2,75,0,1
78823,-133.333333333333,4,2,2,75,0,1
79565,-100,4,2,2,75,0,1
80308,-100,4,2,2,55,0,1
80902,-125,4,2,2,65,0,0
84318,-100,4,2,2,65,0,0
88031,-100,4,2,2,75,0,1
89070,-133.333333333333,4,2,2,65,0,0
89442,-133.333333333333,4,2,2,5,0,0
89516,-133.333333333333,4,2,2,25,0,0

[Colours]
Combo1 : 178,195,215
Combo2 : 132,103,253
Combo3 : 254,116,116
Combo4 : 254,255,136
Combo5 : 255,128,255
Combo6 : 255,128,0
SliderBorder : 255,255,255
SliderTrackOverride : 15,0,100

[HitObjects]
151,238,581,6,0,P|195:218|237:213,1,88.5,2|0,0:0|0:0,0:0:0:0:
339,120,949,2,0,P|300:91|274:58,1,88.5,2|0,0:0|0:0,0:0:0:0:
143,17,1317,2,0,P|137:64|121:103,1,88.5,2|0,0:0|0:0,0:0:0:0:
211,127,1685,1,2,0:0:0:0:
211,127,1869,1,2,0:0:0:0:
92,310,2053,6,0,P|63:267|60:222,1,88.5,2|0,0:0|0:0,0:0:0:0:
270,289,2410,1,2,0:0:0:0:
270,289,2588,1,2,0:0:0:0:
270,289,2767,2,0,P|247:335|209:360,1,88.5,2|0,0:0|0:0,0:0:0:0:
163,146,3124,2,0,P|214:142|255:162,1,88.5,2|0,0:0|0:0,0:0:0:0:
341,330,3481,6,0,P|381:318|448:306,1,88.5,2|0,0:0|0:0,0:0:0:0:
247,156,3818,1,2,0:0:0:0:
270,289,3986,1,2,0:0:0:0:
355,97,4155,2,0,P|395:109|462:121,1,88.5,2|0,0:0|0:0,0:0:0:0:
175,245,4492,2,0,P|135:233|68:221,1,88.5,2|2,0:0|0:0,0:0:0:0:
162,46,4829,6,0,P|239:69|246:156,1,177,2|2,0:0|0:0,0:0:0:0:
175,245,5300,1,2,0:0:0:0:
364,318,5457,1,2,0:0:0:0:
137,332,5605,1,2,0:0:0:0:
402,231,5754,1,2,0:0:0:0:
137,158,5902,1,2,0:0:0:0:
283,355,6051,5,2,1:2:0:0:
283,355,6199,2,0,B|247:251|335:288|276:153,1,177,2|0,0:0|0:0,0:0:0:0:
133,50,6645,2,0,P|176:39|199:151,1,177,2|0,0:0|0:0,0:0:0:0:
81,295,7090,6,0,P|65:209|21:110,1,177,2|0,0:0|0:0,0:0:0:0:
161,329,7536,2,0,B|268:343|213:264|351:294,2,177,2|0|0,0:0|1:0|0:0,0:0:0:0:
383,364,8427,1,0,0:0:0:0:
326,289,8575,6,0,B|313:221|313:221|329:180|329:180|310:100,1,177,2|0,0:0|0:0,0:0:0:0:
173,87,9021,2,0,P|171:137|262:167,1,132.75,2|0,0:0|0:0,0:0:0:0:
236,175,9318,2,0,P|229:201|224:232,1,44.25,2|0,0:0|0:0,0:0:0:0:
150,286,9466,2,0,P|157:311|162:342,1,44.25,2|0,0:0|0:0,0:0:0:0:
160,328,9763,5,0,0:0:0:0:
346,144,9912,1,8,0:3:0:0:
400,140,9986,1,8,0:3:0:0:
445,170,10060,1,8,0:3:0:0:
464,221,10134,1,8,0:3:0:0:
449,273,10209,5,8,3:2:0:0:
125,215,10357,1,8,1:2:0:0:
285,30,10654,6,0,L|252:241,1,177,6|0,3:2|3:0,0:0:0:0:
221,365,11100,1,8,0:0:0:0:
148,136,11249,1,0,0:0:0:0:
297,315,11397,2,0,P|338:299|401:284,1,88.5,2|0,3:2|3:0,0:0:0:0:
125,215,11694,2,0,P|83:199|21:184,1,88.5,8|0,0:0|0:0,0:0:0:0:
276,65,11991,6,0,P|339:73|372:181,2,177,2|8|2,3:2|0:0|3:2,0:0:0:0:
186,241,12734,1,2,3:2:0:0:
296,149,12882,1,8,0:0:0:0:
187,333,13031,6,0,B|79:328|145:256|0:257,1,177,2|0,3:2|3:0,0:0:0:0:
169,154,13476,2,0,P|176:203|190:255,1,88.5,10|0,0:0|0:0,0:0:0:0:
269,61,13773,1,2,3:2:0:0:
342,239,13922,2,0,P|376:213|445:201,1,88.5,2|8,3:2|0:0,0:0:0:0:
141,42,14219,6,0,P|89:35|29:134,1,177,2|0,3:2|3:0,0:0:0:0:
65,271,14664,1,10,0:0:0:0:
163,129,14813,1,0,0:0:0:0:
163,129,14887,1,0,3:0:0:0:
163,129,14961,5,10,0:2:0:0:
303,384,15110,1,10,1:2:0:0:
303,384,15407,6,0,P|313:301|345:195,1,177,6|0,3:2|3:0,0:0:0:0:
419,75,15852,1,8,0:0:0:0:
232,225,16001,1,0,0:0:0:0:
319,28,16150,1,0,3:0:0:0:
426,218,16298,1,2,3:2:0:0:
217,59,16447,1,10,0:0:0:0:
223,312,16595,6,0,L|294:293,1,55.3125,6|2,3:2|0:0,0:0:0:0:
187,152,16744,2,0,L|116:171,1,55.3125
276,297,16892,2,0,L|347:278,1,55.3125,0|0,3:0|0:0,0:0:0:0:
240,137,17041,2,0,L|169:156,1,55.3125,8|0,0:0|0:0,0:0:0:0:
137,334,17189,6,0,L|250:303,1,88.5,2|0,0:0|3:0,0:0:0:0:
32,201,17486,1,0,3:0:0:0:
229,47,17635,1,10,0:0:0:0:
80,267,17783,1,0,0:0:0:0:
312,184,17932,6,0,B|416:171|379:236|480:218,1,177,6|0,3:2|0:0,0:0:0:0:
273,48,18377,2,0,P|203:58|202:167,1,177,10|0,0:3|0:0,0:0:0:0:
360,293,18823,6,0,P|335:209|329:107,1,177,0|0,3:0|0:0,0:0:0:0:
198,351,19268,2,0,P|165:290|40:302,1,177,8|0,0:0|3:0,0:0:0:0:
52,293,19640,1,0,3:0:0:0:
44,306,19714,6,0,P|32:271|12:241,1,59.7375002278805,2|0,0:0|0:0,0:0:0:0:
109,176,19862,2,0,P|120:141|141:111,1,59.7375002278805,2|0,0:0|0:0,0:0:0:0:
132,121,20308,6,0,B|218:116|173:173|284:157,1,132.750005064011,2|2,3:2|0:0,0:0:0:0:
407,197,20753,2,0,P|364:199|326:215,1,79.649997569275,10|0,0:0|0:0,0:0:0:0:
250,367,21199,6,0,L|224:235,1,132.750005064011,2|2,3:2|0:0,0:0:0:0:
143,305,21645,2,0,L|126:388,1,79.649997569275,10|0,0:0|3:0,0:0:0:0:
75,204,22090,5,10,0:0:0:0:
326,346,22239,1,2,3:2:0:0:
28,356,22387,1,8,0:0:0:0:
261,143,22536,1,8,0:0:0:0:
261,143,22610,1,8,0:0:0:0:
261,143,22684,6,0,B|367:141|309:212|446:196,1,165.9375,6|0,3:2|0:0,0:0:0:0:
486,169,22981,2,0,P|441:175|401:212,1,84.0749977549553,8|0,0:0|0:0,0:0:0:0:
326,346,23278,1,0,3:0:0:0:
261,143,23427,1,0,3:0:0:0:
436,317,23575,1,10,0:0:0:0:
216,375,23724,6,0,B|111:382|165:316|47:327,1,168.149995509911,2|0,3:2|0:0,0:0:0:0:
147,183,24169,2,0,P|190:215|191:305,1,126.112496632433,8|0,0:0|0:0,0:0:0:0:
200,283,24466,1,0,3:0:0:0:
326,346,24615,1,0,3:0:0:0:
111,269,24763,1,8,0:0:0:0:
350,107,24912,6,0,P|318:175|302:280,1,168.149995509911,6|0,3:2|0:0,0:0:0:0:
205,105,25357,2,0,P|189:71|180:18,1,84.0749977549553,10|0,0:0|0:0,0:0:0:0:
46,211,25654,1,2,3:2:0:0:
236,220,25803,1,2,3:2:0:0:
87,99,25951,1,10,0:0:0:0:
136,283,26100,1,2,0:0:0:0:
336,157,26249,6,0,P|377:180|413:213,1,84.0749977549553,6|0,3:2|0:0,0:0:0:0:
292,34,26546,1,10,0:0:0:0:
117,200,26694,2,0,P|77:185|41:164,1,84.0749977549553,2|0,0:0|3:0,0:0:0:0:
205,105,26991,1,0,3:0:0:0:
251,301,27140,2,0,P|283:274|319:253,1,84.0749977549553,10|0,0:0|0:0,0:0:0:0:
101,116,27437,6,0,P|37:120|11:226,2,168.149995509911,6|8|0,3:2|0:0|3:0,0:0:0:0:
192,220,28179,1,0,0:0:0:0:
284,85,28328,2,0,P|246:103|191:102,1,84.0749977549553,10|2,0:0|0:0,0:0:0:0:
363,252,28625,5,6,3:2:0:0:
458,0,28774,1,0,0:0:0:0:
204,104,28922,1,8,0:0:0:0:
418,324,29070,6,0,B|455:279|455:279|436:139,1,168.149995509911,6|0,3:2|0:0,0:0:0:0:
304,313,29516,2,0,P|282:350|281:395,1,70.8,2|0,0:0|0:0,0:0:0:0:
198,167,29813,6,0,B|109:161|147:222|37:202,1,150.450002869606,2|2,3:2|0:0,0:0:0:0:
57,204,30258,2,0,P|91:230|95:285,1,97.3500029708863,10|0,0:0|0:0,0:0:0:0:
239,365,30704,6,0,P|245:297|274:217,1,150.450002869606,2|2,3:2|0:0,0:0:0:0:
178,81,31150,2,0,P|181:120|198:167,1,88.5,10|0,0:0|0:0,0:0:0:0:
336,20,31595,5,10,0:0:0:0:
82,206,31744,1,2,3:2:0:0:
390,269,31892,1,8,0:0:0:0:
99,32,32041,1,8,0:0:0:0:
99,32,32115,1,8,0:0:0:0:
99,32,32189,6,0,P|33:50|59:174,1,179.212500683641,6|0,3:2|0:0,0:0:0:0:
82,206,32486,2,0,P|56:161|16:147,1,88.5,8|0,0:0|0:0,0:0:0:0:
56,315,32783,1,0,3:0:0:0:
182,174,32932,2,0,P|226:196|282:206,1,88.5,2|8,3:2|0:0,0:0:0:0:
461,76,33229,6,0,P|389:70|346:159,1,177,2|0,3:2|3:0,0:0:0:0:
408,305,33674,2,0,P|437:272|482:258,1,88.5,8|0,0:0|0:0,0:0:0:0:
248,115,33971,1,2,3:2:0:0:
300,314,34120,1,0,3:0:0:0:
361,73,34268,2,0,P|395:38|453:31,1,88.5,8|0,0:0|0:0,0:0:0:0:
224,223,34565,6,0,B|124:187|146:274|33:231,1,177,6|8,3:2|0:0,0:0:0:0:
18,111,35011,2,0,P|69:127|88:170,1,88.5,2|0,0:0|3:0,0:0:0:0:
180,312,35308,1,0,3:0:0:0:
264,95,35456,2,0,P|216:116|163:128,1,88.5,10|0,0:0|0:0,0:0:0:0:
319,297,35753,6,0,P|369:229|466:232,1,177,6|8,3:2|0:0,0:0:0:0:
415,314,36199,1,0,0:0:0:0:
343,145,36348,2,0,P|355:103|367:42,1,88.5,0|0,3:0|3:0,0:0:0:0:
226,312,36645,1,10,0:0:0:0:
455,226,36793,1,2,0:0:0:0:
161,108,36942,6,0,B|54:99|101:169|-13:163,1,177,6|8,3:2|0:0,0:0:0:0:
239,6,37387,2,0,P|300:19|318:122,1,177,2|0,0:0|3:0,0:0:0:0:
206,231,37833,2,0,P|188:159|138:79,1,132.75,10|0,0:0|0:0,0:0:0:0:
97,49,38130,5,6,3:2:0:0:
314,223,38278,2,0,P|349:202|407:186,1,88.5,6|0,3:2|0:0,0:0:0:0:
218,326,38575,6,0,B|114:331|165:265|39:270,1,177,6|0,3:2|3:0,0:0:0:0:
222,236,39021,1,8,0:0:0:0:
265,241,39095,1,0,0:0:0:0:
299,269,39169,1,0,0:0:0:0:
314,310,39243,1,0,0:0:0:0:
306,353,39318,6,0,P|365:310|442:288,1,132.75,6|0,3:2|0:0,0:0:0:0:
508,274,39615,2,0,P|480:236|469:185,1,88.5,10|0,0:0|0:0,0:0:0:0:
500,49,39912,1,2,3:2:0:0:
378,183,40060,2,0,P|337:164|281:154,1,88.5,2|8,3:2|0:0,0:0:0:0:
67,318,40357,6,0,P|102:259|210:276,1,177,2|0,3:2|3:0,0:0:0:0:
295,353,40803,2,0,P|338:344|377:323,1,88.5,10|0,0:0|0:0,0:0:0:0:
237,194,41100,2,0,P|195:172|149:164,1,88.5,2|0,3:2|3:0,0:0:0:0:
407,100,41397,2,0,P|386:138|377:182,1,88.5,10|0,0:0|0:0,0:0:0:0:
242,82,41694,6,0,P|221:43|212:0,1,88.5,0|0,3:0|0:0,0:0:0:0:
358,253,41991,2,0,P|396:232|460:215,1,88.5,10|0,0:0|0:0,0:0:0:0:
261,107,42288,1,2,3:2:0:0:
141,287,42437,2,0,P|98:273|59:252,1,88.5,2|8,3:2|0:0,0:0:0:0:
283,128,42734,6,0,B|316:228|241:204|291:314,1,177,2|0,3:2|3:0,0:0:0:0:
377,166,43179,2,0,P|371:123|349:69,1,88.5,10|0,0:0|0:0,0:0:0:0:
191,255,43476,2,0,P|185:297|163:352,1,88.5,2|0,3:2|3:0,0:0:0:0:
94,109,43773,2,0,P|140:84|190:90,1,88.5,10|0,0:0|0:0,0:0:0:0:
119,198,44070,6,0,L|17:179,1,99.5625037980081,0|0,3:0|0:0,0:0:0:0:
116,291,44367,6,0,B|219:287|154:213|310:241,1,165.9375,14|0,3:2|0:0,0:0:0:0:
356,244,44664,1,2,3:2:0:0:
244,108,44813,2,0,P|256:67|269:-1,1,88.5,2|8,3:2|0:0,0:0:0:0:
443,210,45110,6,0,P|362:220|331:123,1,177,6|0,3:2|0:0,0:0:0:0:
478,62,45555,2,0,P|500:103|507:147,1,88.5,10|0,0:0|0:0,0:0:0:0:
237,127,45852,2,0,P|261:86|296:58,1,88.5,2|0,3:2|3:0,0:0:0:0:
414,303,46150,2,0,P|367:302|325:286,1,88.5,10|0,0:0|0:0,0:0:0:0:
141,141,46447,6,0,P|182:143|222:230,1,132.75,2|0,3:2|0:0,0:0:0:0:
210,237,46744,1,10,0:0:0:0:
106,363,46892,2,0,P|95:301|56:229,1,132.75,2|0,0:0|0:0,0:0:0:0:
37,221,47189,1,0,3:0:0:0:
191,60,47338,1,8,0:0:0:0:
276,301,47486,6,0,B|377:318|337:235|470:271,1,177,2|0,3:2|3:0,0:0:0:0:
350,150,47932,2,0,P|308:187|300:232,1,88.5,10|0,0:0|0:0,0:0:0:0:
231,58,48229,1,2,3:2:0:0:
173,186,48377,1,2,3:2:0:0:
103,0,48526,1,8,0:0:0:0:
45,128,48674,1,0,0:0:0:0:
260,42,48823,6,0,P|308:39|354:66,1,92.9249971641541,2|0,0:0|0:0,0:0:0:0:
422,162,49120,6,0,P|365:189|289:119,1,172.574992100144,14|0,3:2|0:0,0:0:0:0:
289,125,49417,1,2,3:2:0:0:
215,294,49565,1,2,3:2:0:0:
149,68,49714,1,10,0:0:0:0:
135,350,49862,6,0,P|220:326|317:309,1,177,2|0,3:2|3:0,0:0:0:0:
126,213,50308,2,0,P|83:201|35:192,1,88.5,10|0,0:0|0:0,0:0:0:0:
307,310,50605,2,0,P|349:298|397:289,1,88.5,10|0,0:0|0:0,0:0:0:0:
235,87,50902,2,0,P|192:75|144:66,1,88.5,10|0,0:0|0:0,0:0:0:0:
381,208,51199,6,0,P|399:162|438:132,1,86.2874960500719,2|0,0:0|0:0,0:0:0:0:
273,171,51496,6,0,P|225:224|99:180,1,179.212500683641,14|0,3:2|0:0,0:0:0:0:
68,150,51793,1,2,3:2:0:0:
118,306,51942,1,0,3:0:0:0:
185,94,52090,1,10,0:0:0:0:
265,357,52239,6,0,P|306:317|398:301,1,132.75,2|0,3:2|0:0,0:0:0:0:
415,310,52536,1,0,3:0:0:0:
289,85,52684,2,0,P|277:136|260:192,1,88.5,8|0,0:0|0:0,0:0:0:0:
118,306,52981,2,0,P|106:254|89:199,1,88.5,8|0,0:0|0:0,0:0:0:0:
393,94,53278,6,0,P|384:130|372:169,1,44.25,8|0,1:2|0:0,0:0:0:0:
185,94,53427,2,0,P|176:57|164:18,1,44.25,8|0,1:2|0:0,0:0:0:0:
250,273,53575,6,0,B|363:276|304:207|436:217,1,177.88499158564,6|0,3:2|0:0,0:0:0:0:
489,281,54169,2,0,P|475:313|471:353,1,59.2949971952135,10|0,0:0|0:0,0:0:0:0:
411,216,54466,1,2,1:2:0:0:
281,374,54615,6,0,P|223:352|158:335,1,118.589994390427,2|0,3:2|0:0,0:0:0:0:
74,225,55060,2,0,P|87:255|97:289,1,59.2949971952135,2|0,1:2|0:0,0:0:0:0:
197,119,55357,1,10,0:0:0:0:
314,275,55506,2,0,P|380:221|418:215,1,118.589994390427,2|0,0:0|0:0,0:0:0:0:
302,0,55951,6,0,B|287:42|287:42|291:69|291:69|267:138,1,106.199996759033,6|0,3:2|0:0,0:0:0:0:
201,309,56249,1,8,0:0:0:0:
181,95,56397,1,0,3:0:0:0:
282,354,56546,1,0,3:0:0:0:
377,107,56694,1,0,3:0:0:0:
120,354,56843,1,8,0:0:0:0:
36,50,56991,1,0,3:0:0:0:
314,275,57140,6,0,P|374:283|448:252,1,106.199996759033,6|0,3:2|0:0,0:0:0:0:
279,101,57437,1,8,0:0:0:0:
201,309,57585,1,0,3:0:0:0:
166,67,57734,1,0,3:0:0:0:
314,275,57882,1,0,3:0:0:0:
413,11,58031,1,8,0:0:0:0:
140,196,58179,1,0,3:0:0:0:
444,360,58328,6,0,P|452:311|491:227,1,106.199996759033,6|0,3:2|0:0,0:0:0:0:
262,21,58625,1,8,0:0:0:0:
323,303,58773,1,0,3:0:0:0:
413,11,58922,1,0,3:0:0:0:
140,196,59070,1,0,3:0:0:0:
472,372,59219,1,8,0:0:0:0:
168,34,59367,6,0,P|94:29|34:147,1,212.399993518067,6|0,3:2|3:0,0:0:0:0:
408,269,59813,5,8,0:0:0:0:
127,120,59961,1,0,3:0:0:0:
458,102,60110,5,8,0:0:0:0:
50,224,60258,1,0,3:0:0:0:
512,275,60407,5,8,1:2:0:0:
7,108,60555,1,8,3:2:0:0:
251,301,60852,5,2,3:0:0:0:
280,162,61001,1,2,3:0:0:0:
149,279,61150,2,0,P|169:331|183:380,1,106.199996759033,2|0,3:2|0:0,0:0:0:0:
360,77,61447,5,10,0:0:0:0:
319,43,61521,1,8,0:0:0:0:
267,43,61595,1,10,0:0:0:0:
227,75,61669,1,8,0:0:0:0:
186,108,61744,1,8,0:0:0:0:
134,109,61818,1,8,0:0:0:0:
94,77,61892,6,0,P|111:154|121:258,1,159.29999513855,6|0,3:2|0:0,0:0:0:0:
109,323,62189,1,10,0:0:0:0:
275,187,62338,2,0,P|327:205|379:216,1,106.199996759033,2|0,0:0|3:0,0:0:0:0:
128,8,62635,2,0,P|75:26|24:37,1,106.199996759033,2|8,0:0|0:0,0:0:0:0:
143,241,62932,1,0,0:0:0:0:
325,33,63080,6,0,B|420:19|381:93|506:68,1,159.29999513855,2|0,3:2|0:0,0:0:0:0:
502,65,63377,1,10,0:0:0:0:
275,187,63526,2,0,P|215:171|184:139,1,106.199996759033,2|0,3:2|0:0,0:0:0:0:
128,8,63823,1,2,3:2:0:0:
268,89,63971,1,10,0:0:0:0:
39,76,64120,1,2,0:0:0:0:
198,288,64268,6,0,B|234:334|234:334|279:171,1,212.399993518067,2|8,3:2|0:0,0:0:0:0:
323,21,64714,1,2,0:0:0:0:
371,246,64862,1,2,3:2:0:0:
268,89,65011,2,0,P|213:100|141:112,1,106.199996759033,2|8,3:2|0:0,0:0:0:0:
392,127,65308,1,0,0:0:0:0:
150,7,65456,6,0,P|75:48|79:163,1,212.399993518067,2|10,3:2|0:0,0:0:0:0:
360,128,65902,2,0,B|276:134|276:134|248:101|248:101|146:110,1,212.399993518067,2|0,0:0|0:0,0:0:0:0:
84,221,66348,1,8,0:0:0:0:
110,218,66422,1,8,0:0:0:0:
136,216,66496,1,8,0:0:0:0:
163,214,66570,1,8,0:0:0:0:
189,211,66645,6,0,P|175:158|155:77,1,106.199996759033,6|0,3:2|0:0,0:0:0:0:
392,263,66942,2,0,P|378:315|358:397,1,106.199996759033,10|0,0:0|0:0,0:0:0:0:
283,103,67239,2,0,P|333:48|440:75,1,159.29999513855,2|0,3:2|0:0,0:0:0:0:
434,72,67536,1,10,0:0:0:0:
221,288,67684,6,0,B|101:301|142:211|19:222,1,212.399993518067,6|0,3:2|3:0,0:0:0:0:
241,198,68130,2,0,P|294:225|310:286,1,106.199996759033,10|0,0:0|0:0,0:0:0:0:
98,75,68427,2,0,P|44:101|28:163,1,106.199996759033,2|0,3:2|3:0,0:0:0:0:
282,25,68724,2,0,P|355:54|437:72,1,159.29999513855,10|0,0:0|0:0,0:0:0:0:
506,17,69021,6,0,B|555:127|457:115|505:228,1,212.399993518067,6|8,3:2|0:0,0:0:0:0:
409,367,69466,1,0,0:0:0:0:
288,113,69615,1,2,3:2:0:0:
454,294,69763,1,0,3:0:0:0:
212,348,69912,1,10,0:0:0:0:
354,41,70060,6,0,B|389:115|389:115|318:264,1,212.399993518067,6|0,3:2|0:0,0:0:0:0:
288,113,70506,1,10,0:0:0:0:
239,335,70654,2,0,P|286:320|353:314,1,106.199996759033,2|0,0:0|3:0,0:0:0:0:
165,116,70951,5,10,0:0:0:0:
130,123,71025,1,8,0:0:0:0:
101,142,71099,1,8,0:0:0:0:
79,170,71173,1,8,0:0:0:0:
68,203,71248,1,8,0:0:0:0:
68,239,71322,1,8,0:0:0:0:
80,271,71397,6,0,P|130:256|191:246,1,106.199996759033,6|2,3:2|0:0,0:0:0:0:
423,337,71694,1,10,0:0:0:0:
263,188,71843,1,2,0:0:0:0:
476,259,71991,1,2,3:2:0:0:
183,246,72140,2,0,P|164:187|186:127,1,106.199996759033,2|8,3:2|0:0,0:0:0:0:
311,23,72437,1,2,0:0:0:0:
245,307,72585,6,0,P|171:280|49:251,1,159.29999513855,6|0,3:2|0:0,0:0:0:0:
9,258,72882,1,10,0:0:0:0:
250,104,73031,2,0,P|308:138|309:236,1,159.29999513855,2|0,0:0|0:0,0:0:0:0:
300,247,73328,1,2,3:2:0:0:
92,259,73476,1,10,0:0:0:0:
322,363,73625,1,2,0:0:0:0:
143,78,73773,6,0,P|80:77|18:213,1,212.399993518067,6|10,3:2|0:0,0:0:0:0:
198,341,74219,1,2,3:2:0:0:
113,175,74367,1,2,0:0:0:0:
341,149,74516,2,0,P|312:206|296:264,1,106.199996759033,2|8,3:2|0:0,0:0:0:0:
203,15,74813,1,0,0:0:0:0:
376,323,74961,6,0,P|426:301|491:283,1,106.199996759033,6|0,3:2|0:0,0:0:0:0:
214,114,75258,1,0,0:0:0:0:
313,366,75407,6,0,P|367:372|432:388,1,106.199996759033,6|0,3:2|0:0,0:0:0:0:
282,57,75704,1,0,0:0:0:0:
166,319,75852,2,0,P|120:293|69:275,1,106.199996759033,6|0,3:2|0:0,0:0:0:0:
297,144,76150,5,0,3:2:0:0:
313,366,76298,1,0,3:0:0:0:
313,366,76595,5,8,0:3:0:0:
339,361,76669,1,8,0:3:0:0:
362,347,76743,1,8,0:3:0:0:
183,230,76892,1,0,1:2:0:0:
453,34,77189,6,0,B|424:113|424:113|436:156|436:156|397:252,1,212.399993518067,6|0,3:2|3:0,0:0:0:0:
272,284,77635,2,0,P|259:206|229:104,1,159.29999513855,10|0,0:2|0:0,0:0:0:0:
194,59,77932,6,0,P|205:24|226:-6,1,53.0999983795166,2|0,0:0|0:0,0:0:0:0:
75,146,78080,2,0,P|63:111|43:81,1,53.0999983795166,2|0,0:0|0:0,0:0:0:0:
75,146,78377,6,0,B|55:222|55:222|62:249|62:249|37:333,1,177,2|0,3:2|0:0,0:0:0:0:
41,316,78823,2,0,P|72:305|129:323,1,66.3750025320054,0|0,1:0|0:0,0:0:0:0:
150,237,79120,2,0,P|175:259|187:317,1,66.3750025320054,0|0,1:0|0:0,0:0:0:0:
272,291,79417,1,0,1:0:0:0:
402,57,79565,6,0,B|341:29|341:29|217:88,1,177,6|8,3:2|0:0,0:0:0:0:
159,127,79937,1,0,0:0:0:0:
159,127,80011,1,0,0:0:0:0:
336,203,80159,1,0,0:0:0:0:
161,315,80308,6,0,P|145:303|138:291,1,22.125,2|2,0:0|0:0,0:0:0:0:
133,299,80382,6,0,P|125:280|125:266,1,22.125,2|2,0:0|0:0,0:0:0:0:
116,271,80456,6,0,P|118:251|125:239,1,22.125,2|2,0:0|0:0,0:0:0:0:
116,238,80531,6,0,P|128:222|140:215,1,22.125,2|2,0:0|0:0,0:0:0:0:
131,210,80605,6,0,P|149:202|163:202,1,22.125,2|2,0:0|0:0,0:0:0:0:
160,193,80680,6,0,P|179:195|191:202,1,22.125,2|2,0:0|0:0,0:0:0:0:
191,192,80753,6,0,P|207:203|213:216,1,22.125,2|2,0:0|0:0,0:0:0:0:
221,209,80828,6,0,P|228:227|228:241,1,22.125,2|2,0:0|0:0,0:0:0:0:
219,266,80902,5,6,3:2:0:0:
358,162,81051,2,0,P|339:94|326:12,1,141.6,2|0,0:0|0:0,0:0:0:0:
462,148,81496,2,0,P|452:181|445:223,1,70.8,10|0,0:0|0:0,0:0:0:0:
465,312,81793,1,0,0:0:0:0:
338,182,81942,6,0,B|260:182|298:229|204:224,1,141.6,2|0,3:2|0:0,0:0:0:0:
90,139,82387,2,0,P|126:139|165:155,1,70.8,2|0,0:0|0:0,0:0:0:0:
50,279,82684,6,0,P|37:240|20:199,1,70.8,10|0,0:0|0:0,0:0:0:0:
90,139,82981,2,0,P|102:100|120:59,1,70.8,2|0,0:0|0:0,0:0:0:0:
207,224,83278,5,0,3:0:0:0:
314,83,83427,2,0,P|350:80|396:175,1,141.6,2|0,0:0|0:0,0:0:0:0:
322,269,83872,2,0,P|317:230|300:184,1,70.8,10|0,0:0|0:0,0:0:0:0:
244,142,84169,1,2,0:0:0:0:
273,347,84318,6,0,B|322:365|322:365|419:329,1,132.75,6|0,3:2|0:0,0:0:0:0:
422,325,84615,1,2,3:2:0:0:
207,224,84763,1,10,0:0:0:0:
446,129,84912,1,2,3:2:0:0:
176,340,85060,1,10,0:0:0:0:
143,0,85209,1,10,0:0:0:0:
143,0,85506,6,0,B|179:99|100:70|152:183,1,177,6|0,3:2|0:0,0:0:0:0:
273,347,85951,1,10,0:0:0:0:
232,120,86100,1,2,0:0:0:0:
103,356,86249,1,2,3:2:0:0:
319,186,86397,2,0,P|362:203|423:218,1,88.5,2|8,3:2|0:0,0:0:0:0:
187,16,86694,6,0,P|144:11|78:114,1,177,2|0,3:2|0:0,0:0:0:0:
76,109,88031,5,14,3:2:0:0:
295,367,88179,1,2,3:2:0:0:
340,23,88328,1,10,0:0:0:0:
119,384,88476,1,2,3:2:0:0:
24,40,88625,5,14,3:2:0:0:
505,185,88773,1,2,3:2:0:0:
26,323,88922,1,10,0:0:0:0:
439,21,89070,6,0,L|403:211,1,165.937506330014,6|0,3:2|0:0,0:0:0:0:
402,211,89516,1,0,0:0:0:0:
