osu file format v14

[General]
AudioFilename: audio.mp3
AudioLeadIn: 0
PreviewTime: 57251
Countdown: 0
SampleSet: Soft
StackLeniency: 0.7
Mode: 2
LetterboxInBreaks: 0
WidescreenStoryboard: 0

[Editor]
DistanceSpacing: 0.4
BeatDivisor: 4
GridSize: 32
TimelineZoom: 2.2

[Metadata]
Title:Rakuen no Tsubasa (TV Size)
TitleUnicode:楽園の翼 (TV Size)
Artist:Maon Kurosaki
ArtistUnicode:黒崎真音
Creator:-Hex-
Version:Grisaia
Source:グリザイアの果実
Tags:-LE FRUIT DE LA GRISAIA- grisaia no kajitsu frontwing visual novel vn anime opening op japanese pop jpop j-pop 桑島由一 藤間仁 Elements Garden Adinda Secre chickenbible rew0825 zerokt
BeatmapID:2857961
BeatmapSetID:1383436

[Difficulty]
HPDrainRate:6
CircleSize:4.2
OverallDifficulty:9.2
ApproachRate:9.2
SliderMultiplier:2.1
SliderTickRate:2

[Events]
//Background and Video events
0,0,"bground.jpg",0,0
//Break Periods
//Storyboard Layer 0 (Background)
//Storyboard Layer 1 (Fail)
//Storyboard Layer 2 (Pass)
//Storyboard Layer 3 (Foreground)
//Storyboard Layer 4 (Overlay)
//Storyboard Sound Samples

[TimingPoints]
-523,387.096774193548,4,2,1,55,1,0
1025,-100,4,2,1,55,0,0
4122,-100,4,2,1,70,0,0
7799,-100,4,2,1,55,0,0
8573,-100,4,2,1,80,0,0
8960,-100,4,2,1,80,0,0
15541,-76.9230769230769,4,2,1,80,0,0
15927,-100,4,2,1,80,0,0
16508,-100,4,2,1,80,0,0
17089,-71.4285714285714,4,2,1,80,0,0
17476,-100,4,2,1,80,0,0
21154,-100,4,2,1,50,0,0
31993,-100,4,2,1,60,0,0
32573,-100,4,2,1,60,0,0
32960,-100,4,2,1,60,0,0
33541,-100,4,2,1,65,0,0
37218,-66.6666666666667,4,2,1,65,0,0
37509,-100,4,2,1,65,0,0
37606,-83.3333333333333,4,2,1,65,0,0
37896,-100,4,2,1,65,0,0
38960,-100,4,2,1,65,0,0
45928,-100,4,2,1,70,0,0
49412,-100,4,2,1,70,0,0
52122,-100,4,2,1,75,0,0
54444,-100,4,2,1,75,0,0
55218,-100,4,2,1,80,0,0
56573,-100,4,2,1,80,0,0
56960,-100,4,2,1,80,0,0
58122,-90.9090909090909,4,2,1,85,0,1
58509,-90.9090909090909,4,2,1,85,0,1
62767,-76.9230769230769,4,2,1,85,0,1
63735,-90.9090909090909,4,2,1,85,0,1
64703,-90.9090909090909,4,2,1,85,0,1
69348,-90.9090909090909,4,2,1,85,0,1
69541,-90.9090909090909,4,2,1,85,0,1
69735,-90.9090909090909,4,2,1,85,0,1
70509,-83.3333333333333,4,2,1,85,0,1
70896,-90.9090909090909,4,2,1,85,0,1
75154,-71.4285714285714,4,2,1,85,0,1
76122,-90.9090909090909,4,2,1,85,0,1
77090,-90.9090909090909,4,2,1,85,0,1
79025,-66.6666666666667,4,2,1,85,0,1
79412,-90.9090909090909,4,2,1,85,0,1
80283,-90.9090909090909,4,2,1,85,0,1
80573,-90.9090909090909,4,2,1,85,0,1
80767,-90.9090909090909,4,2,1,85,0,1
81057,-90.9090909090909,4,2,1,85,0,1
81348,-90.9090909090909,4,2,1,85,0,1
81541,-100,4,2,1,70,0,0
83089,-100,4,2,1,80,0,0
86186,-100,4,2,1,80,0,0
87154,-38.4615384615385,4,2,1,80,0,0
87638,-100,4,2,1,5,0,0

[Colours]
Combo1 : 201,177,213
Combo2 : 245,136,53
Combo3 : 107,56,115

[HitObjects]
186,274,1025,6,0,L|13:224,2,157.5,14|0|0,0:1|0:0|0:0,0:0:0:0:
364,206,1799,2,0,L|522:162,2,157.5,2|0|0,0:0|0:0|0:0,0:0:0:0:
96,342,2573,6,0,P|68:280|181:192,1,210,14|0,0:1|3:0,0:0:0:0:
233,184,3153,1,0,3:0:0:0:
270,101,3347,1,0,3:0:0:0:
223,23,3540,1,0,3:0:0:0:
132,17,3734,1,2,0:0:0:0:
301,14,3928,1,2,0:0:0:0:
27,217,4122,6,0,P|102:237|177:308,2,157.5,10|8|8,0:0|0:3|0:3,0:0:0:0:
307,145,4896,2,0,P|237:153|161:223,2,157.5,6|4|4,0:3|0:3|0:3,0:0:0:0:
37,26,5670,1,14,0:1:0:0:
339,351,7799,5,2,0:0:0:0:
324,196,7993,1,2,0:0:0:0:
493,87,8186,1,2,0:0:0:0:
324,196,8380,1,2,0:0:0:0:
33,251,8573,6,0,L|254:244,1,210,12|10,0:1|0:1,0:0:0:0:
64,171,9154,2,0,L|55:33,1,105,10|0,0:0|0:0,0:0:0:0:
331,49,9541,1,10,0:1:0:0:
463,47,9735,1,10,0:1:0:0:
463,47,9928,1,10,0:0:0:0:
189,288,10122,6,0,L|183:155,1,105,10|0,0:1|0:0,0:0:0:0:
342,148,10509,1,10,0:1:0:0:
70,122,10702,2,0,P|9:70|89:-1,1,210,8|8,0:0|0:1,0:0:0:0:
262,26,11283,2,0,L|144:27,1,105,10|10,0:1|0:0,0:0:0:0:
414,113,11670,6,0,L|540:116,1,105,10|0,0:1|0:0,0:0:0:0:
414,206,12057,1,10,0:1:0:0:
235,283,12251,1,10,0:0:0:0:
414,206,12444,2,0,L|424:334,1,105,2|8,0:0|0:1,0:0:0:0:
243,285,12831,1,10,0:1:0:0:
423,352,13025,1,10,0:0:0:0:
149,277,13218,6,0,P|99:243|184:161,1,210,10|8,0:1|0:1,0:0:0:0:
353,87,13799,2,0,L|96:71,1,210,8|8,0:0|0:1,0:0:0:0:
315,174,14380,1,10,0:1:0:0:
39,191,14573,1,10,0:0:0:0:
345,359,14767,6,0,P|417:319|336:270,1,210,14|8,0:1|0:1,0:0:0:0:
492,113,15347,1,10,0:0:0:0:
145,47,15541,2,0,B|9:48|9:48|200:48|167:47,1,272.999987503052,10|8,0:1|0:1,0:0:0:0:
419,214,16122,2,0,P|428:142|351:115,1,157.5,10|0,0:0|0:0,0:0:0:0:
126,293,16509,6,0,L|3:295,1,105,14|0,0:1|0:0,0:0:0:0:
158,194,16896,1,10,0:0:0:0:
474,85,17089,2,0,L|166:86,1,293.999991027832,10|8,0:1|0:1,0:0:0:0:
454,212,17670,1,10,0:0:0:0:
328,322,17864,1,10,0:3:0:0:
383,321,17960,1,8,0:3:0:0:
198,252,18057,6,0,L|66:251,1,105,14|0,0:0|0:0,0:0:0:0:
265,154,18347,2,0,L|268:28,1,105,8|0,0:3|0:0,0:0:0:0:
209,43,18638,1,8,0:3:0:0:
484,341,18831,2,0,L|358:340,1,105,6|0,0:3|0:0,0:0:0:0:
221,345,19122,2,0,L|218:213,1,105,4|0,0:3|0:0,0:0:0:0:
278,214,19412,1,4,0:3:0:0:
20,40,19606,5,10,0:0:0:0:
273,31,19799,1,8,0:0:0:0:
14,197,20186,1,10,0:0:0:0:
296,310,21154,5,14,0:1:0:0:
117,309,21347,2,0,L|114:182,1,105,10|0,0:1|0:0,0:0:0:0:
294,187,21735,2,0,P|359:155|279:82,1,210,2|0,0:0|0:0,0:0:0:0:
174,78,22315,2,0,L|304:78,1,105,2|0,0:0|0:0,0:0:0:0:
98,282,22702,6,0,L|211:281,2,105,2|0|0,0:0|0:0|0:0,0:0:0:0:
277,332,23283,1,2,0:0:0:0:
291,234,23476,1,2,0:0:0:0:
251,144,23670,1,0,0:0:0:0:
168,89,23863,1,2,0:0:0:0:
70,88,24057,1,0,0:0:0:0:
353,22,24251,5,10,0:1:0:0:
195,73,24444,2,0,L|182:196,1,105,10|0,0:1|0:0,0:0:0:0:
363,313,24831,2,0,L|141:307,1,210,2|0,0:0|0:0,0:0:0:0:
331,230,25412,2,0,L|464:229,1,105,2|0,0:0|0:0,0:0:0:0:
256,157,25799,6,0,P|183:109|266:67,1,210,2|0,0:0|0:0,0:0:0:0:
429,57,26380,1,2,0:0:0:0:
136,252,26573,2,0,L|324:246,2,157.5,2|2|2,0:0|0:0|0:0,0:0:0:0:
431,61,27347,5,10,0:1:0:0:
263,68,27541,2,0,L|242:194,1,105,10|0,0:1|0:0,0:0:0:0:
77,326,27928,2,0,L|300:322,1,210,2|0,0:0|0:0,0:0:0:0:
382,322,28509,1,0,0:0:0:0:
287,239,28702,1,2,0:0:0:0:
466,280,28896,5,2,0:0:0:0:
368,251,29089,1,0,0:0:0:0:
324,158,29283,1,2,0:0:0:0:
364,65,29476,1,0,0:0:0:0:
461,32,29670,1,2,0:0:0:0:
281,37,29864,2,0,L|172:37,1,105,2|0,0:0|0:0,0:0:0:0:
344,141,30251,2,0,L|411:138,1,52.5,2|2,0:0|0:0,0:0:0:0:
182,146,30444,5,10,0:1:0:0:
309,145,30638,2,0,L|311:267,1,105,10|0,0:1|0:0,0:0:0:0:
131,346,31025,2,0,L|382:337,1,210,2|0,0:0|3:0,0:0:0:0:
161,263,31606,2,0,L|12:254,1,105,0|0,3:0|3:0,0:0:0:0:
321,55,31993,5,10,0:0:0:0:
163,99,32186,1,10,0:3:0:0:
105,94,32282,1,0,0:0:0:0:
266,162,32379,1,10,0:3:0:0:
324,157,32476,1,0,0:0:0:0:
102,320,32573,2,0,P|41:247|126:190,1,210,14|10,0:1|0:0,0:0:0:0:
404,138,33154,1,10,0:3:0:0:
268,54,33347,2,0,L|328:55,1,52.5,10|8,0:0|0:0,0:0:0:0:
100,119,33541,5,14,0:1:0:0:
227,116,33735,1,8,0:1:0:0:
100,119,33928,1,10,0:0:0:0:
368,351,34122,2,0,L|385:232,1,105,10|0,0:1|0:0,0:0:0:0:
203,170,34509,1,8,0:1:0:0:
359,170,34702,1,10,0:0:0:0:
203,170,34896,1,2,0:0:0:0:
479,283,35089,5,10,0:1:0:0:
322,285,35283,1,8,0:1:0:0:
479,283,35476,1,8,0:0:0:0:
196,111,35670,2,0,L|91:111,1,105,10|2,0:1|0:0,0:0:0:0:
264,206,36057,1,10,0:1:0:0:
92,343,36251,2,0,L|215:342,1,105,10|2,0:0|0:0,0:0:0:0:
458,210,36638,5,10,0:3:0:0:
311,315,36831,1,0,0:0:0:0:
375,314,36927,1,8,0:0:0:0:
439,313,37024,1,10,0:0:0:0:
132,224,37218,2,0,B|35:226|35:226|23:76,1,236.250009012223,14|0,0:1|0:0,0:0:0:0:
244,47,37606,2,0,L|42:46,1,188.999994232178,14|0,0:1|0:0,0:0:0:0:
269,157,37993,6,0,L|392:157,1,105,14|0,0:1|0:0,0:0:0:0:
374,157,38380,1,8,0:1:0:0:
196,353,38573,2,0,P|246:309|365:263,1,157.5,10|0,0:0|0:0,0:0:0:0:
158,232,38960,2,0,L|-6:226,2,157.5,10|8|8,0:0|0:3|0:3,0:0:0:0:
447,355,39735,5,14,0:1:0:0:
300,353,39928,1,8,0:1:0:0:
447,355,40122,1,8,0:0:0:0:
269,257,40315,2,0,L|407:256,1,105,10|0,0:1|0:0,0:0:0:0:
194,170,40702,2,0,L|194:47,1,105,8|8,0:1|0:0,0:0:0:0:
361,37,41089,1,2,0:0:0:0:
76,41,41283,6,0,L|193:40,2,105,14|8|8,0:1|0:1|0:0,0:0:0:0:
244,167,41864,1,8,0:1:0:0:
67,254,42057,2,0,L|64:134,1,105,2|10,0:0|0:1,0:0:0:0:
242,352,42444,2,0,L|137:354,1,105,10|2,0:0|0:0,0:0:0:0:
418,281,42831,6,0,P|473:244|386:160,1,210,12|8,0:1|0:0,0:0:0:0:
224,83,43412,2,0,L|456:76,1,210,8|8,0:1|0:1,0:0:0:0:
254,316,43993,2,0,L|128:317,1,105,8|0,0:0|0:0,0:0:0:0:
437,217,44380,5,10,0:0:0:0:
142,229,44573,2,0,P|164:178|264:129,1,157.5,10|0,0:0|0:0,0:0:0:0:
459,53,44960,2,0,L|327:49,1,105,14|0,0:1|0:0,0:0:0:0:
64,336,45347,2,0,L|177:335,2,105,2|10|2,0:0|0:3|0:0,0:0:0:0:
357,326,45928,6,0,L|466:326,1,105,14|2,0:1|0:0,0:0:0:0:
284,253,46315,1,10,0:0:0:0:
462,258,46509,2,0,L|464:143,1,105,2|8,0:0|0:0,0:0:0:0:
285,125,46896,1,2,0:0:0:0:
463,124,47089,1,10,0:0:0:0:
202,330,47283,6,0,P|184:263|297:207,1,210,2|2,0:0|0:0,0:0:0:0:
171,121,47864,1,8,0:0:0:0:
496,368,48057,2,0,P|465:297|339:216,1,210,2|10,0:0|0:1,0:0:0:0:
181,142,48638,2,0,L|311:143,1,105,10|10,0:0|0:1,0:0:0:0:
14,355,49025,6,0,L|155:349,2,105,10|0|8,0:0|0:0|0:0,0:0:0:0:
193,353,49606,2,0,P|252:321|180:232,1,210,2|2,0:0|0:0,0:0:0:0:
67,232,50186,1,10,0:0:0:0:
334,101,50380,6,0,L|111:98,1,210,2|2,0:0|0:0,0:0:0:0:
240,173,50960,1,10,0:0:0:0:
50,288,51154,1,2,0:0:0:0:
233,359,51541,1,10,0:1:0:0:
52,359,51735,2,0,P|73:300|157:252,1,157.5,10|0,0:0|0:0,0:0:0:0:
452,228,52122,6,0,P|431:170|306:87,1,210,14|8,0:1|0:0,0:0:0:0:
134,59,52702,2,0,L|367:53,1,210,8|8,0:1|0:1,0:0:0:0:
163,194,53283,2,0,L|47:198,1,105,8|8,0:0|0:1,0:0:0:0:
319,349,53670,5,8,0:0:0:0:
163,350,53864,1,2,0:0:0:0:
469,245,54057,2,0,P|444:182|364:133,1,157.5,2|0,0:0|0:0,0:0:0:0:
184,133,54444,2,0,L|68:134,2,105,2|10|8,0:0|0:3|0:0,0:0:0:0:
370,35,55025,1,10,0:0:0:0:
302,34,55122,1,8,0:0:0:0:
62,113,55218,6,0,L|48:259,1,105,12|8,0:1|0:1,0:0:0:0:
232,350,55606,1,8,0:0:0:0:
63,343,55799,1,8,0:1:0:0:
378,275,55993,2,0,L|388:142,1,105,8|10,0:0|0:1,0:0:0:0:
114,119,56380,1,6,0:3:0:0:
433,360,56573,6,0,P|445:307|348:264,1,157.5,12|0,0:0|0:0,0:0:0:0:
162,268,56960,1,4,0:3:0:0:
452,177,57154,2,0,L|435:98,1,52.5,4|0,0:3|0:0,0:0:0:0:
266,99,57347,2,0,L|250:28,1,52.5,6|0,0:3|0:0,0:0:0:0:
479,24,57541,5,10,0:0:0:0:
321,222,57735,1,10,0:0:0:0:
385,222,57831,1,8,0:0:0:0:
449,220,57928,1,10,0:0:0:0:
78,344,58122,6,0,P|119:295|228:251,1,173.250005287171,14|0,0:1|0:0,0:0:0:0:
385,241,58509,1,10,0:1:0:0:
95,197,58702,2,0,L|82:68,1,115.50000352478,10|0,0:0|0:0,0:0:0:0:
336,45,59089,1,10,0:1:0:0:
174,42,59283,1,10,0:1:0:0:
335,164,59476,1,10,0:0:0:0:
42,341,59670,6,0,L|37:220,1,115.50000352478,10|0,0:1|0:0,0:0:0:0:
357,228,60057,2,0,P|428:164|328:106,1,231.000007049561,10|0,0:1|0:0,0:0:0:0:
239,107,60638,1,8,0:1:0:0:
54,345,60831,1,10,0:1:0:0:
177,343,61025,1,10,0:0:0:0:
437,294,61218,6,0,L|460:163,1,115.50000352478,10|8,0:1|0:1,0:0:0:0:
353,169,61606,1,10,0:1:0:0:
174,163,61799,1,10,0:0:0:0:
353,169,61993,2,0,L|223:171,1,115.50000352478,10|8,0:1|0:1,0:0:0:0:
416,321,62380,2,0,L|424:192,1,115.50000352478,10|10,0:1|0:0,0:0:0:0:
45,241,62767,6,0,B|229:265|259:304|335:270|280:194|197:152|80:168|45:136|37:88|16:184|33:15|135:-42|335:142|250:78|276:104,1,682.499968757631,10|0,0:1|0:0,0:0:0:0:
81,354,63928,2,0,L|196:365,1,115.50000352478,10|10,0:1|0:0,0:0:0:0:
477,365,64315,6,0,L|218:324,1,231.000007049561,14|10,0:1|0:1,0:0:0:0:
421,248,64896,1,10,0:0:0:0:
141,259,65089,2,0,L|151:9,1,231.000007049561,14|8,0:1|0:1,0:0:0:0:
7,62,65670,1,10,0:0:0:0:
362,354,65864,6,0,L|110:343,1,231.000007049561,14|10,0:1|0:1,0:0:0:0:
458,232,66444,1,10,0:0:0:0:
156,233,66638,2,0,P|75:194|166:165,1,231.000007049561,14|8,0:1|0:1,0:0:0:0:
12,322,67218,1,8,0:0:0:0:
351,353,67412,6,0,L|191:355,1,115.50000352478,14|0,0:1|0:0,0:0:0:0:
385,278,67799,1,10,0:1:0:0:
73,145,67993,2,0,L|62:268,1,115.50000352478,10|2,0:0|0:0,0:0:0:0:
373,73,68380,1,10,0:1:0:0:
212,74,68573,1,10,0:1:0:0:
373,73,68767,1,10,0:0:0:0:
12,329,68960,6,0,L|206:321,1,173.250005287171,14|0,0:1|0:0,0:0:0:0:
372,313,69347,2,0,L|431:310,1,57.7500017623902,10|0,0:0|0:0,0:0:0:0:
235,205,69541,2,0,L|222:131,1,57.7500017623902,10|0,0:0|0:0,0:0:0:0:
418,66,69735,2,0,L|480:63,1,57.7500017623902,10|0,0:0|0:0,0:0:0:0:
266,24,69928,5,10,0:3:0:0:
115,106,70122,1,10,0:0:0:0:
52,104,70218,1,8,0:0:0:0:
115,106,70315,1,10,0:0:0:0:
477,361,70509,6,0,L|272:357,1,188.999994232178,14|0,0:1|0:0,0:0:0:0:
475,261,70896,1,10,0:1:0:0:
200,278,71089,2,0,L|187:156,1,115.50000352478,10|0,0:0|0:0,0:0:0:0:
479,116,71476,1,10,0:1:0:0:
317,113,71670,1,10,0:1:0:0:
479,116,71864,1,10,0:0:0:0:
191,353,72057,6,0,L|181:223,1,115.50000352478,10|0,0:1|0:0,0:0:0:0:
488,353,72444,2,0,P|466:256|340:209,1,231.000007049561,10|0,0:1|0:0,0:0:0:0:
244,207,73025,1,8,0:1:0:0:
423,143,73218,2,0,L|432:10,1,115.50000352478,10|10,0:1|0:0,0:0:0:0:
132,356,73606,6,0,L|276:343,1,115.50000352478,10|8,0:1|0:1,0:0:0:0:
352,337,73993,1,10,0:1:0:0:
169,259,74186,1,10,0:0:0:0:
352,250,74380,2,0,L|339:119,1,115.50000352478,10|8,0:1|0:1,0:0:0:0:
159,103,74767,2,0,L|34:95,1,115.50000352478,10|10,0:1|0:0,0:0:0:0:
428,314,75154,6,0,B|247:309|217:348|141:314|196:238|279:196|396:212|431:180|484:150|460:228|443:59|341:2|115:145|155:107|173:134,1,734.999977569581,10|0,0:1|0:0,0:0:0:0:
344,246,76315,2,0,L|474:256,1,115.50000352478,10|10,0:1|0:0,0:0:0:0:
104,353,76702,6,0,L|346:340,1,231.000007049561,14|10,0:1|0:1,0:0:0:0:
155,275,77283,1,10,0:0:0:0:
434,273,77476,2,0,P|494:246|413:153,1,231.000007049561,14|8,0:1|0:1,0:0:0:0:
154,195,78057,1,10,0:0:0:0:
317,190,78251,1,2,0:0:0:0:
32,339,78444,5,14,0:1:0:0:
204,335,78638,1,8,0:1:0:0:
32,339,78831,1,10,0:0:0:0:
453,166,79025,2,0,L|131:165,1,315.000012016297,14|8,0:1|0:1,0:0:0:0:
318,348,79606,2,0,L|323:221,1,115.50000352478,10|2,0:0|0:0,0:0:0:0:
20,193,79993,6,0,L|165:193,1,115.50000352478,14|0,0:0|0:0,0:0:0:0:
309,189,80283,2,0,L|310:51,1,115.50000352478,10|0,0:3|0:0,0:0:0:0:
136,59,80573,1,10,0:3:0:0:
456,358,80767,6,0,L|333:357,1,115.50000352478,6|0,0:3|0:0,0:0:0:0:
167,278,81057,2,0,L|284:276,1,115.50000352478,6|0,0:3|0:0,0:0:0:0:
457,270,81347,1,6,0:3:0:0:
172,136,81541,5,14,0:1:0:0:
112,348,82702,5,10,0:0:0:0:
175,348,82799,1,2,0:0:0:0:
349,204,82896,1,2,0:0:0:0:
286,208,82993,1,2,0:0:0:0:
70,124,83089,5,14,0:1:0:0:
205,121,83283,1,8,0:1:0:0:
70,124,83476,1,8,0:0:0:0:
372,344,83670,2,0,L|143:343,1,210,10|8,0:1|0:1,0:0:0:0:
342,232,84251,1,10,0:0:0:0:
46,250,84444,6,0,L|36:122,1,105,2|8,0:0|0:1,0:0:0:0:
131,123,84831,1,8,0:1:0:0:
305,49,85025,2,0,L|162:51,1,105,10|0,0:0|0:0,0:0:0:0:
372,158,85412,2,0,L|377:271,1,105,2|10,0:0|0:1,0:0:0:0:
79,348,85799,2,0,P|105:287|186:233,1,157.5,10|0,0:0|0:0,0:0:0:0:
362,223,86186,5,8,0:1:0:0:
279,156,86379,1,8,0:1:0:0:
174,129,86573,1,8,0:0:0:0:
451,121,86767,2,0,L|454:254,1,105,2|8,0:0|0:1,0:0:0:0:
13,343,87154,1,10,0:1:0:0:
480,200,87541,5,14,0:1:0:0:
256,192,87735,12,0,89283,0:0:0:0:
