osu file format v14

[General]
AudioFilename: audio.mp3
AudioLeadIn: 0
PreviewTime: 52237
Countdown: 0
SampleSet: Soft
StackLeniency: 0.7
Mode: 0
LetterboxInBreaks: 0
WidescreenStoryboard: 1

[Editor]
Bookmarks: 12093,23191,39838,53711,64809,75907,87005,98104,109202,117526,128624,145271,156369,167468,181341,192439,203537,214635,225734,236832
DistanceSpacing: 1
BeatDivisor: 4
GridSize: 4
TimelineZoom: 1.5

[Metadata]
Title:Memories Last
TitleUnicode:メモリーズ・ラスト
Artist:Maon Kurosaki
ArtistUnicode:黒崎真音
Creator:Hinsvar
Version:Normal
Source:とある魔術の禁書目録Ⅱ
Tags:Toaru Majutsu no Index II 2 To Aru A Certain Magical Index Japanese Pop J-Pop JPop anime 2nd season ending ED2 full version length
BeatmapID:4044607
BeatmapSetID:1952438

[Difficulty]
HPDrainRate:3
CircleSize:3
OverallDifficulty:4
ApproachRate:5
SliderMultiplier:1.12
SliderTickRate:1

[Events]
//Background and Video events
0,0,"index.jpg",0,0
//Break Periods
2,181541,189678
//Storyboard Layer 0 (Background)
//Storyboard Layer 1 (Fail)
//Storyboard Layer 2 (Pass)
//Storyboard Layer 3 (Foreground)
//Storyboard Layer 4 (Overlay)
//Storyboard Sound Samples

[TimingPoints]
995,346.820809248555,4,2,1,75,1,0
23191,-100,4,2,1,60,0,0
34289,-100,4,2,1,70,0,0
39838,-100,4,2,1,65,0,0
45388,-100,4,2,1,70,0,0
50937,-100,4,2,1,60,0,0
52324,-100,4,2,1,70,0,0
53711,346.820809248555,4,2,1,80,1,1
53711,-90.9090909090909,4,2,1,80,0,1
68104,-90.9090909090909,4,2,1,80,0,0
68190,-90.9090909090909,4,2,1,5,0,0
68450,-90.9090909090909,4,2,1,80,0,0
68537,-90.9090909090909,4,2,1,5,0,0
68797,-90.9090909090909,4,2,1,80,0,1
75907,-100,4,2,1,70,0,0
87005,-100,4,2,1,65,0,0
98104,-100,4,2,1,70,0,0
103653,-100,4,2,1,65,0,0
109202,-100,4,2,1,70,0,0
114751,-111.111111111111,4,2,1,60,0,0
116138,-100,4,2,1,70,0,0
117526,346.820809248555,4,2,1,80,1,1
117526,-90.9090909090909,4,2,1,80,0,1
131919,-90.9090909090909,4,2,1,80,0,0
132005,-90.9090909090909,4,2,1,5,0,0
132265,-90.9090909090909,4,2,1,80,0,0
132352,-90.9090909090909,4,2,1,5,0,0
132612,-90.9090909090909,4,2,1,80,0,1
139722,-100,4,2,1,70,0,0
145271,-100,4,2,1,60,0,0
156369,-100,4,2,1,70,0,0
167468,-100,4,2,1,65,0,0
173017,-100,4,2,1,70,0,0
178566,-100,4,2,1,60,0,0
179953,-100,4,2,1,70,0,0
181341,346.820809248555,4,2,1,80,1,0
192439,-90.9090909090909,4,2,1,80,0,1
195734,-90.9090909090909,4,2,1,80,0,0
195820,-90.9090909090909,4,2,1,5,0,0
196080,-90.9090909090909,4,2,1,80,0,0
196167,-90.9090909090909,4,2,1,5,0,0
196427,-90.9090909090909,4,2,1,80,0,1
203537,-100,4,2,1,70,0,0
214635,-100,4,2,1,75,0,0
237005,-100,4,2,1,60,0,0
237525,-100,4,2,1,50,0,0
238219,-100,4,2,1,40,0,0
238913,-100,4,2,1,35,0,0
239606,-100,4,2,1,30,0,0
240300,-100,4,2,1,25,0,0
240994,-100,4,2,1,20,0,0
241687,-100,4,2,1,15,0,0
242034,-100,4,2,1,10,0,0
242381,-100,4,2,1,5,0,0

[Colours]
Combo1 : 121,223,170
Combo2 : 191,186,228
Combo3 : 223,185,121
Combo4 : 170,142,221

[HitObjects]
445,64,11746,6,0,L|436:125,1,56,10|0,0:0|0:0,0:0:0:0:
426,174,12093,6,0,P|378:190|347:247,1,112,6|10,3:2|0:0,0:0:0:0:
355,296,12613,1,2,0:0:0:0:
260,356,12960,2,0,P|236:348|220:319,1,56,0|10,3:0|0:0,0:0:0:0:
185,279,13307,2,0,L|58:296,1,112,2|0,3:2|3:0,0:0:0:0:
68,237,13827,1,10,0:0:0:0:
20,135,14174,2,0,L|32:78,1,56,8|0,0:0|3:0,0:0:0:0:
82,57,14521,2,0,L|125:95,1,56,10|0,0:0|3:0,0:0:0:0:
169,127,14867,6,0,P|216:125|264:84,1,112,2|10,3:2|0:0,0:0:0:0:
282,31,15388,1,2,0:0:0:0:
393,29,15734,2,0,L|411:88,1,56,0|10,3:0|0:0,0:0:0:0:
459,108,16081,2,0,P|468:137|470:223,1,112,2|0,3:2|3:0,0:0:0:0:
470,274,16601,1,10,0:0:0:0:
377,314,16948,2,0,L|337:276,1,56,10|0,0:0|3:0,0:0:0:0:
329,219,17295,2,0,L|369:181,1,56,10|0,0:0|3:0,0:0:0:0:
335,135,17642,6,0,P|283:133|229:161,1,112,6|10,3:2|0:0,0:0:0:0:
194,202,18162,1,2,0:0:0:0:
84,177,18509,2,0,L|71:231,1,56,0|10,3:0|0:0,0:0:0:0:
59,287,18856,2,0,L|136:372,1,112,2|0,3:2|3:0,0:0:0:0:
190,365,19376,1,10,0:0:0:0:
273,290,19723,2,0,L|338:297,1,56,8|0,0:0|3:0,0:0:0:0:
363,340,20070,2,0,L|428:333,1,56,10|2,0:0|3:2,0:0:0:0:
470,354,20416,6,0,P|490:312|490:240,1,112,6|8,3:2|0:0,0:0:0:0:
480,192,20937,1,2,0:0:0:0:
377,146,21284,2,0,P|367:167|367:203,1,56,0|8,3:0|0:0,0:0:0:0:
372,254,21630,1,6,3:2:0:0:
262,277,21977,1,8,0:3:0:0:
262,277,22151,2,0,L|204:285,1,56,10|0,0:0|3:0,0:0:0:0:
151,295,22497,2,0,L|143:237,1,56,10|0,0:0|3:0,0:0:0:0:
133,184,22844,2,0,L|191:176,1,56,10|2,0:0|0:0,0:0:0:0:
244,166,23191,5,4,3:2:0:0:
241,58,23538,1,8,0:0:0:0:
241,58,23711,2,0,P|184:64|129:42,1,112,2|0,0:0|3:0,0:0:0:0:
89,21,24231,1,8,0:0:0:0:
89,21,24405,1,2,0:0:0:0:
32,117,24752,2,0,P|25:144|26:179,1,56,0|8,3:0|0:0,0:0:0:0:
57,217,25099,2,0,P|100:289|175:361,1,168,2|8,0:0|0:0,0:0:0:0:
217,364,25792,1,0,3:0:0:0:
217,364,25966,1,2,3:2:0:0:
307,297,26312,6,0,L|371:287,2,56,8|2|0,0:0|0:0|3:0,0:0:0:0:
265,258,26833,2,0,L|201:248,1,56,0|8,3:0|0:0,0:0:0:0:
177,203,27179,1,2,0:0:0:0:
167,91,27526,1,0,3:0:0:0:
279,81,27873,2,0,P|357:76|406:147,1,168,2|8,0:0|0:0,0:0:0:0:
392,200,28567,1,2,0:0:0:0:
392,200,28740,6,0,L|502:215,1,112,2|8,3:2|0:0,0:0:0:0:
503,271,29260,1,2,0:0:0:0:
424,350,29607,2,0,L|361:356,1,56,0|8,3:0|0:0,0:0:0:0:
312,361,29954,2,0,P|314:308|291:241,1,112,2|0,0:0|3:0,0:0:0:0:
281,203,30474,1,10,0:0:0:0:
281,203,30648,1,0,0:0:0:0:
96,205,31168,2,0,P|77:233|73:261,1,56,10|0,0:0|3:0,0:0:0:0:
34,295,31515,6,0,P|69:347|171:341,1,168,6|2,3:2|0:0,0:0:0:0:
260,284,32382,2,0,P|286:287|304:267,2,56,0|10|0,3:0|0:0|0:0,0:0:0:0:
211,255,32902,2,0,L|204:191,1,56,8|8,0:0|0:0,0:0:0:0:
200,143,33249,1,8,0:0:0:0:
295,84,33596,2,0,L|359:77,2,56,8|8|8,0:0|0:0|0:0,0:0:0:0:
271,39,34116,1,2,0:0:0:0:
271,39,34289,6,0,P|218:54|158:36,1,112,6|8,3:2|0:0,0:0:0:0:
112,16,34810,1,2,0:0:0:0:
28,89,35156,2,0,L|66:129,1,56,0|8,3:0|0:0,0:0:0:0:
105,170,35503,1,2,3:2:0:0:
20,242,35850,1,0,3:0:0:0:
20,242,36023,2,0,P|40:291|51:357,1,112,8|8,0:0|0:0,0:0:0:0:
162,357,36717,2,0,P|166:329|177:303,1,56,10|0,0:0|3:0,0:0:0:0:
204,255,37064,6,0,P|261:266|316:241,1,112,2|8,3:2|0:0,0:0:0:0:
326,192,37584,1,2,0:0:0:0:
433,223,37931,2,0,P|442:248|437:275,1,56,0|8,3:0|0:0,0:0:0:0:
424,330,38278,1,2,3:2:0:0:
323,373,38625,1,0,3:0:0:0:
323,373,38798,1,10,0:0:0:0:
214,345,39145,2,0,L|153:361,1,56,10|0,0:0|3:0,0:0:0:0:
105,345,39492,2,0,L|44:361,1,56,10|0,0:0|3:0,0:0:0:0:
38,309,39838,5,10,0:0:0:0:
38,309,40012,2,0,L|26:246,1,56,10|10,0:0|0:0,0:0:0:0:
62,150,40532,1,8,0:0:0:0:
62,150,40705,1,0,3:0:0:0:
155,88,41052,2,0,P|198:129|264:136,1,112,2|0,3:2|3:0,0:0:0:0:
304,131,41573,1,8,0:0:0:0:
403,181,41919,2,0,P|388:238|415:299,1,112,8|2,0:0|0:0,0:0:0:0:
335,375,42613,5,10,0:0:0:0:
335,375,42786,2,0,P|313:354|280:351,1,56,10|10,0:0|0:0,0:0:0:0:
223,264,43307,1,8,0:0:0:0:
223,264,43480,1,0,3:0:0:0:
126,206,43827,2,0,P|68:222|29:276,1,112,2|0,3:2|3:0,0:0:0:0:
39,317,44347,1,8,0:0:0:0:
142,360,44694,1,10,0:0:0:0:
254,356,45041,2,0,L|249:296,1,56,10|0,0:0|3:0,0:0:0:0:
247,244,45388,5,6,3:2:0:0:
217,136,45734,2,0,L|165:114,2,56,10|2|0,0:0|0:0|3:0,0:0:0:0:
269,113,46255,2,0,L|314:78,1,56,0|10,3:0|0:0,0:0:0:0:
336,28,46601,1,2,3:2:0:0:
451,45,46948,1,0,3:0:0:0:
451,45,47122,2,0,P|470:93|472:165,1,112,10|0,0:0|3:0,0:0:0:0:
486,264,47815,2,0,P|462:273|426:274,1,56,10|0,0:0|3:0,0:0:0:0:
379,254,48162,6,0,P|316:272|297:323,1,112,6|10,3:2|0:0,0:0:0:0:
291,366,48682,1,2,0:0:0:0:
115,323,49203,1,10,0:0:0:0:
115,323,49376,2,0,P|115:259|95:209,1,112,2|0,3:2|3:0,0:0:0:0:
64,169,49896,1,10,0:0:0:0:
145,91,50243,2,0,L|212:84,1,56,8|0,0:0|3:0,0:0:0:0:
213,30,50590,2,0,L|280:37,1,56,10|2,0:0|0:0,0:0:0:0:
324,40,50937,5,0,3:0:0:0:
455,192,51457,1,0,3:0:0:0:
324,344,51977,1,0,3:0:0:0:
216,311,52324,6,0,L|191:260,1,56,10|10,0:0|0:0,0:0:0:0:
172,213,52671,1,10,0:0:0:0:
172,213,52844,1,10,0:0:0:0:
428,42,53711,6,0,P|460:95|457:169,2,123.200003759766,6|10|0,3:2|0:0|3:0,0:0:0:0:
312,77,54751,1,10,0:0:0:0:
312,77,54924,2,0,P|313:137|345:189,1,123.200003759766,2|0,3:2|3:0,0:0:0:0:
380,241,55445,2,0,L|362:308,1,61.6000018798829,10|0,0:0|3:0,0:0:0:0:
311,333,55791,1,0,3:0:0:0:
189,354,56138,2,0,L|171:287,1,61.6000018798829,10|0,0:0|3:0,0:0:0:0:
120,262,56485,6,0,P|61:265|9:224,1,123.200003759766,2|10,3:2|0:0,0:0:0:0:
18,166,57005,1,2,0:0:0:0:
104,78,57352,2,0,P|133:76|159:97,1,61.6000018798829,0|10,3:0|0:0,0:0:0:0:
199,141,57699,2,0,P|239:62|331:25,1,184.800005639649,2|10,3:2|0:0,0:0:0:0:
380,51,58393,2,0,P|414:54|442:50,2,61.6000018798829,0|2|0,3:0|3:2|3:0,0:0:0:0:
388,112,58913,2,0,P|391:142|388:173,1,61.6000018798829,10|0,0:0|3:0,0:0:0:0:
384,234,59260,5,6,3:2:0:0:
261,248,59606,2,0,L|193:256,1,61.6000018798829,10|2,0:0|0:0,0:0:0:0:
150,218,59953,2,0,L|134:354,1,123.200003759766,0|10,3:0|0:0,0:0:0:0:
75,357,60474,2,0,L|53:173,1,184.800005639649,0|10,3:0|0:0,0:0:0:0:
43,50,61341,2,0,P|65:29|109:22,1,61.6000018798829,0|0,3:0|3:0,0:0:0:0:
154,32,61687,1,10,0:0:0:0:
276,21,62034,6,0,P|318:65|332:153,1,123.200003759766,6|10,3:2|0:0,0:0:0:0:
327,185,62554,1,2,0:0:0:0:
333,308,62901,2,0,P|341:337|362:359,1,61.6000018798829,0|10,3:0|0:0,0:0:0:0:
423,366,63248,1,2,3:2:0:0:
492,265,63595,1,0,3:0:0:0:
492,265,63768,2,0,L|493:202,1,61.6000018798829,14|0,0:0|3:0,0:0:0:0:
472,145,64115,2,0,L|409:144,1,61.6000018798829,10|0,0:0|3:0,0:0:0:0:
352,165,64462,2,0,L|351:228,1,61.6000018798829,10|0,0:0|3:0,0:0:0:0:
292,247,64809,6,0,L|168:245,2,123.200003759766,6|10|0,3:2|0:0|3:0,0:0:0:0:
357,358,65849,1,10,0:0:0:0:
357,358,66023,2,0,L|233:356,1,123.200003759766,2|0,3:2|3:0,0:0:0:0:
172,358,66543,2,0,L|110:357,1,61.6000018798829,10|0,0:0|3:0,0:0:0:0:
48,358,66890,1,0,3:0:0:0:
24,236,67237,2,0,L|55:182,1,61.6000018798829,10|0,0:0|3:0,0:0:0:0:
86,129,67583,2,0,L|146:237,1,123.200003759766,2|0,3:2|3:0,0:0:0:0:
205,255,68104,5,2,3:2:0:0:
326,236,68450,1,2,3:2:0:0:
447,217,68797,6,0,P|487:157|479:98,1,123.200003759766,6|0,3:2|3:0,0:0:0:0:
438,74,69317,1,10,0:0:0:0:
438,74,69491,2,0,P|427:42|430:11,2,61.6000018798829,0|10|0,3:0|0:0|3:0,0:0:0:0:
380,96,70011,2,0,L|311:86,1,61.6000018798829,10|0,0:0|3:0,0:0:0:0:
258,75,70358,5,6,3:2:0:0:
139,65,70705,1,10,0:0:0:0:
139,65,70878,2,0,P|121:48|117:-2,2,61.6000018798829,2|0|0,0:0|3:0|3:0,0:0:0:0:
159,128,71398,1,10,0:0:0:0:
159,128,71572,2,0,P|161:202|63:316,1,184.800005639649,2|10,3:2|0:0,0:0:0:0:
204,365,72439,2,0,P|227:321|321:287,1,123.200003759766,2|10,0:0|0:0,0:0:0:0:
349,318,72959,1,0,3:0:0:0:
349,318,73132,6,0,P|344:261|355:184,1,123.200003759766,2|10,3:2|0:0,0:0:0:0:
361,134,73653,1,2,0:0:0:0:
425,28,74000,2,0,P|457:29|486:49,1,61.6000018798829,0|10,3:0|0:0,0:0:0:0:
498,103,74346,2,0,P|505:188|489:304,1,184.800005639649,2|10,3:2|0:0,0:0:0:0:
398,364,75213,2,0,P|346:339|285:291,1,123.200003759766,2|10,3:2|0:0,0:0:0:0:
212,210,75907,5,6,3:2:0:0:
212,210,76080,2,0,L|216:146,2,56,2|0|0,0:0|0:0|0:0,0:0:0:0:
155,209,76601,1,10,0:0:0:0:
58,261,76947,1,10,0:0:0:0:
58,261,77121,1,0,3:0:0:0:
132,352,77468,1,2,0:0:0:0:
132,352,77641,2,0,P|186:360|245:323,2,112,0|10|0,3:0|0:0|0:0,0:0:0:0:
58,261,78682,6,0,P|7:163|22:54,1,224,6|10,3:2|0:0,0:0:0:0:
131,82,79722,2,0,P|128:112|115:142,2,56,8|0|2,0:0|3:0|0:0,0:0:0:0:
235,35,80416,1,0,3:0:0:0:
235,35,80589,1,2,0:0:0:0:
335,96,80936,1,10,0:0:0:0:
335,96,81109,2,0,P|335:126|345:157,1,56,8|8,0:0|0:0,0:0:0:0:
399,174,81456,5,10,0:0:0:0:
399,174,81630,1,10,0:0:0:0:
159,366,82497,5,10,0:0:0:0:
159,366,82670,1,10,0:0:0:0:
31,181,83364,6,0,L|48:128,1,56,10|10,0:0|0:0,0:0:0:0:
94,95,83711,2,0,L|77:42,2,56,8|8|8,0:0|0:0|0:0,0:0:0:0:
153,108,84231,5,10,0:0:0:0:
153,108,84404,1,10,0:0:0:0:
372,332,85271,5,10,0:0:0:0:
372,332,85445,1,10,0:0:0:0:
503,151,86138,6,0,L|491:87,1,56,10|10,0:0|0:0,0:0:0:0:
452,65,86485,1,8,0:0:0:0:
452,65,86658,2,0,L|388:77,1,56,8|2,0:0|3:2,0:0:0:0:
351,107,87005,6,0,P|301:92|250:45,1,112,6|8,3:2|0:0,0:0:0:0:
153,22,87699,1,0,3:0:0:0:
153,22,87872,1,2,3:2:0:0:
47,58,88219,2,0,P|23:107|47:159,1,112,2|2,0:0|3:2,0:0:0:0:
104,162,88739,1,8,0:0:0:0:
104,162,88913,2,0,P|183:187|203:288,1,168,2|8,0:0|0:0,0:0:0:0:
210,321,89606,1,0,3:0:0:0:
210,321,89780,5,2,3:2:0:0:
106,363,90127,1,8,0:0:0:0:
23,285,90474,2,0,P|25:251|33:221,1,56,2|0,3:2|3:0,0:0:0:0:
42,178,90820,1,8,0:0:0:0:
42,178,90994,2,0,P|96:189|152:192,1,112,2|0,0:0|3:0,0:0:0:0:
181,143,91514,1,8,0:0:0:0:
181,143,91687,2,0,P|235:141|278:37,1,168,2|10,0:0|0:0,0:0:0:0:
397,46,92554,5,2,3:2:0:0:
397,46,92728,2,0,L|469:39,2,56,0|8|2,0:0|0:0|0:0,0:0:0:0:
399,102,93248,2,0,L|406:174,2,56,0|2|8,3:0|3:2|0:0,0:0:0:0:
343,104,93768,1,2,0:0:0:0:
248,43,94115,2,0,P|222:32|185:34,1,56,0|10,3:0|0:0,0:0:0:0:
138,38,94462,2,0,P|70:89|20:188,1,168,2|10,0:0|0:0,0:0:0:0:
26,219,95156,5,0,3:0:0:0:
26,219,95329,2,0,P|112:229|166:306,1,168,6|2,3:2|0:0,0:0:0:0:
271,269,96196,2,0,P|282:242|269:214,2,56,0|10|0,3:0|0:0|0:0,0:0:0:0:
298,318,96716,2,0,L|366:326,1,56,0|0,3:0|3:0,0:0:0:0:
409,332,97063,1,8,0:0:0:0:
446,226,97410,2,0,L|514:218,2,56,8|8|8,0:0|0:0|0:0,0:0:0:0:
396,198,97930,1,2,0:0:0:0:
396,198,98104,6,0,P|368:153|358:89,1,112,6|8,3:2|0:0,0:0:0:0:
352,39,98624,1,2,0:0:0:0:
248,81,98971,2,0,P|225:95|193:100,1,56,0|8,3:0|0:0,0:0:0:0:
155,62,99317,1,2,3:2:0:0:
51,34,99664,1,0,3:0:0:0:
51,34,99838,2,0,P|41:88|12:136,1,112,8|8,0:0|0:0,0:0:0:0:
45,243,100531,2,0,L|104:224,1,56,10|0,0:0|3:0,0:0:0:0:
134,183,100878,6,0,L|249:225,1,112,2|8,3:2|0:0,0:0:0:0:
254,275,101398,1,2,0:0:0:0:
358,234,101745,2,0,P|369:258|374:297,1,56,0|8,3:0|0:0,0:0:0:0:
380,342,102092,1,2,3:2:0:0:
493,370,102439,1,0,3:0:0:0:
493,370,102612,1,10,0:0:0:0:
496,257,102959,2,0,P|485:233|480:194,1,56,10|0,0:0|3:0,0:0:0:0:
445,159,103306,2,0,P|440:132|445:94,1,56,10|0,0:0|3:0,0:0:0:0:
448,51,103653,5,10,0:0:0:0:
448,51,103826,2,0,L|382:38,1,56,10|10,0:0|0:0,0:0:0:0:
286,26,104346,1,8,0:0:0:0:
286,26,104520,1,0,3:0:0:0:
173,27,104867,2,0,P|125:48|91:100,1,112,2|0,3:2|3:0,0:0:0:0:
83,152,105387,1,8,0:0:0:0:
193,169,105734,2,0,P|242:192|273:238,1,112,8|2,0:0|0:0,0:0:0:0:
242,349,106427,5,10,0:0:0:0:
242,349,106601,2,0,L|175:365,1,56,10|10,0:0|0:0,0:0:0:0:
81,345,107121,1,8,0:0:0:0:
81,345,107294,1,0,3:0:0:0:
55,235,107641,2,0,L|23:101,1,112,2|0,3:2|3:0,0:0:0:0:
17,71,108161,1,8,0:0:0:0:
118,24,108508,1,10,0:0:0:0:
222,65,108855,2,0,L|208:119,1,56,2|0,3:2|3:0,0:0:0:0:
198,174,109202,5,6,3:2:0:0:
304,208,109549,2,0,P|327:184|336:152,1,56,8|2,0:0|0:0,0:0:0:0:
349,109,109895,2,0,P|332:86|325:59,2,56,0|0|10,3:0|3:0|0:0,0:0:0:0:
405,104,110416,1,2,3:2:0:0:
480,194,110763,1,0,3:0:0:0:
480,194,110936,2,0,P|464:243|470:308,1,112,10|0,0:0|3:0,0:0:0:0:
371,357,111630,2,0,L|315:347,1,56,10|0,0:0|3:0,0:0:0:0:
292,296,111976,6,0,P|240:301|182:320,1,112,6|10,3:2|0:0,0:0:0:0:
145,361,112497,1,2,0:0:0:0:
145,361,112670,1,0,3:0:0:0:
48,316,113017,1,10,0:0:0:0:
48,316,113190,2,0,L|80:204,1,112,2|0,3:2|3:0,0:0:0:0:
96,155,113711,1,10,0:0:0:0:
201,192,114057,2,0,L|212:251,1,56,8|0,0:0|3:0,0:0:0:0:
260,275,114404,2,0,L|319:264,1,56,10|2,0:0|3:2,0:0:0:0:
354,303,114751,6,0,P|426:269|469:56,1,302.399990771485,0|0,3:0|0:0,0:0:0:0:
376,14,116138,6,0,P|364:37|370:77,1,56,10|10,0:0|0:0,0:0:0:0:
377,126,116485,1,10,0:0:0:0:
377,126,116658,1,10,0:0:0:0:
60,247,117526,6,0,P|50:176|18:132,2,123.200003759766,6|10|0,3:2|0:0|3:0,0:0:0:0:
143,345,118566,1,10,0:0:0:0:
143,345,118739,2,0,P|199:326|262:358,1,123.200003759766,2|0,3:2|3:0,0:0:0:0:
281,294,119260,2,0,P|271:266|287:234,1,61.6000018798829,10|0,0:0|3:0,0:0:0:0:
334,203,119606,1,0,3:0:0:0:
429,125,119953,2,0,P|438:97|422:65,1,61.6000018798829,10|0,0:0|3:0,0:0:0:0:
376,34,120300,6,0,P|314:31|250:23,1,123.200003759766,2|10,3:2|0:0,0:0:0:0:
191,21,120820,1,2,0:0:0:0:
68,31,121167,2,0,P|66:62|62:94,1,61.6000018798829,0|10,3:0|0:0,0:0:0:0:
58,153,121514,2,0,P|151:157|247:169,1,184.800005639649,2|10,3:2|0:0,0:0:0:0:
298,142,122208,2,0,P|297:104|292:80,2,61.6000018798829,0|2|0,3:0|3:2|3:0,0:0:0:0:
353,168,122728,2,0,P|378:141|392:119,1,61.6000018798829,10|0,0:0|3:0,0:0:0:0:
420,66,123075,5,6,3:2:0:0:
494,163,123421,2,0,L|499:237,1,61.6000018798829,10|2,0:0|0:0,0:0:0:0:
456,270,123768,2,0,L|451:344,2,61.6000018798829,0|0|10,3:0|3:0|0:0,0:0:0:0:
399,244,124289,2,0,P|313:243|271:335,1,184.800005639649,0|10,3:0|0:0,0:0:0:0:
153,364,125156,2,0,P|151:331|135:301,1,61.6000018798829,0|0,3:0|3:0,0:0:0:0:
89,268,125502,1,10,0:0:0:0:
37,156,125849,6,0,L|162:136,1,123.200003759766,6|10,3:2|0:0,0:0:0:0:
167,75,126369,1,2,0:0:0:0:
278,21,126716,2,0,L|340:34,1,61.6000018798829,0|10,3:0|0:0,0:0:0:0:
398,49,127063,1,2,3:2:0:0:
471,154,127410,1,0,3:0:0:0:
471,154,127583,2,0,L|399:171,1,61.6000018798829,14|0,0:0|3:0,0:0:0:0:
356,196,127930,2,0,L|334:266,1,61.6000018798829,10|0,0:0|3:0,0:0:0:0:
280,278,128277,2,0,L|262:219,1,61.6000018798829,10|0,0:0|3:0,0:0:0:0:
207,191,128624,6,0,P|149:170|79:178,2,123.200003759766,6|10|0,3:2|0:0|3:0,0:0:0:0:
233,73,129664,1,10,0:0:0:0:
233,73,129838,2,0,P|172:61|122:26,1,123.200003759766,2|0,3:2|3:0,0:0:0:0:
61,19,130358,2,0,P|38:38|26:70,1,61.6000018798829,10|0,0:0|3:0,0:0:0:0:
13,127,130705,1,0,3:0:0:0:
42,246,131052,2,0,P|71:241|97:219,1,61.6000018798829,10|0,0:0|3:0,0:0:0:0:
137,177,131398,2,0,P|189:196|221:254,1,123.200003759766,2|0,3:2|3:0,0:0:0:0:
227,314,131919,5,2,3:2:0:0:
348,330,132265,1,2,3:2:0:0:
469,346,132612,6,0,L|456:215,1,123.200003759766,6|0,3:2|3:0,0:0:0:0:
407,196,133132,1,10,0:0:0:0:
407,196,133306,2,0,P|378:211|342:216,2,61.6000018798829,0|2|0,3:0|3:2|3:0,0:0:0:0:
416,134,133826,2,0,P|392:111|359:97,1,61.6000018798829,10|0,0:0|3:0,0:0:0:0:
308,78,134173,5,6,3:2:0:0:
195,26,134520,1,10,0:0:0:0:
195,26,134693,2,0,P|146:48|127:113,1,123.200003759766,2|0,0:0|3:0,0:0:0:0:
70,127,135213,1,10,0:0:0:0:
70,127,135387,2,0,P|92:213|172:255,1,184.800005639649,2|10,3:2|0:0,0:0:0:0:
295,245,136254,2,0,L|284:387,1,123.200003759766,2|10,0:0|0:0,0:0:0:0:
228,366,136774,1,0,3:0:0:0:
228,366,136947,6,0,L|86:355,1,123.200003759766,2|10,3:2|0:0,0:0:0:0:
56,317,137468,1,2,0:0:0:0:
128,217,137815,2,0,L|199:211,1,61.6000018798829,0|10,3:0|0:0,0:0:0:0:
236,173,138161,2,0,P|258:107|183:16,1,184.800005639649,2|10,3:2|0:0,0:0:0:0:
76,54,139028,2,0,P|30:63|3:136,1,123.200003759766,2|10,3:2|0:0,0:0:0:0:
27,242,139722,5,6,3:2:0:0:
27,242,139895,2,0,P|26:271|9:301,2,56,2|0|0,0:0|0:0|0:0,0:0:0:0:
81,227,140416,1,10,0:0:0:0:
161,149,140762,1,10,0:0:0:0:
161,149,140936,1,0,3:0:0:0:
241,71,141283,1,2,0:0:0:0:
241,71,141456,2,0,P|294:58|364:56,2,112,0|10|0,3:0|0:0|0:0,0:0:0:0:
266,180,142497,6,0,P|372:206|512:210,1,224,6|10,3:2|0:0,0:0:0:0:
496,100,143537,2,0,P|497:68|494:38,2,56,8|0|2,0:0|3:0|0:0,0:0:0:0:
392,72,144231,1,0,3:0:0:0:
392,72,144404,1,2,0:0:0:0:
285,60,144751,1,10,0:0:0:0:
285,60,144924,2,0,P|263:36|239:17,1,56,8|8,0:0|0:0,0:0:0:0:
188,21,145271,6,0,P|85:44|14:137,1,224,6|10,3:2|0:0,0:0:0:0:
105,209,146312,1,2,0:0:0:0:
105,209,146485,2,0,P|62:275|74:362,1,168,0|0,3:0|3:0,0:0:0:0:
185,355,147352,2,0,P|213:310|205:252,1,112,10|0,0:0|3:0,0:0:0:0:
274,164,148046,6,0,P|359:147|484:205,1,224,6|10,3:2|0:0,0:0:0:0:
473,317,149086,1,2,0:0:0:0:
473,317,149260,2,0,P|409:304|315:347,1,168,0|2,3:0|3:2,0:0:0:0:
207,363,150127,2,0,L|202:304,1,56,10|8,0:0|0:0,0:0:0:0:
148,291,150473,2,0,L|143:232,1,56,10|8,0:0|0:0,0:0:0:0:
89,219,150820,6,0,P|45:180|63:29,1,224,6|10,3:2|0:0,0:0:0:0:
177,17,151861,1,2,0:0:0:0:
177,17,152034,2,0,P|210:46|196:159,1,168,0|0,3:0|3:0,0:0:0:0:
258,252,152901,1,10,0:0:0:0:
293,358,153248,2,0,L|358:365,1,56,0|0,3:0|0:0,0:0:0:0:
381,318,153595,6,0,P|453:298|502:162,1,224,6|10,3:2|0:0,0:0:0:0:
425,96,154635,1,2,0:0:0:0:
425,96,154809,2,0,P|389:106|364:174,1,112,0|8,3:0|0:0,0:0:0:0:
371,226,155329,1,0,3:0:0:0:
265,264,155676,2,0,L|202:227,1,56,10|0,0:0|3:0,0:0:0:0:
195,183,156023,2,0,L|258:146,1,56,10|0,0:0|3:0,0:0:0:0:
265,103,156369,6,0,P|244:51|192:17,2,112,6|10|0,3:2|0:0|3:0,0:0:0:0:
349,186,157410,1,10,0:0:0:0:
349,186,157583,2,0,P|397:253|474:283,1,168,0|10,3:0|0:0,0:0:0:0:
397,365,158450,2,0,L|339:359,1,56,10|0,0:0|3:0,0:0:0:0:
285,353,158797,1,10,0:0:0:0:
181,309,159144,6,0,P|131:297|70:328,2,112,2|10|0,3:2|0:0|3:0,0:0:0:0:
271,241,160184,1,10,0:0:0:0:
271,241,160358,2,0,P|324:185|329:82,1,168,0|10,3:0|0:0,0:0:0:0:
238,39,161225,2,0,P|219:21|185:19,1,56,10|0,0:0|3:0,0:0:0:0:
137,36,161572,1,10,0:0:0:0:
74,129,161919,6,0,P|35:107|24:38,2,112,6|10|0,3:2|0:0|3:0,0:0:0:0:
181,176,162959,1,10,0:0:0:0:
181,176,163132,2,0,P|238:141|336:179,1,168,0|10,3:0|0:0,0:0:0:0:
322,282,163999,2,0,L|349:343,1,56,10|0,0:0|3:0,0:0:0:0:
393,361,164346,1,10,0:0:0:0:
451,265,164693,6,0,L|496:162,2,112,6|10|0,3:2|0:0|3:0,0:0:0:0:
376,188,165734,1,10,0:0:0:0:
376,188,165907,1,2,3:2:0:0:
340,87,166254,1,10,0:0:0:0:
340,87,166427,2,0,L|268:85,1,56,8|8,0:0|0:0,0:0:0:0:
237,53,166774,2,0,L|181:51,2,56,10|8|10,0:0|0:0|0:0,0:0:0:0:
208,164,167468,5,10,0:0:0:0:
208,164,167641,2,0,L|206:219,1,56,10|10,0:0|0:0,0:0:0:0:
321,238,168161,1,10,0:0:0:0:
321,238,168335,1,0,3:0:0:0:
432,227,168682,2,0,L|427:348,1,112,2|0,3:2|3:0,0:0:0:0:
375,359,169202,1,8,0:0:0:0:
265,334,169549,2,0,L|144:329,1,112,8|2,0:0|0:0,0:0:0:0:
118,228,170242,5,10,0:0:0:0:
118,228,170416,2,0,L|178:225,1,56,10|10,0:0|0:0,0:0:0:0:
248,142,170936,1,8,0:0:0:0:
248,142,171109,1,0,3:0:0:0:
309,48,171456,2,0,L|430:43,1,112,2|0,3:2|3:0,0:0:0:0:
457,85,171976,1,8,0:0:0:0:
493,192,172323,1,10,0:0:0:0:
457,299,172670,2,0,P|440:329|422:347,1,56,10|0,0:0|3:0,0:0:0:0:
374,368,173017,5,6,3:2:0:0:
314,273,173364,2,0,L|289:220,2,56,10|2|0,0:0|0:0|3:0,0:0:0:0:
368,257,173884,2,0,L|377:201,1,56,0|10,3:0|0:0,0:0:0:0:
388,146,174231,1,2,3:2:0:0:
391,38,174578,1,0,3:0:0:0:
391,38,174751,2,0,P|337:22|279:31,1,112,10|0,0:0|3:0,0:0:0:0:
170,22,175445,2,0,P|162:49|166:78,1,56,10|0,0:0|3:0,0:0:0:0:
170,131,175791,6,0,L|196:259,1,112,6|10,3:2|0:0,0:0:0:0:
204,306,176312,1,2,0:0:0:0:
204,306,176485,2,0,L|76:332,1,112,0|10,3:0|0:0,0:0:0:0:
45,299,177005,1,0,3:0:0:0:
45,299,177179,2,0,L|65:237,1,56,0|0,3:0|3:0,0:0:0:0:
82,187,177526,1,10,0:0:0:0:
201,156,177872,2,0,L|180:94,1,56,8|0,0:0|3:0,0:0:0:0:
161,44,178219,2,0,L|97:31,1,56,10|2,0:0|3:2,0:0:0:0:
44,24,178566,5,0,3:0:0:0:
19,207,179086,1,0,3:0:0:0:
202,232,179606,1,0,3:0:0:0:
263,325,179953,6,0,L|322:318,1,56,10|10,0:0|0:0,0:0:0:0:
377,313,180300,1,10,0:0:0:0:
377,313,180473,1,10,0:0:0:0:
486,30,181341,5,4,0:0:0:0:
464,44,190878,6,0,P|432:86|372:114,1,112,6|0,3:2|3:0,0:0:0:0:
339,74,191398,2,0,L|270:67,1,56,14|0,0:0|3:0,0:0:0:0:
235,95,191745,2,0,L|228:164,1,56,10|0,0:0|3:0,0:0:0:0:
256,199,192092,1,10,0:0:0:0:
378,214,192439,6,0,P|431:229|453:296,2,123.200003759766,6|10|0,3:2|0:0|3:0,0:0:0:0:
279,286,193479,1,10,0:0:0:0:
279,286,193653,2,0,P|264:339|197:361,1,123.200003759766,2|0,3:2|3:0,0:0:0:0:
143,352,194173,2,0,P|129:321|129:279,1,61.6000018798829,10|0,0:0|3:0,0:0:0:0:
127,232,194520,1,0,3:0:0:0:
214,145,194867,2,0,L|293:135,1,61.6000018798829,10|0,0:0|3:0,0:0:0:0:
302,82,195213,2,0,L|175:60,1,123.200003759766,2|0,3:2|3:0,0:0:0:0:
119,52,195734,5,2,3:2:0:0:
28,135,196080,1,2,3:2:0:0:
37,257,196427,6,0,P|73:315|157:326,1,123.200003759766,6|0,3:2|3:0,0:0:0:0:
169,290,196947,1,10,0:0:0:0:
169,290,197121,2,0,L|167:227,2,61.6000018798829,0|10|0,3:0|0:0|3:0,0:0:0:0:
230,290,197641,2,0,L|291:288,1,61.6000018798829,10|0,0:0|3:0,0:0:0:0:
291,227,197988,5,6,3:2:0:0:
302,104,198335,2,0,P|312:68|335:41,1,61.6000018798829,10|2,0:0|0:0,0:0:0:0:
382,23,198682,2,0,P|416:73|430:133,1,123.200003759766,0|10,3:0|0:0,0:0:0:0:
435,194,199202,2,0,P|488:244|453:354,1,184.800005639649,0|10,3:0|0:0,0:0:0:0:
343,325,200069,2,0,P|309:360|236:336,1,123.200003759766,2|10,0:0|0:0,0:0:0:0:
213,290,200589,1,0,3:0:0:0:
213,290,200762,6,0,P|153:293|87:312,1,123.200003759766,2|10,3:2|0:0,0:0:0:0:
35,335,201283,1,2,0:0:0:0:
42,211,201630,2,0,P|42:177|52:146,1,61.6000018798829,0|10,3:0|0:0,0:0:0:0:
79,96,201976,2,0,P|145:173|248:170,1,184.800005639649,2|10,3:2|0:0,0:0:0:0:
336,227,202843,2,0,P|387:183|385:114,1,123.200003759766,2|10,3:2|0:0,0:0:0:0:
310,61,203537,5,6,3:2:0:0:
310,61,203710,2,0,P|307:30|317:-7,2,56,2|0|0,0:0|0:0|0:0,0:0:0:0:
260,88,204231,1,10,0:0:0:0:
162,44,204577,1,10,0:0:0:0:
162,44,204751,1,0,3:0:0:0:
74,113,205098,1,2,0:0:0:0:
74,113,205271,2,0,P|57:172|25:229,2,112,0|10|0,3:0|0:0|0:0,0:0:0:0:
172,157,206312,6,0,P|223:256|252:364,1,224,6|10,3:2|0:0,0:0:0:0:
363,345,207352,2,0,P|394:332|430:331,2,56,8|0|2,0:0|3:0|0:0,0:0:0:0:
336,241,208046,1,0,3:0:0:0:
336,241,208219,1,2,0:0:0:0:
307,137,208566,1,10,0:0:0:0:
307,137,208739,2,0,P|311:103|328:71,1,56,8|8,0:0|0:0,0:0:0:0:
345,35,209086,5,10,0:0:0:0:
345,35,209260,1,10,0:0:0:0:
468,323,210127,5,10,0:0:0:0:
468,323,210300,1,10,0:0:0:0:
246,354,210994,6,0,L|251:284,1,56,10|10,0:0|0:0,0:0:0:0:
293,254,211341,2,0,L|363:259,2,56,8|8|8,0:0|0:0|0:0,0:0:0:0:
248,210,211861,5,10,0:0:0:0:
248,210,212034,1,10,0:0:0:0:
13,15,212901,5,10,0:0:0:0:
13,15,213075,1,10,0:0:0:0:
27,242,213768,6,0,P|54:233|83:215,1,56,10|10,0:0|0:0,0:0:0:0:
130,194,214115,1,8,0:0:0:0:
130,194,214288,2,0,P|121:167|103:138,1,56,8|2,0:0|3:2,0:0:0:0:
125,90,214635,6,0,P|178:109|250:91,1,112,6|10,3:2|0:0,0:0:0:0:
249,46,215156,1,2,0:0:0:0:
348,96,215502,2,0,P|352:123|342:149,1,56,0|10,3:0|0:0,0:0:0:0:
308,193,215849,2,0,P|307:248|323:318,1,112,2|0,3:2|3:0,0:0:0:0:
331,358,216369,1,10,0:0:0:0:
443,360,216716,2,0,P|453:334|456:301,1,56,8|0,0:0|3:0,0:0:0:0:
494,260,217063,2,0,P|496:232|491:199,1,56,10|0,0:0|3:0,0:0:0:0:
462,157,217410,6,0,P|437:101|382:70,1,112,2|10,3:2|0:0,0:0:0:0:
341,62,217930,1,2,0:0:0:0:
235,23,218277,2,0,P|205:26|177:39,1,56,0|10,3:0|0:0,0:0:0:0:
125,27,218624,2,0,P|131:87|157:143,1,112,0|0,3:0|3:0,0:0:0:0:
176,184,219144,1,10,0:0:0:0:
208,291,219491,2,0,L|149:325,1,56,8|0,0:0|3:0,0:0:0:0:
121,360,219838,2,0,L|62:326,1,56,10|0,0:0|3:0,0:0:0:0:
30,294,220184,6,0,P|21:237|31:179,1,112,6|10,3:2|0:0,0:0:0:0:
46,130,220705,1,2,0:0:0:0:
100,32,221051,2,0,L|176:22,1,56,0|10,3:0|0:0,0:0:0:0:
201,57,221398,2,0,L|352:77,1,112,0|0,3:0|3:0,0:0:0:0:
350,30,221919,1,10,0:0:0:0:
461,37,222265,2,0,P|474:62|468:99,1,56,8|0,0:0|3:0,0:0:0:0:
489,142,222612,2,0,P|480:168|450:190,1,56,10|0,0:0|3:0,0:0:0:0:
404,189,222959,6,0,P|356:196|291:215,1,112,2|10,3:2|0:0,0:0:0:0:
244,237,223479,1,2,0:0:0:0:
288,339,223826,2,0,P|313:352|348:352,1,56,0|10,3:0|0:0,0:0:0:0:
396,359,224173,2,0,P|447:356|478:305,1,112,2|0,3:2|3:0,0:0:0:0:
474,252,224693,1,10,0:0:0:0:
472,139,225040,2,0,L|473:76,1,56,8|0,0:0|3:0,0:0:0:0:
438,38,225387,2,0,L|375:37,1,56,10|0,0:0|3:0,0:0:0:0:
337,72,225734,6,0,P|293:101|224:103,1,112,6|10,3:2|0:0,0:0:0:0:
192,69,226254,1,2,0:0:0:0:
79,70,226601,2,0,P|73:95|50:120,1,56,0|10,3:0|0:0,0:0:0:0:
14,157,226947,2,0,P|24:208|71:258,1,112,2|0,3:2|3:0,0:0:0:0:
107,287,227468,1,10,0:0:0:0:
214,316,227814,2,0,L|231:253,1,56,8|0,0:0|3:0,0:0:0:0:
244,208,228161,2,0,L|181:191,1,56,10|0,0:0|3:0,0:0:0:0:
135,178,228508,6,0,L|111:67,1,112,2|10,3:2|0:0,0:0:0:0:
147,25,229028,1,2,0:0:0:0:
258,32,229375,2,0,L|270:87,1,56,0|10,3:0|0:0,0:0:0:0:
324,75,229722,2,0,P|378:78|432:132,1,112,2|0,3:2|3:0,0:0:0:0:
454,158,230242,1,10,0:0:0:0:
418,264,230589,2,0,P|384:255|348:251,1,56,10|0,0:0|3:0,0:0:0:0:
307,247,230936,2,0,P|298:280|294:316,1,56,10|0,0:0|3:0,0:0:0:0:
239,301,231283,6,0,P|230:245|216:191,1,112,6|10,3:2|0:0,0:0:0:0:
198,138,231803,1,2,0:0:0:0:
145,38,232150,2,0,L|86:31,1,56,0|10,3:0|0:0,0:0:0:0:
33,28,232497,2,0,L|19:139,1,112,0|0,3:0|3:0,0:0:0:0:
74,151,233017,1,10,0:0:0:0:
168,211,233364,2,0,P|146:233|114:251,1,56,8|0,0:0|3:0,0:0:0:0:
84,284,233710,2,0,P|106:305|124:337,1,56,10|0,0:0|3:0,0:0:0:0:
157,368,234057,6,0,P|211:349|280:355,1,112,2|10,3:2|0:0,0:0:0:0:
320,361,234577,1,2,0:0:0:0:
345,251,234924,2,0,P|316:245|288:225,1,56,0|10,3:0|0:0,0:0:0:0:
268,181,235271,1,2,3:2:0:0:
278,69,235618,1,0,3:0:0:0:
278,69,235791,2,0,L|311:18,1,56,10|0,0:0|3:0,0:0:0:0:
364,22,236138,2,0,L|424:25,1,56,10|0,0:0|3:0,0:0:0:0:
447,72,236485,2,0,L|474:126,1,56,10|0,0:0|3:0,0:0:0:0:
445,168,236832,5,4,0:0:0:0:
256,192,237005,12,0,242381,0:0:0:0:
