osu file format v14

[General]
AudioFilename: audio.mp3
AudioLeadIn: 0
PreviewTime: 52237
Countdown: 0
SampleSet: Soft
StackLeniency: 0.7
Mode: 0
LetterboxInBreaks: 0
WidescreenStoryboard: 1

[Editor]
Bookmarks: 12093,23191,39838,53711,64809,75907,87005,98104,109202,117526,128624,145271,156369,167468,181341,192439,203537,214635,225734,236832
DistanceSpacing: 1
BeatDivisor: 4
GridSize: 4
TimelineZoom: 1.4

[Metadata]
Title:Memories Last
TitleUnicode:メモリーズ・ラスト
Artist:Maon Kurosaki
ArtistUnicode:黒崎真音
Creator:Hinsvar
Version:Hard
Source:とある魔術の禁書目録Ⅱ
Tags:Toaru Majutsu no Index II 2 To Aru A Certain Magical Index Japanese Pop J-Pop JPop anime 2nd season ending ED2 full version length
BeatmapID:4043457
BeatmapSetID:1952438

[Difficulty]
HPDrainRate:4
CircleSize:4
OverallDifficulty:6
ApproachRate:8
SliderMultiplier:1.36
SliderTickRate:1

[Events]
//Background and Video events
0,0,"index.jpg",0,0
//Break Periods
2,181541,190128
//Storyboard Layer 0 (Background)
//Storyboard Layer 1 (Fail)
//Storyboard Layer 2 (Pass)
//Storyboard Layer 3 (Foreground)
//Storyboard Layer 4 (Overlay)
//Storyboard Sound Samples

[TimingPoints]
995,346.820809248555,4,2,1,75,1,0
23191,-111.111111111111,4,2,1,60,0,0
34289,-100,4,2,1,70,0,0
39838,-111.111111111111,4,2,1,65,0,0
45388,-100,4,2,1,70,0,0
50937,-125,4,2,1,60,0,0
52324,-100,4,2,1,70,0,0
53711,346.820809248555,4,2,1,80,1,1
53711,-90.9090909090909,4,2,1,80,0,1
68104,-90.9090909090909,4,2,1,80,0,0
68190,-90.9090909090909,4,2,1,5,0,0
68450,-90.9090909090909,4,2,1,80,0,0
68537,-90.9090909090909,4,2,1,5,0,0
68797,-90.9090909090909,4,2,1,80,0,1
75907,-111.111111111111,4,2,1,70,0,0
87005,-111.111111111111,4,2,1,65,0,0
98104,-100,4,2,1,70,0,0
103653,-111.111111111111,4,2,1,65,0,0
109202,-100,4,2,1,70,0,0
114751,-125,4,2,1,60,0,0
116138,-100,4,2,1,70,0,0
117526,346.820809248555,4,2,1,80,1,1
117526,-90.9090909090909,4,2,1,80,0,1
131919,-90.9090909090909,4,2,1,80,0,0
132005,-90.9090909090909,4,2,1,5,0,0
132265,-90.9090909090909,4,2,1,80,0,0
132352,-90.9090909090909,4,2,1,5,0,0
132612,-90.9090909090909,4,2,1,80,0,1
139722,-111.111111111111,4,2,1,70,0,0
145271,-111.111111111111,4,2,1,60,0,0
156369,-100,4,2,1,70,0,0
167468,-111.111111111111,4,2,1,65,0,0
173017,-100,4,2,1,70,0,0
178566,-125,4,2,1,60,0,0
179953,-100,4,2,1,70,0,0
181341,346.820809248555,4,2,1,80,1,0
192439,-90.9090909090909,4,2,1,80,0,1
195734,-90.9090909090909,4,2,1,80,0,0
195820,-90.9090909090909,4,2,1,5,0,0
196080,-90.9090909090909,4,2,1,80,0,0
196167,-90.9090909090909,4,2,1,5,0,0
196427,-90.9090909090909,4,2,1,80,0,1
203537,-111.111111111111,4,2,1,70,0,0
214635,-100,4,2,1,75,0,0
237005,-100,4,2,1,60,0,0
237525,-100,4,2,1,50,0,0
238219,-100,4,2,1,40,0,0
238913,-100,4,2,1,35,0,0
239606,-100,4,2,1,30,0,0
240300,-100,4,2,1,25,0,0
240994,-100,4,2,1,20,0,0
241687,-100,4,2,1,15,0,0
242034,-100,4,2,1,10,0,0
242381,-100,4,2,1,5,0,0

[Colours]
Combo1 : 121,223,170
Combo2 : 191,186,228
Combo3 : 223,185,121
Combo4 : 170,142,221

[HitObjects]
45,160,11746,6,0,L|42:126,3,34,10|0|0|0,0:0|0:0|0:0|0:0,0:0:0:0:
42,92,12093,6,0,P|106:99|170:141,1,136,6|10,3:2|0:0,0:0:0:0:
233,91,12613,2,0,P|236:59|257:27,1,68,2|0,0:0|3:0,0:0:0:0:
327,68,12960,2,0,P|323:100|302:132,1,68,0|10,3:0|0:0,0:0:0:0:
256,195,13307,1,2,3:2:0:0:
388,349,13653,5,0,3:0:0:0:
464,319,13827,2,0,L|478:250,1,68,10|0,0:0|3:0,0:0:0:0:
449,175,14174,2,0,L|435:106,1,68,8|0,0:0|3:0,0:0:0:0:
447,27,14521,2,0,L|408:16,3,34,10|0|0|0,0:0|3:0|3:0|3:0,0:0:0:0:
380,19,14867,6,0,L|235:40,1,136,2|10,3:2|0:0,0:0:0:0:
223,117,15388,2,0,L|233:189,1,68,2|0,0:0|3:0,0:0:0:0:
305,220,15734,1,0,3:0:0:0:
296,301,15908,1,10,0:0:0:0:
222,336,16081,6,0,P|169:311|77:311,1,136,2|0,3:2|3:0,0:0:0:0:
58,233,16601,2,0,L|138:217,1,68,10|0,0:0|3:0,0:0:0:0:
167,149,16948,2,0,L|247:165,1,68,10|0,0:0|3:0,0:0:0:0:
305,220,17295,1,10,0:0:0:0:
305,220,17382,1,0,3:0:0:0:
305,220,17468,1,0,3:0:0:0:
351,128,17642,6,0,P|330:67|367:9,1,136,6|10,3:2|0:0,0:0:0:0:
439,44,18162,2,0,P|469:33|498:52,1,68,2|0,0:0|3:0,0:0:0:0:
483,132,18509,1,0,3:0:0:0:
472,212,18682,1,10,0:0:0:0:
397,242,18856,1,2,3:2:0:0:
226,354,19203,5,0,3:0:0:0:
152,319,19376,2,0,P|121:306|83:300,1,68,10|0,0:0|3:0,0:0:0:0:
5,290,19723,2,0,P|17:259|23:221,1,68,8|0,0:0|3:0,0:0:0:0:
34,143,20070,2,0,P|49:149|68:152,3,34,10|0|2|0,0:0|3:0|3:2|3:0,0:0:0:0:
99,156,20416,6,0,P|81:89|96:15,1,136,6|8,3:2|0:0,0:0:0:0:
174,19,20937,2,0,P|207:27|235:52,1,68,2|0,0:0|3:0,0:0:0:0:
267,123,21284,1,0,3:0:0:0:
348,116,21457,1,8,0:0:0:0:
380,212,21630,6,0,P|326:251|250:252,1,136,6|8,3:2|0:3,0:0:0:0:
180,279,22151,1,10,0:0:0:0:
161,358,22324,1,0,3:0:0:0:
82,339,22497,1,10,0:0:0:0:
101,260,22671,2,0,P|97:224|86:192,1,68,0|10,3:0|0:0,0:0:0:0:
29,136,23018,1,2,0:0:0:0:
116,90,23191,6,0,L|118:15,2,61.1999981323243,4|0|8,3:2|0:0|0:0,0:0:0:0:
191,127,23711,1,2,0:0:0:0:
191,127,23885,1,0,3:0:0:0:
239,63,24058,2,0,L|314:65,1,61.1999981323243,0|8,3:0|0:0,0:0:0:0:
368,22,24405,2,0,P|431:32|465:88,1,122.399996264649,2|0,0:0|3:0,0:0:0:0:
440,153,24925,1,8,0:0:0:0:
496,209,25099,2,0,P|418:265|323:241,1,183.599994396973,2|8,0:0|0:0,0:0:0:0:
269,209,25792,1,0,3:0:0:0:
271,130,25966,5,2,3:2:0:0:
140,42,26312,2,0,P|118:22|83:18,1,61.1999981323243,8|2,0:0|0:0,0:0:0:0:
49,87,26659,2,0,P|71:107|106:111,1,61.1999981323243,0|0,3:0|3:0,0:0:0:0:
151,173,27006,1,8,0:0:0:0:
182,245,27179,2,0,B|148:271|154:324|118:363,1,122.399996264649,2|0,0:0|3:0,0:0:0:0:
64,300,27700,1,8,0:0:0:0:
37,225,27873,2,0,P|35:104|19:24,1,183.599994396973,2|8,0:0|0:0,0:0:0:0:
107,65,28567,1,2,0:0:0:0:
172,19,28740,6,0,B|214:24|242:56|305:66,1,122.399996264649,2|8,3:2|0:0,0:0:0:0:
351,108,29260,2,0,P|375:90|377:45,1,61.1999981323243,2|0,0:0|3:0,0:0:0:0:
465,57,29607,1,0,3:0:0:0:
465,57,29781,1,8,0:0:0:0:
485,133,29954,2,0,P|437:169|433:259,1,122.399996264649,2|0,0:0|3:0,0:0:0:0:
395,302,30474,2,0,L|333:308,1,61.1999981323243,10|0,0:0|0:0,0:0:0:0:
269,354,30821,1,0,3:0:0:0:
269,354,30995,1,0,3:0:0:0:
189,361,31168,2,0,L|127:367,1,61.1999981323243,10|0,0:0|3:0,0:0:0:0:
62,291,31515,6,0,P|121:283|163:220,1,122.399996264649,6|8,3:2|0:0,0:0:0:0:
227,195,32035,2,0,P|219:136|156:94,1,122.399996264649,2|0,0:0|3:0,0:0:0:0:
131,30,32555,2,0,P|101:34|80:65,1,61.1999981323243,10|0,0:0|0:0,0:0:0:0:
61,133,32902,6,0,L|3:115,2,61.1999981323243,8|8|8,0:0|0:0|0:0,0:0:0:0:
90,207,33422,1,8,0:0:0:0:
16,237,33596,1,8,0:0:0:0:
23,317,33769,1,8,0:0:0:0:
101,334,33942,1,8,0:0:0:0:
149,274,34116,5,2,0:0:0:0:
149,274,34203,1,2,0:0:0:0:
149,274,34289,2,0,P|215:295|279:262,1,136,6|8,3:2|0:0,0:0:0:0:
344,309,34810,2,0,P|353:275|347:234,1,68,2|0,0:0|3:0,0:0:0:0:
340,161,35156,1,0,3:0:0:0:
411,121,35330,1,8,0:0:0:0:
465,181,35503,1,2,3:2:0:0:
345,21,35850,5,0,3:0:0:0:
345,21,36023,2,0,L|274:24,1,68,8|0,0:0|3:0,0:0:0:0:
233,93,36370,2,0,L|162:90,1,68,8|0,0:0|3:0,0:0:0:0:
107,31,36717,1,10,0:0:0:0:
31,60,36890,1,0,3:0:0:0:
12,139,37064,6,0,P|1:209|5:286,1,136,2|8,3:2|0:0,0:0:0:0:
80,302,37584,2,0,P|85:267|83:228,1,68,2|0,0:0|3:0,0:0:0:0:
135,170,37931,1,0,3:0:0:0:
212,146,38104,1,8,0:0:0:0:
293,156,38278,6,0,P|296:218|368:264,1,136,2|0,3:2|3:0,0:0:0:0:
334,342,38798,2,0,P|301:337|276:359,1,68,10|0,0:0|0:0,0:0:0:0:
196,377,39145,2,0,L|188:335,3,34,10|0|0|0,0:0|3:0|3:0|3:0,0:0:0:0:
197,310,39492,2,0,L|205:268,3,34,10|0|0|0,0:0|3:0|3:0|3:0,0:0:0:0:
196,244,39838,5,10,0:0:0:0:
118,261,40012,1,10,0:0:0:0:
101,183,40185,1,10,0:0:0:0:
157,36,40532,1,8,0:0:0:0:
157,36,40705,1,0,3:0:0:0:
300,106,41052,6,0,P|345:149|340:210,1,122.399996264649,2|0,3:2|3:0,0:0:0:0:
262,200,41573,2,0,P|231:201|187:209,1,61.1999981323243,8|0,0:0|3:0,0:0:0:0:
154,269,41919,2,0,P|155:300|163:344,1,61.1999981323243,8|0,0:0|3:0,0:0:0:0:
223,377,42266,2,0,P|254:376|298:368,1,61.1999981323243,2|0,0:0|3:0,0:0:0:0:
316,298,42613,5,10,0:0:0:0:
386,261,42786,1,10,0:0:0:0:
439,320,42960,1,10,0:0:0:0:
467,163,43307,1,8,0:0:0:0:
467,163,43480,1,0,3:0:0:0:
374,33,43827,6,0,P|321:57|256:39,1,122.399996264649,2|0,3:2|3:0,0:0:0:0:
187,73,44347,2,0,P|164:72|140:31,1,61.1999981323243,8|0,0:0|3:0,0:0:0:0:
62,63,44694,2,0,P|61:85|20:110,1,61.1999981323243,10|0,0:0|3:0,0:0:0:0:
20,188,45041,2,0,L|30:228,3,30.5999990661621,10|0|0|0,0:0|3:0|3:0|3:0,0:0:0:0:
37,250,45388,6,0,P|89:274|121:350,1,136,6|10,3:2|0:0,0:0:0:0:
196,310,45908,2,0,P|200:270|205:241,1,68,2|0,0:0|3:0,0:0:0:0:
284,223,46255,2,0,P|280:183|275:154,1,68,0|10,3:0|0:0,0:0:0:0:
312,83,46601,2,0,P|372:104|418:50,1,136,2|0,3:2|3:0,0:0:0:0:
482,106,47122,1,10,0:0:0:0:
449,265,47468,2,0,L|378:284,1,68,0|0,3:0|3:0,0:0:0:0:
337,350,47815,2,0,L|283:335,3,34,10|0|0|0,0:0|3:0|3:0|3:0,0:0:0:0:
274,357,48162,6,0,P|280:305|256:213,1,136,6|10,3:2|0:0,0:0:0:0:
218,154,48682,2,0,P|166:148|74:172,1,136,2|0,0:0|3:0,0:0:0:0:
15,210,49203,1,10,0:0:0:0:
27,290,49376,1,2,3:2:0:0:
107,299,49549,6,0,L|130:223,1,68,0|0,3:0|3:0,0:0:0:0:
186,177,49896,2,0,L|262:200,1,68,10|0,0:0|3:0,0:0:0:0:
330,215,50243,2,0,L|353:291,1,68,8|0,0:0|3:0,0:0:0:0:
417,345,50590,1,10,0:0:0:0:
417,345,50677,1,2,0:0:0:0:
417,345,50763,1,2,0:0:0:0:
331,363,50937,6,0,P|274:361|230:313,1,108.8,0|8,3:0|0:0,0:0:0:0:
255,245,51457,2,0,P|312:247|356:295,1,108.8,0|8,3:0|0:0,0:0:0:0:
349,279,51977,1,0,3:0:0:0:
486,129,52324,5,10,0:0:0:0:
470,28,52497,1,10,0:0:0:0:
369,44,52671,1,10,0:0:0:0:
385,145,52844,1,10,0:0:0:0:
393,153,53538,5,0,3:0:0:0:
393,153,53625,1,0,3:0:0:0:
393,153,53711,2,0,P|324:138|237:138,2,149.60000456543,6|10|0,3:2|0:0|3:0,0:0:0:0:
454,219,54578,1,0,3:0:0:0:
367,240,54751,1,10,0:0:0:0:
280,218,54924,2,0,P|262:299|287:381,1,149.60000456543,2|0,3:2|3:0,0:0:0:0:
187,372,55445,2,0,P|156:343|114:334,1,74.8000022827149,10|0,0:0|3:0,0:0:0:0:
41,364,55791,1,0,3:0:0:0:
6,142,56138,1,10,0:0:0:0:
93,191,56312,5,0,3:0:0:0:
93,191,56398,1,0,3:0:0:0:
93,191,56485,2,0,P|120:121|122:34,1,149.60000456543,2|10,3:2|0:0,0:0:0:0:
205,10,57005,2,0,P|275:37|362:39,1,149.60000456543,2|0,0:0|3:0,0:0:0:0:
416,100,57526,1,10,0:0:0:0:
367,174,57699,2,0,P|292:177|223:204,1,149.60000456543,2|0,3:2|3:0,0:0:0:0:
226,293,58219,1,10,0:0:0:0:
300,343,58393,2,0,P|318:313|313:269,2,74.8000022827149,0|2|0,3:0|3:2|3:0,0:0:0:0:
384,375,58913,1,10,0:0:0:0:
477,357,59086,5,0,3:0:0:0:
477,357,59173,1,0,3:0:0:0:
477,357,59260,2,0,P|487:284|466:209,1,149.60000456543,6|10,3:2|0:0,0:0:0:0:
425,131,59780,1,2,0:0:0:0:
344,90,59953,2,0,L|345:12,2,74.8000022827149,0|0|10,3:0|3:0|0:0,0:0:0:0:
256,112,60474,2,0,L|100:110,1,149.60000456543,0|0,3:0|3:0,0:0:0:0:
29,156,60994,1,10,0:0:0:0:
127,358,61341,2,0,P|144:329|147:278,2,74.8000022827149,0|0|10,3:0|3:0|0:0,0:0:0:0:
247,364,61861,5,0,3:0:0:0:
247,364,61947,1,0,3:0:0:0:
247,364,62034,2,0,L|395:346,1,149.60000456543,6|10,3:2|0:0,0:0:0:0:
364,261,62554,2,0,L|290:252,1,74.8000022827149,2|0,0:0|3:0,0:0:0:0:
244,174,62901,1,0,3:0:0:0:
231,84,63075,1,10,0:0:0:0:
300,27,63248,2,0,P|374:44|399:107,1,149.60000456543,2|0,3:2|3:0,0:0:0:0:
462,199,63768,5,14,0:0:0:0:
471,288,63942,1,0,3:0:0:0:
382,297,64115,1,10,0:0:0:0:
373,208,64289,1,0,3:0:0:0:
284,217,64462,2,0,L|245:204,3,37.4000011413575,10|0|0|0,0:0|3:0|3:0|3:0,0:0:0:0:
217,184,64809,6,0,L|72:219,2,149.60000456543,6|10|0,3:2|0:0|3:0,0:0:0:0:
286,127,65676,1,0,3:0:0:0:
222,64,65849,1,10,0:0:0:0:
147,114,66023,2,0,P|105:54|42:11,1,149.60000456543,2|0,3:2|3:0,0:0:0:0:
8,94,66543,2,0,P|29:124|60:145,1,74.8000022827149,10|0,0:0|3:0,0:0:0:0:
131,200,66890,1,0,3:0:0:0:
284,364,67237,1,10,0:0:0:0:
315,285,67410,5,0,3:0:0:0:
315,285,67497,1,0,3:0:0:0:
315,285,67583,2,0,P|371:249|457:263,1,149.60000456543,2|0,3:2|3:0,0:0:0:0:
481,344,68104,5,2,3:2:0:0:
496,165,68450,5,2,3:2:0:0:
311,36,68797,6,0,P|232:55|172:13,1,149.60000456543,6|0,3:2|3:0,0:0:0:0:
90,45,69317,1,10,0:0:0:0:
34,115,69491,2,0,P|24:154|45:184,2,74.8000022827149,0|10|0,3:0|0:0|3:0,0:0:0:0:
123,128,70011,2,0,L|173:138,3,37.4000011413575,10|0|0|0,0:0|3:0|3:0|3:0,0:0:0:0:
191,154,70358,6,0,L|354:136,1,149.60000456543,6|10,3:2|0:0,0:0:0:0:
405,199,70878,2,0,P|394:238|400:277,1,74.8000022827149,2|0,0:0|3:0,0:0:0:0:
345,344,71225,1,0,3:0:0:0:
277,285,71398,1,10,0:0:0:0:
196,243,71572,2,0,P|116:241|50:279,1,149.60000456543,2|0,3:2|3:0,0:0:0:0:
22,356,72092,1,10,0:0:0:0:
54,133,72439,2,0,P|48:94|37:47,2,74.8000022827149,2|0|10,0:0|3:0|0:0,0:0:0:0:
150,150,72959,5,0,3:0:0:0:
150,150,73046,1,0,3:0:0:0:
150,150,73132,2,0,P|179:82|249:44,1,149.60000456543,2|10,3:2|0:0,0:0:0:0:
292,120,73653,2,0,P|263:188|193:226,1,149.60000456543,2|0,0:0|3:0,0:0:0:0:
146,297,74173,1,10,0:0:0:0:
219,350,74346,2,0,B|270:388|390:324|440:358,1,224.400006848145,2|10,3:2|0:0,0:0:0:0:
494,140,75213,5,2,3:2:0:0:
434,72,75387,1,0,3:0:0:0:
410,158,75560,2,0,L|364:148,3,37.4000011413575,10|0|0|0,0:0|3:0|3:0|3:0,0:0:0:0:
343,141,75907,5,6,3:2:0:0:
291,80,76080,2,0,P|292:46|278:9,2,61.1999981323243,2|0|0,0:0|0:0|0:0,0:0:0:0:
211,93,76601,1,10,0:0:0:0:
58,123,76947,1,10,0:0:0:0:
58,123,77121,1,0,3:0:0:0:
88,276,77468,1,2,0:0:0:0:
88,276,77641,2,0,P|77:343|17:386,2,122.399996264649,0|10|0,3:0|0:0|0:0,0:0:0:0:
241,246,78682,6,0,P|354:205|464:273,1,244.799992529297,6|10,3:2|0:0,0:0:0:0:
348,379,79722,1,8,0:0:0:0:
348,379,79895,1,0,3:0:0:0:
268,372,80069,2,0,P|203:347|162:306,1,122.399996264649,2|0,0:0|3:0,0:0:0:0:
143,234,80589,1,2,0:0:0:0:
110,29,80936,1,10,0:0:0:0:
189,36,81109,1,8,0:0:0:0:
182,115,81283,1,8,0:0:0:0:
107,112,81456,5,10,0:0:0:0:
107,112,81630,1,10,0:0:0:0:
476,339,82497,5,10,0:0:0:0:
476,339,82670,1,10,0:0:0:0:
433,24,83364,5,10,0:0:0:0:
433,24,83537,1,10,0:0:0:0:
370,73,83711,6,0,L|353:139,2,61.1999981323243,8|8|8,0:0|0:0|0:0,0:0:0:0:
296,42,84231,5,10,0:0:0:0:
296,42,84404,1,10,0:0:0:0:
22,369,85271,5,10,0:0:0:0:
22,369,85445,1,10,0:0:0:0:
48,55,86138,5,10,0:0:0:0:
48,55,86312,1,10,0:0:0:0:
72,130,86485,1,8,0:0:0:0:
96,205,86658,2,0,L|135:213,3,30.5999990661621,8|0|2|0,0:0|3:0|3:2|3:0,0:0:0:0:
150,230,87005,6,0,P|171:138|189:96,1,122.399996264649,6|8,3:2|0:0,0:0:0:0:
254,79,87526,1,2,0:0:0:0:
322,119,87699,1,0,3:0:0:0:
401,112,87872,2,0,P|421:169|432:229,1,122.399996264649,2|2,3:2|0:0,0:0:0:0:
331,353,88566,2,0,P|297:356|263:339,2,61.1999981323243,2|8|2,3:2|0:0|0:0,0:0:0:0:
313,275,89086,1,0,3:0:0:0:
277,203,89260,1,0,3:0:0:0:
259,125,89433,2,0,P|256:91|273:57,1,61.1999981323243,8|0,0:0|3:0,0:0:0:0:
173,78,89780,6,0,P|132:31|48:14,2,122.399996264649,2|8|2,3:2|0:0|3:2,0:0:0:0:
139,150,90647,1,0,3:0:0:0:
60,160,90820,1,8,0:0:0:0:
26,232,90994,2,0,P|67:279|151:296,1,122.399996264649,2|0,0:0|3:0,0:0:0:0:
180,242,91514,2,0,L|219:187,1,61.1999981323243,8|0,0:0|0:0,0:0:0:0:
293,209,91861,2,0,L|321:270,2,61.1999981323243,10|0|10,0:0|3:0|0:0,0:0:0:0:
270,132,92381,5,0,3:0:0:0:
236,59,92554,2,0,P|208:56|168:40,2,61.1999981323243,2|0|8,3:2|0:0|0:0,0:0:0:0:
312,34,93075,2,0,P|340:37|380:53,1,61.1999981323243,2|0,0:0|3:0,0:0:0:0:
434,95,93421,2,0,P|445:120|451:163,1,61.1999981323243,2|8,3:2|0:0,0:0:0:0:
441,232,93768,2,0,P|392:245|356:317,1,122.399996264649,2|0,0:0|3:0,0:0:0:0:
281,274,94289,2,0,L|269:199,1,61.1999981323243,10|2,0:0|0:0,0:0:0:0:
193,196,94635,1,0,3:0:0:0:
115,178,94809,1,0,3:0:0:0:
37,161,94982,2,0,L|25:86,1,61.1999981323243,10|0,0:0|3:0,0:0:0:0:
63,11,95329,6,0,P|102:53|175:57,1,122.399996264649,6|8,3:2|0:0,0:0:0:0:
193,134,95849,2,0,P|150:172|146:245,1,122.399996264649,2|0,0:0|3:0,0:0:0:0:
206,287,96369,2,0,L|218:357,1,61.1999981323243,10|0,0:0|0:0,0:0:0:0:
295,347,96716,6,0,L|306:287,1,61.1999981323243,0|0,3:0|3:0,0:0:0:0:
365,233,97063,2,0,L|425:243,1,61.1999981323243,8|0,0:0|3:0,0:0:0:0:
484,189,97410,1,8,0:0:0:0:
506,113,97583,1,8,0:0:0:0:
450,55,97757,1,8,0:0:0:0:
428,131,97930,5,2,0:0:0:0:
428,131,98017,1,2,0:0:0:0:
428,131,98104,2,0,P|364:139|295:111,1,136,6|8,3:2|0:0,0:0:0:0:
239,56,98624,2,0,L|235:18,2,34,2|0|0,0:0|0:0|3:0,0:0:0:0:
162,86,98971,2,0,L|166:124,2,34,0|0|8,3:0|3:0|0:0,0:0:0:0:
115,19,99317,1,2,3:2:0:0:
15,199,99664,5,0,3:0:0:0:
79,249,99838,2,0,L|95:317,1,68,8|0,0:0|3:0,0:0:0:0:
151,372,100184,2,0,L|201:324,1,68,8|0,0:0|3:0,0:0:0:0:
222,249,100531,1,10,0:0:0:0:
155,205,100705,5,0,3:0:0:0:
155,205,100791,1,0,3:0:0:0:
155,205,100878,2,0,P|157:138|118:70,1,136,2|8,3:2|0:0,0:0:0:0:
69,18,101398,2,0,P|54:15|29:17,2,34,2|0|0,0:0|0:0|3:0,0:0:0:0:
38,94,101745,2,0,P|25:102|10:121,2,34,0|0|8,3:0|3:0|0:0,0:0:0:0:
78,165,102092,6,0,P|63:224|50:303,1,136,2|0,3:2|3:0,0:0:0:0:
106,357,102612,2,0,P|135:364|175:371,1,68,10|0,0:0|0:0,0:0:0:0:
253,355,102959,2,0,L|293:350,3,34,10|0|0|0,0:0|3:0|3:0|3:0,0:0:0:0:
316,333,103306,2,0,L|356:338,3,34,10|0|0|0,0:0|3:0|3:0|3:0,0:0:0:0:
377,355,103653,5,10,0:0:0:0:
456,352,103826,1,10,0:0:0:0:
453,273,104000,1,10,0:0:0:0:
491,118,104346,1,8,0:0:0:0:
491,118,104520,1,0,3:0:0:0:
336,80,104867,6,0,P|269:68|240:16,1,122.399996264649,2|0,3:2|3:0,0:0:0:0:
162,35,105387,2,0,P|156:68|130:83,1,61.1999981323243,8|0,0:0|3:0,0:0:0:0:
123,161,105734,2,0,P|156:167|171:193,1,61.1999981323243,8|0,0:0|3:0,0:0:0:0:
248,202,106080,2,0,P|254:168|280:154,1,61.1999981323243,2|0,0:0|3:0,0:0:0:0:
350,182,106427,5,10,0:0:0:0:
416,138,106601,1,10,0:0:0:0:
484,177,106774,1,10,0:0:0:0:
429,329,107121,1,8,0:0:0:0:
429,329,107294,1,0,3:0:0:0:
276,376,107641,6,0,P|247:333|226:259,1,122.399996264649,2|0,3:2|3:0,0:0:0:0:
153,233,108161,2,0,L|94:216,1,61.1999981323243,8|0,0:0|3:0,0:0:0:0:
70,139,108508,2,0,L|129:122,1,61.1999981323243,10|0,0:0|3:0,0:0:0:0:
195,78,108855,2,0,L|197:37,3,30.5999990661621,2|0|0|0,3:2|3:0|3:0|3:0,0:0:0:0:
224,28,109202,6,0,P|290:38|311:102,1,136,6|8,3:2|0:0,0:0:0:0:
279,178,109722,2,0,P|280:211|293:251,1,68,2|0,0:0|3:0,0:0:0:0:
311,323,110069,2,0,P|344:322|384:309,1,68,0|10,3:0|0:0,0:0:0:0:
456,291,110416,2,0,P|454:225|428:145,1,136,2|0,3:2|3:0,0:0:0:0:
355,135,110936,1,10,0:0:0:0:
229,38,111283,2,0,L|146:57,1,68,0|0,3:0|3:0,0:0:0:0:
90,91,111630,2,0,L|47:77,3,34,10|0|0|0,0:0|3:0|3:0|3:0,0:0:0:0:
30,100,111976,6,0,P|22:172|45:251,1,136,6|10,3:2|0:0,0:0:0:0:
97,289,112497,1,2,0:0:0:0:
178,292,112670,2,0,P|186:220|163:141,1,136,0|10,3:0|0:0,0:0:0:0:
111,103,113190,1,2,3:2:0:0:
148,30,113364,6,0,P|182:37|232:36,1,68,0|0,3:0|3:0,0:0:0:0:
295,20,113711,2,0,P|328:20|362:27,1,68,10|0,0:0|3:0,0:0:0:0:
425,78,114057,2,0,P|418:112|419:162,1,68,8|0,0:0|3:0,0:0:0:0:
443,233,114404,1,10,0:0:0:0:
443,233,114491,1,2,0:0:0:0:
443,233,114578,1,2,3:2:0:0:
442,314,114751,6,0,P|267:352|166:199,1,380.8,0|0,3:0|0:0,0:0:0:0:
256,158,116138,5,10,0:0:0:0:
242,57,116312,1,10,0:0:0:0:
142,39,116485,1,10,0:0:0:0:
94,129,116658,1,10,0:0:0:0:
102,137,117352,5,0,3:0:0:0:
102,137,117439,1,0,3:0:0:0:
102,137,117526,2,0,P|38:180|35:259,2,149.60000456543,6|10|0,3:2|0:0|3:0,0:0:0:0:
125,50,118393,1,0,3:0:0:0:
212,28,118566,1,10,0:0:0:0:
287,75,118739,2,0,P|358:89|432:55,1,149.60000456543,2|0,3:2|3:0,0:0:0:0:
476,135,119260,2,0,P|469:170|486:207,1,74.8000022827149,10|0,0:0|3:0,0:0:0:0:
462,291,119606,1,0,3:0:0:0:
248,359,119953,1,10,0:0:0:0:
241,277,120127,5,0,3:0:0:0:
241,277,120213,1,0,3:0:0:0:
241,277,120300,2,0,P|257:177|240:102,1,149.60000456543,2|10,3:2|0:0,0:0:0:0:
161,116,120820,2,0,P|144:215|161:290,1,149.60000456543,2|0,0:0|3:0,0:0:0:0:
71,304,121341,1,10,0:0:0:0:
125,374,121514,2,0,P|199:373|291:357,1,149.60000456543,2|0,3:2|3:0,0:0:0:0:
345,307,122034,1,10,0:0:0:0:
434,318,122208,2,0,P|464:336|479:381,2,74.8000022827149,0|2|0,3:0|3:2|3:0,0:0:0:0:
468,234,122728,1,10,0:0:0:0:
479,144,122901,5,0,3:0:0:0:
479,144,122988,1,0,3:0:0:0:
479,144,123075,2,0,P|447:80|368:69,1,149.60000456543,6|10,3:2|0:0,0:0:0:0:
292,101,123595,1,2,0:0:0:0:
255,182,123768,2,0,P|219:175|203:143,2,74.8000022827149,0|0|10,3:0|3:0|0:0,0:0:0:0:
263,272,124289,2,0,P|188:282|132:343,1,149.60000456543,0|0,3:0|3:0,0:0:0:0:
47,338,124809,1,10,0:0:0:0:
33,113,125156,2,0,P|40:77|7:39,2,74.8000022827149,0|0|10,3:0|3:0|0:0,0:0:0:0:
111,175,125676,5,0,3:0:0:0:
111,175,125762,1,0,3:0:0:0:
111,175,125849,2,0,P|181:177|266:194,1,149.60000456543,6|10,3:2|0:0,0:0:0:0:
316,263,126369,2,0,P|325:299|328:350,1,74.8000022827149,2|0,0:0|3:0,0:0:0:0:
413,364,126716,1,0,3:0:0:0:
481,305,126890,1,10,0:0:0:0:
498,217,127063,2,0,P|466:172|374:169,1,149.60000456543,2|0,3:2|3:0,0:0:0:0:
316,263,127583,5,14,0:0:0:0:
227,280,127757,1,0,3:0:0:0:
213,368,127930,1,10,0:0:0:0:
124,351,128104,1,0,3:0:0:0:
110,263,128277,1,10,0:0:0:0:
21,280,128450,5,0,3:0:0:0:
21,280,128537,1,0,3:0:0:0:
21,280,128624,2,0,P|6:211|20:126,2,149.60000456543,6|10|0,3:2|0:0|3:0,0:0:0:0:
37,368,129491,1,0,3:0:0:0:
124,351,129664,1,10,0:0:0:0:
190,289,129838,2,0,P|260:284|309:357,1,149.60000456543,2|0,3:2|3:0,0:0:0:0:
396,325,130358,2,0,P|393:290|416:256,1,74.8000022827149,10|0,0:0|3:0,0:0:0:0:
496,221,130705,1,0,3:0:0:0:
378,27,131052,1,10,0:0:0:0:
326,102,131225,5,0,3:0:0:0:
326,102,131312,1,0,3:0:0:0:
326,102,131398,2,0,P|254:120|181:102,1,149.60000456543,2|0,3:2|3:0,0:0:0:0:
133,27,131919,5,2,3:2:0:0:
35,178,132265,5,2,3:2:0:0:
196,334,132612,6,0,P|234:297|246:196,1,149.60000456543,6|0,3:2|3:0,0:0:0:0:
210,122,133132,1,10,0:0:0:0:
122,101,133306,2,0,P|124:64|148:36,2,74.8000022827149,0|2|0,3:0|3:2|3:0,0:0:0:0:
72,176,133826,2,0,L|26:178,3,37.4000011413575,10|0|0|0,0:0|3:0|3:0|3:0,0:0:0:0:
5,201,134173,6,0,L|189:193,1,149.60000456543,6|10,3:2|0:0,0:0:0:0:
177,281,134693,2,0,P|206:306|255:311,1,74.8000022827149,2|0,0:0|3:0,0:0:0:0:
281,232,135040,1,0,3:0:0:0:
350,174,135213,1,10,0:0:0:0:
439,185,135387,2,0,P|485:242|476:326,1,149.60000456543,2|0,3:2|3:0,0:0:0:0:
397,347,135907,1,10,0:0:0:0:
180,281,136254,2,0,P|157:252|161:210,2,74.8000022827149,2|0|10,0:0|3:0|0:0,0:0:0:0:
274,310,136774,5,0,3:0:0:0:
274,310,136861,1,0,3:0:0:0:
274,310,136947,2,0,L|282:153,1,149.60000456543,2|10,3:2|0:0,0:0:0:0:
316,77,137468,2,0,L|159:69,1,149.60000456543,2|0,0:0|3:0,0:0:0:0:
83,35,137988,1,10,0:0:0:0:
17,96,138161,2,0,B|-17:143|98:224|72:325,1,224.400006848145,2|10,3:2|0:0,0:0:0:0:
293,359,139028,5,2,3:2:0:0:
355,293,139202,1,0,3:0:0:0:
289,231,139375,2,0,P|284:209|285:188,3,37.4000011413575,10|0|0|0,0:0|3:0|3:0|3:0,0:0:0:0:
290,164,139722,5,6,3:2:0:0:
361,129,139895,2,0,P|393:131|425:117,2,61.1999981323243,2|0|0,0:0|0:0|0:0,0:0:0:0:
344,50,140416,1,10,0:0:0:0:
186,28,140762,1,10,0:0:0:0:
186,28,140936,1,0,3:0:0:0:
164,186,141283,1,2,0:0:0:0:
164,186,141456,2,0,P|107:171|53:210,2,122.399996264649,0|10|0,3:0|0:0|0:0,0:0:0:0:
322,208,142497,6,0,P|307:265|440:360,1,244.799992529297,6|10,3:2|0:0,0:0:0:0:
471,208,143537,1,8,0:0:0:0:
471,208,143710,1,0,3:0:0:0:
493,131,143884,2,0,P|500:102|434:55,1,122.399996264649,2|0,0:0|3:0,0:0:0:0:
363,88,144404,1,2,0:0:0:0:
166,157,144751,1,10,0:0:0:0:
87,142,144924,1,8,0:0:0:0:
102,63,145098,1,8,0:0:0:0:
181,78,145271,6,0,P|283:140|306:275,1,244.799992529297,6|10,3:2|0:0,0:0:0:0:
194,365,146312,1,2,0:0:0:0:
194,365,146485,2,0,P|117:318|100:217,1,183.599994396973,0|0,3:0|3:0,0:0:0:0:
16,94,147352,2,0,P|53:48|120:76,1,122.399996264649,10|0,0:0|3:0,0:0:0:0:
239,223,148046,6,0,P|361:227|495:205,1,244.799992529297,6|10,3:2|0:0,0:0:0:0:
443,58,149086,1,2,0:0:0:0:
443,58,149260,2,0,P|351:55|250:71,1,183.599994396973,0|2,3:0|3:2,0:0:0:0:
115,134,150127,1,10,0:0:0:0:
51,180,150300,1,8,0:0:0:0:
75,256,150473,1,10,0:0:0:0:
155,256,150647,1,8,0:0:0:0:
180,180,150820,6,0,P|290:224|316:345,1,244.799992529297,6|10,3:2|0:0,0:0:0:0:
163,362,151861,1,2,0:0:0:0:
163,362,152034,2,0,P|80:329|61:238,1,183.599994396973,0|0,3:0|3:0,0:0:0:0:
66,84,152901,1,10,0:0:0:0:
226,24,153248,2,0,P|237:48|238:89,1,61.1999981323243,0|0,3:0|0:0,0:0:0:0:
245,184,153595,6,0,P|326:133|402:5,1,244.799992529297,6|10,3:2|0:0,0:0:0:0:
502,136,154635,1,2,0:0:0:0:
502,136,154809,1,0,3:0:0:0:
473,292,155156,5,8,0:0:0:0:
399,323,155329,1,0,3:0:0:0:
319,330,155502,2,0,L|314:377,2,30.5999990661621,0|0|10,3:0|3:0|0:0,0:0:0:0:
265,271,155849,1,0,3:0:0:0:
211,212,156023,2,0,L|216:165,3,30.5999990661621,10|0|0|0,0:0|3:0|3:0|3:0,0:0:0:0:
221,148,156369,6,0,P|220:81|172:29,1,136,6|10,3:2|0:0,0:0:0:0:
106,75,156890,2,0,L|18:89,1,68,2|0,0:0|3:0,0:0:0:0:
8,161,157236,1,0,3:0:0:0:
82,193,157410,1,10,0:0:0:0:
146,242,157583,6,0,P|186:297|214:365,1,136,0|0,3:0|3:0,0:0:0:0:
299,359,158104,2,0,L|368:354,1,68,10|0,0:0|3:0,0:0:0:0:
436,310,158450,2,0,L|430:241,1,68,10|0,0:0|3:0,0:0:0:0:
374,182,158797,2,0,L|377:147,3,34,10|0|0|0,0:0|3:0|3:0|3:0,0:0:0:0:
394,118,159144,6,0,P|427:73|388:8,1,136,2|10,3:2|0:0,0:0:0:0:
313,33,159664,2,0,P|290:16|258:36,1,68,2|0,0:0|3:0,0:0:0:0:
215,103,160011,1,0,3:0:0:0:
149,151,160184,1,10,0:0:0:0:
74,117,160358,1,0,3:0:0:0:
62,316,160705,5,0,3:0:0:0:
141,296,160878,2,0,L|163:378,1,68,10|0,0:0|3:0,0:0:0:0:
239,376,161225,2,0,L|299:315,1,68,10|0,0:0|3:0,0:0:0:0:
366,307,161572,2,0,L|414:321,3,34,10|0|0|0,0:0|3:0|3:0|3:0,0:0:0:0:
423,293,161919,6,0,P|396:235|409:146,1,136,6|10,3:2|0:0,0:0:0:0:
366,90,162439,2,0,P|337:103|292:97,1,68,2|0,0:0|3:0,0:0:0:0:
231,59,162786,1,0,3:0:0:0:
152,37,162959,1,10,0:0:0:0:
95,95,163132,6,0,P|87:165|50:231,1,136,0|0,3:0|3:0,0:0:0:0:
120,274,163653,2,0,L|200:278,1,68,10|0,0:0|3:0,0:0:0:0:
181,358,163999,2,0,L|101:354,1,68,10|0,0:0|3:0,0:0:0:0:
33,374,164346,2,0,P|27:353|32:332,3,34,10|0|0|0,0:0|3:0|3:0|3:0,0:0:0:0:
35,307,164693,6,0,P|36:247|26:159,1,136,6|10,3:2|0:0,0:0:0:0:
25,89,165213,2,0,P|51:74|86:48,1,68,2|0,0:0|3:0,0:0:0:0:
163,47,165560,2,0,P|188:62|229:80,1,68,0|10,3:0|0:0,0:0:0:0:
303,96,165907,1,2,3:2:0:0:
319,16,166080,1,8,0:0:0:0:
400,6,166254,5,10,0:0:0:0:
435,80,166427,2,0,P|444:108|421:157,1,68,8|8,0:0|0:0,0:0:0:0:
466,218,166774,2,0,P|452:244|401:262,1,68,10|8,0:0|0:0,0:0:0:0:
390,337,167121,2,0,P|361:345|312:322,1,68,10|6,0:0|3:2,0:0:0:0:
284,266,167468,5,10,0:0:0:0:
205,252,167641,1,10,0:0:0:0:
162,319,167815,1,10,0:0:0:0:
29,241,168161,1,10,0:0:0:0:
29,241,168335,1,0,3:0:0:0:
16,82,168682,6,0,P|70:72|100:6,1,122.399996264649,2|0,3:2|3:0,0:0:0:0:
179,27,169202,2,0,L|195:95,1,61.1999981323243,8|0,0:0|3:0,0:0:0:0:
269,109,169549,2,0,L|253:177,1,61.1999981323243,8|0,0:0|3:0,0:0:0:0:
179,191,169895,2,0,L|195:259,1,61.1999981323243,2|0,0:0|3:0,0:0:0:0:
270,268,170242,5,10,0:0:0:0:
346,292,170416,1,10,0:0:0:0:
388,359,170589,1,10,0:0:0:0:
490,238,170936,1,8,0:0:0:0:
490,238,171109,1,0,3:0:0:0:
453,83,171456,6,0,P|403:63|327:60,1,122.399996264649,2|0,3:2|3:0,0:0:0:0:
259,85,171976,2,0,P|249:60|247:22,1,61.1999981323243,8|0,0:0|3:0,0:0:0:0:
167,23,172323,2,0,P|142:33|104:34,1,61.1999981323243,10|0,0:0|3:0,0:0:0:0:
105,115,172670,2,0,P|110:127|110:146,3,30.5999990661621,10|0|0|0,0:0|3:0|3:0|3:0,0:0:0:0:
109,178,173017,6,0,P|58:202|26:277,1,136,6|10,3:2|0:0,0:0:0:0:
75,337,173537,2,0,P|114:341|142:359,1,68,2|0,0:0|3:0,0:0:0:0:
219,361,173884,2,0,P|223:322|241:294,1,68,0|10,3:0|0:0,0:0:0:0:
264,220,174231,2,0,L|245:78,1,136,2|0,3:2|3:0,0:0:0:0:
254,3,174751,1,10,0:0:0:0:
414,33,175098,2,0,L|423:104,1,68,0|0,3:0|3:0,0:0:0:0:
425,182,175445,2,0,P|407:189|381:211,3,34,10|0|0|0,0:0|3:0|3:0|3:0,0:0:0:0:
378,226,175791,6,0,P|437:280|448:340,1,136,6|10,3:2|0:0,0:0:0:0:
373,366,176312,1,2,0:0:0:0:
294,345,176485,2,0,P|235:291|224:231,1,136,0|10,3:0|0:0,0:0:0:0:
299,205,177005,1,0,3:0:0:0:
334,131,177179,6,0,P|340:95|339:55,1,68,0|0,3:0|3:0,0:0:0:0:
263,34,177526,2,0,P|227:28|187:29,1,68,10|0,0:0|3:0,0:0:0:0:
166,105,177872,2,0,P|160:141|161:181,1,68,8|0,0:0|3:0,0:0:0:0:
245,210,178219,1,10,0:0:0:0:
245,210,178306,1,2,0:0:0:0:
245,210,178393,1,2,3:2:0:0:
176,253,178566,6,0,P|141:283|75:275,1,108.8,0|8,3:0|0:0,0:0:0:0:
65,198,179086,2,0,P|100:168|166:176,1,108.8,0|8,3:0|0:0,0:0:0:0:
159,172,179606,1,0,3:0:0:0:
350,242,179953,5,10,0:0:0:0:
377,144,180127,1,10,0:0:0:0:
475,170,180300,1,10,0:0:0:0:
449,269,180473,1,10,0:0:0:0:
449,269,181341,5,4,0:0:0:0:
495,140,190878,6,0,P|435:132|392:47,1,136,6|0,3:2|3:0,0:0:0:0:
300,28,191398,5,14,0:0:0:0:
305,109,191572,1,0,3:0:0:0:
237,154,191745,1,10,0:0:0:0:
242,235,191919,1,0,3:0:0:0:
174,280,192092,1,10,0:0:0:0:
187,369,192265,5,0,3:0:0:0:
187,369,192352,1,0,3:0:0:0:
187,369,192439,2,0,P|89:356|35:364,2,149.60000456543,6|10|0,3:2|0:0|3:0,0:0:0:0:
270,334,193306,1,0,3:0:0:0:
355,359,193479,1,10,0:0:0:0:
427,306,193653,2,0,P|403:245|433:168,1,149.60000456543,2|0,3:2|3:0,0:0:0:0:
418,80,194173,2,0,P|387:92|349:77,1,74.8000022827149,10|0,0:0|3:0,0:0:0:0:
282,17,194520,1,0,3:0:0:0:
77,109,194867,2,0,P|89:139|74:178,1,74.8000022827149,10|0,0:0|3:0,0:0:0:0:
15,245,195213,6,0,P|65:266|146:227,1,149.60000456543,2|0,3:2|3:0,0:0:0:0:
182,143,195734,5,2,3:2:0:0:
330,43,196080,5,2,3:2:0:0:
480,209,196427,6,0,P|482:285|460:366,1,149.60000456543,6|0,3:2|3:0,0:0:0:0:
380,323,196947,1,10,0:0:0:0:
330,247,197121,2,0,P|301:222|256:223,2,74.8000022827149,0|10|0,3:0|0:0|3:0,0:0:0:0:
283,324,197641,2,0,P|264:322|250:310,3,37.4000011413575,10|0|0|0,0:0|3:0|3:0|3:0,0:0:0:0:
217,292,197988,6,0,P|168:346|66:354,1,149.60000456543,6|10,3:2|0:0,0:0:0:0:
51,282,198508,2,0,P|58:246|100:217,1,74.8000022827149,2|0,0:0|3:0,0:0:0:0:
146,154,198855,1,0,3:0:0:0:
69,107,199028,1,10,0:0:0:0:
116,30,199202,2,0,P|181:27|277:41,1,149.60000456543,0|0,3:0|3:0,0:0:0:0:
283,126,199722,1,10,0:0:0:0:
488,216,200069,2,0,P|488:180|498:141,2,74.8000022827149,2|0|10,0:0|3:0|0:0,0:0:0:0:
451,298,200589,5,0,3:0:0:0:
451,298,200676,1,0,3:0:0:0:
451,298,200762,2,0,P|376:303|357:369,1,149.60000456543,2|10,3:2|0:0,0:0:0:0:
265,370,201283,2,0,P|240:303|170:302,1,149.60000456543,2|0,0:0|3:0,0:0:0:0:
108,367,201803,1,10,0:0:0:0:
35,314,201976,2,0,B|55:270|18:136|20:83,1,224.400006848145,2|10,3:2|0:0,0:0:0:0:
232,19,202843,5,2,3:2:0:0:
302,75,203017,1,0,3:0:0:0:
218,107,203190,2,0,P|202:105|174:94,3,37.4000011413575,10|0|0|0,0:0|3:0|3:0|3:0,0:0:0:0:
160,76,203537,5,6,3:2:0:0:
84,52,203710,2,0,P|54:56|13:74,2,61.1999981323243,2|0|0,0:0|0:0|0:0,0:0:0:0:
97,131,204231,1,10,0:0:0:0:
13,267,204577,1,10,0:0:0:0:
13,267,204751,1,0,3:0:0:0:
149,351,205098,1,2,0:0:0:0:
149,351,205271,2,0,P|141:289|109:234,2,122.399996264649,0|10|0,3:0|0:0|0:0,0:0:0:0:
233,215,206312,6,0,P|278:107|376:18,1,244.799992529297,6|10,3:2|0:0,0:0:0:0:
498,123,207352,1,8,0:0:0:0:
498,123,207525,1,0,3:0:0:0:
505,202,207699,2,0,P|455:215|376:217,1,122.399996264649,2|0,0:0|3:0,0:0:0:0:
373,138,208219,1,2,0:0:0:0:
174,75,208566,1,10,0:0:0:0:
131,142,208739,1,8,0:0:0:0:
64,100,208913,1,8,0:0:0:0:
107,33,209086,5,10,0:0:0:0:
107,33,209260,1,10,0:0:0:0:
504,213,210127,5,10,0:0:0:0:
504,213,210300,1,10,0:0:0:0:
217,348,210994,5,10,0:0:0:0:
217,348,211167,1,10,0:0:0:0:
139,368,211341,6,0,P|108:361|79:342,2,61.1999981323243,8|8|8,0:0|0:0|0:0,0:0:0:0:
155,292,211861,5,10,0:0:0:0:
155,292,212034,1,10,0:0:0:0:
487,27,212901,5,10,0:0:0:0:
487,27,213075,1,10,0:0:0:0:
172,40,213768,5,10,0:0:0:0:
172,40,213942,1,10,0:0:0:0:
157,118,214115,1,8,0:0:0:0:
142,196,214288,2,0,L|154:238,3,30.5999990661621,8|0|2|0,0:0|3:0|3:2|3:0,0:0:0:0:
181,239,214635,6,0,P|208:295|179:363,1,136,6|10,3:2|0:0,0:0:0:0:
94,374,215156,2,0,P|63:371|40:342,1,68,2|0,0:0|3:0,0:0:0:0:
47,262,215502,2,0,P|64:236|101:231,1,68,0|10,3:0|0:0,0:0:0:0:
148,167,215849,1,2,3:2:0:0:
322,60,216196,5,0,3:0:0:0:
394,97,216369,2,0,P|425:105|469:95,1,68,10|0,0:0|3:0,0:0:0:0:
488,175,216716,2,0,P|480:206|490:250,1,68,8|0,0:0|3:0,0:0:0:0:
410,269,217063,2,0,P|394:265|372:270,3,34,10|0|0|0,0:0|3:0|3:0|3:0,0:0:0:0:
345,281,217410,6,0,P|293:261|289:182,1,136,2|10,3:2|0:0,0:0:0:0:
328,117,217930,2,0,P|332:82|314:42,1,68,2|0,0:0|3:0,0:0:0:0:
243,24,218277,1,0,3:0:0:0:
163,39,218450,1,10,0:0:0:0:
133,115,218624,6,0,P|125:185|161:265,1,136,0|0,3:0|3:0,0:0:0:0:
188,315,219144,2,0,L|148:378,1,68,10|0,0:0|3:0,0:0:0:0:
69,371,219491,2,0,L|32:313,1,68,8|0,0:0|3:0,0:0:0:0:
12,234,219838,1,10,0:0:0:0:
12,234,219924,1,0,3:0:0:0:
12,234,220011,1,0,3:0:0:0:
23,133,220184,6,0,P|82:130|175:150,1,136,6|10,3:2|0:0,0:0:0:0:
232,111,220705,2,0,P|230:81|240:35,1,68,2|0,0:0|3:0,0:0:0:0:
314,18,221051,1,0,3:0:0:0:
390,46,221225,1,10,0:0:0:0:
398,126,221398,1,0,3:0:0:0:
259,275,221745,5,0,3:0:0:0:
267,355,221919,2,0,P|305:363|335:332,1,68,10|0,0:0|3:0,0:0:0:0:
408,341,222265,2,0,P|416:303|385:273,1,68,8|0,0:0|3:0,0:0:0:0:
394,200,222612,2,0,P|375:196|360:211,3,34,10|0|0|0,0:0|3:0|3:0|3:0,0:0:0:0:
330,210,222959,6,0,P|263:156|236:89,1,136,2|10,3:2|0:0,0:0:0:0:
196,43,223479,2,0,P|168:45|130:78,1,68,2|0,0:0|3:0,0:0:0:0:
153,152,223826,1,0,3:0:0:0:
103,216,223999,1,10,0:0:0:0:
23,198,224173,2,0,P|6:260|63:328,1,136,2|0,3:2|3:0,0:0:0:0:
120,338,224693,5,10,0:0:0:0:
201,330,224867,1,0,3:0:0:0:
258,271,225040,1,8,0:0:0:0:
266,190,225213,1,0,3:0:0:0:
323,131,225387,2,0,L|361:127,3,34,10|0|0|0,0:0|3:0|3:0|3:0,0:0:0:0:
378,100,225734,6,0,P|439:119|504:169,1,136,6|10,3:2|0:0,0:0:0:0:
490,242,226254,2,0,P|466:263|428:279,1,68,2|0,0:0|3:0,0:0:0:0:
358,246,226601,2,0,P|351:214|356:174,1,68,0|10,3:0|0:0,0:0:0:0:
378,100,226947,1,2,3:2:0:0:
186,29,227294,5,0,3:0:0:0:
127,85,227468,2,0,L|46:103,1,68,10|0,0:0|3:0,0:0:0:0:
36,177,227814,2,0,L|92:238,1,68,8|0,0:0|3:0,0:0:0:0:
162,210,228161,2,0,L|174:170,3,34,10|0|0|0,0:0|3:0|3:0|3:0,0:0:0:0:
184,145,228508,6,0,P|255:147|282:77,1,136,2|10,3:2|0:0,0:0:0:0:
362,120,229028,2,0,P|357:153|369:195,1,68,2|0,0:0|3:0,0:0:0:0:
387,264,229375,1,0,3:0:0:0:
468,271,229549,1,10,0:0:0:0:
493,348,229722,6,0,L|357:366,1,136,2|0,3:2|3:0,0:0:0:0:
303,304,230242,2,0,L|235:295,1,68,10|0,0:0|3:0,0:0:0:0:
173,348,230589,2,0,L|105:357,1,68,10|0,0:0|3:0,0:0:0:0:
30,331,230936,1,10,0:0:0:0:
30,331,231023,1,0,3:0:0:0:
30,331,231109,1,0,3:0:0:0:
117,277,231283,6,0,P|138:212|128:137,1,136,6|10,3:2|0:0,0:0:0:0:
159,68,231803,2,0,P|191:78|229:73,1,68,2|0,0:0|3:0,0:0:0:0:
285,129,232150,1,0,3:0:0:0:
333,63,232323,1,10,0:0:0:0:
412,83,232497,1,0,3:0:0:0:
503,265,232843,5,0,3:0:0:0:
455,331,233017,2,0,P|419:321|399:284,1,68,10|0,0:0|3:0,0:0:0:0:
322,276,233364,2,0,P|312:312|275:332,1,68,8|0,0:0|3:0,0:0:0:0:
210,305,233710,2,0,P|208:285|198:260,3,34,10|0|0|0,0:0|3:0|3:0|3:0,0:0:0:0:
184,243,234057,6,0,P|192:166|192:89,1,136,2|10,3:2|0:0,0:0:0:0:
146,39,234577,2,0,P|107:34|69:35,1,68,2|0,0:0|3:0,0:0:0:0:
17,88,234924,1,0,3:0:0:0:
4,168,235098,1,10,0:0:0:0:
9,249,235271,2,0,P|47:297|125:269,1,136,2|0,3:2|3:0,0:0:0:0:
176,232,235791,5,10,0:0:0:0:
209,306,235965,1,0,3:0:0:0:
286,329,236138,1,10,0:0:0:0:
319,255,236312,1,0,3:0:0:0:
396,232,236485,1,10,0:0:0:0:
429,306,236658,1,0,3:0:0:0:
506,329,236832,5,4,0:0:0:0:
256,192,237005,12,0,242381,0:0:0:0:
