osu file format v14

[General]
AudioFilename: audio.mp3
AudioLeadIn: 0
PreviewTime: 52237
Countdown: 0
SampleSet: Soft
StackLeniency: 0.7
Mode: 0
LetterboxInBreaks: 0
WidescreenStoryboard: 1

[Editor]
Bookmarks: 12093,23191,39838,53711,64809,75907,87005,98104,109202,117526,128624,145271,156369,167468,181341,192439,203537,214635,225734,236832
DistanceSpacing: 1
BeatDivisor: 4
GridSize: 4
TimelineZoom: 0.7999998

[Metadata]
Title:Memories Last
TitleUnicode:メモリーズ・ラスト
Artist:Maon Kurosaki
ArtistUnicode:黒崎真音
Creator:Hinsvar
Version:Easy
Source:とある魔術の禁書目録Ⅱ
Tags:Toaru Majutsu no Index II 2 To Aru A Certain Magical Index Japanese Pop J-Pop JPop anime 2nd season ending ED2 full version length
BeatmapID:4045644
BeatmapSetID:1952438

[Difficulty]
HPDrainRate:2
CircleSize:2
OverallDifficulty:3
ApproachRate:4
SliderMultiplier:0.96
SliderTickRate:1

[Events]
//Background and Video events
0,0,"index.jpg",0,0
//Break Periods
2,181541,189558
//Storyboard Layer 0 (Background)
//Storyboard Layer 1 (Fail)
//Storyboard Layer 2 (Pass)
//Storyboard Layer 3 (Foreground)
//Storyboard Layer 4 (Overlay)
//Storyboard Sound Samples

[TimingPoints]
995,346.820809248555,4,2,1,75,1,0
23191,-100,4,2,1,60,0,0
34289,-100,4,2,1,70,0,0
39838,-100,4,2,1,65,0,0
45388,-100,4,2,1,70,0,0
50937,-100,4,2,1,60,0,0
52324,-100,4,2,1,70,0,0
53711,346.820809248555,4,2,1,80,1,1
53711,-95.2380952380952,4,2,1,80,0,1
68104,-95.2380952380952,4,2,1,80,0,0
68190,-95.2380952380952,4,2,1,5,0,0
68450,-95.2380952380952,4,2,1,80,0,0
68537,-95.2380952380952,4,2,1,5,0,0
68797,-95.2380952380952,4,2,1,80,0,1
75907,-100,4,2,1,70,0,0
87005,-100,4,2,1,65,0,0
98104,-100,4,2,1,70,0,0
103653,-100,4,2,1,65,0,0
109202,-100,4,2,1,70,0,0
114751,-100,4,2,1,60,0,0
116138,-100,4,2,1,70,0,0
117526,346.820809248555,4,2,1,80,1,1
117526,-95.2380952380952,4,2,1,80,0,1
131919,-95.2380952380952,4,2,1,80,0,0
132005,-95.2380952380952,4,2,1,5,0,0
132265,-95.2380952380952,4,2,1,80,0,0
132352,-95.2380952380952,4,2,1,5,0,0
132612,-95.2380952380952,4,2,1,80,0,1
139722,-100,4,2,1,70,0,0
145271,-100,4,2,1,60,0,0
156369,-100,4,2,1,70,0,0
167468,-100,4,2,1,65,0,0
173017,-100,4,2,1,70,0,0
178566,-100,4,2,1,60,0,0
179953,-100,4,2,1,70,0,0
181341,346.820809248555,4,2,1,80,1,0
192439,-95.2380952380952,4,2,1,80,0,1
195734,-95.2380952380952,4,2,1,80,0,0
195820,-95.2380952380952,4,2,1,5,0,0
196080,-95.2380952380952,4,2,1,80,0,0
196167,-95.2380952380952,4,2,1,5,0,0
196427,-95.2380952380952,4,2,1,80,0,1
203537,-100,4,2,1,70,0,0
214635,-100,4,2,1,75,0,0
237005,-100,4,2,1,60,0,0
237525,-100,4,2,1,50,0,0
238219,-100,4,2,1,40,0,0
238913,-100,4,2,1,35,0,0
239606,-100,4,2,1,30,0,0
240300,-100,4,2,1,25,0,0
240994,-100,4,2,1,20,0,0
241687,-100,4,2,1,15,0,0
242034,-100,4,2,1,10,0,0
242381,-100,4,2,1,5,0,0

[Colours]
Combo1 : 121,223,170
Combo2 : 191,186,228
Combo3 : 223,185,121
Combo4 : 170,142,221

[HitObjects]
45,349,12093,6,0,P|28:290|43:206,1,144,6|2,3:2|0:0,0:0:0:0:
118,152,12960,1,0,3:0:0:0:
214,149,13307,2,0,P|231:208|216:292,1,144,2|10,3:2|0:0,0:0:0:0:
282,358,14174,1,8,0:0:0:0:
377,364,14521,1,10,0:0:0:0:
470,344,14867,6,0,B|476:232|354:135|358:27,1,336,2|2,3:2|3:2,0:0:0:0:
241,140,16601,1,10,0:0:0:0:
229,235,16948,1,10,0:0:0:0:
134,223,17295,1,10,0:0:0:0:
146,128,17642,6,0,P|87:115|18:170,1,144,6|2,3:2|0:0,0:0:0:0:
10,255,18509,1,0,3:0:0:0:
87,312,18856,2,0,P|146:325|215:270,1,144,2|10,3:2|0:0,0:0:0:0:
219,183,19723,1,8,0:0:0:0:
296,126,20070,1,10,0:0:0:0:
390,143,20416,6,0,P|443:185|455:259,1,144,6|2,3:2|0:0,0:0:0:0:
437,351,21284,1,0,3:0:0:0:
343,334,21630,2,0,P|290:292|278:218,1,144,6|10,3:2|0:0,0:0:0:0:
296,126,22497,1,10,0:0:0:0:
225,64,22844,1,10,0:0:0:0:
135,94,23191,6,0,P|91:114|36:124,2,96,4|8|0,3:2|0:0|3:0,0:0:0:0:
278,161,24405,2,0,B|301:163|335:198|377:191,1,96,2|0,0:0|3:0,0:0:0:0:
393,285,25099,2,0,P|352:337|271:313,1,144,2|8,0:0|0:0,0:0:0:0:
198,277,25966,5,2,3:2:0:0:
104,296,26312,2,0,P|83:253|83:197,1,96,8|0,0:0|3:0,0:0:0:0:
227,143,27179,2,0,P|225:95|204:52,1,96,2|0,0:0|3:0,0:0:0:0:
291,10,27873,2,0,P|365:36|442:30,1,144,2|8,0:0|0:0,0:0:0:0:
476,116,28740,5,2,3:2:0:0:
411,187,29087,2,0,P|361:169|310:173,1,96,8|0,0:0|3:0,0:0:0:0:
187,261,29954,2,0,P|137:278|86:274,1,96,2|0,0:0|3:0,0:0:0:0:
30,204,30648,2,0,B|45:167|-1:90|18:40,1,144,2|10,0:0|0:0,0:0:0:0:
101,23,31515,6,0,P|176:49|189:108,1,144,6|2,3:2|0:0,0:0:0:0:
256,174,32382,1,0,3:0:0:0:
322,105,32729,2,0,P|344:40|411:23,1,144,2|8,0:0|0:0,0:0:0:0:
467,100,33596,1,8,0:0:0:0:
452,195,33942,1,8,0:0:0:0:
374,252,34289,6,0,P|234:316|40:338,1,336,6|2,3:2|3:2,0:0:0:0:
10,186,36023,1,8,0:0:0:0:
105,195,36370,1,8,0:0:0:0:
178,134,36717,1,10,0:0:0:0:
186,39,37064,6,0,P|250:45|325:8,1,144,2|2,3:2|0:0,0:0:0:0:
353,201,38278,2,0,P|289:195|214:232,1,144,2|10,3:2|0:0,0:0:0:0:
198,322,39145,2,0,L|102:310,1,96,10|10,0:0|0:0,0:0:0:0:
48,231,39838,5,10,0:0:0:0:
89,144,40185,2,0,P|98:98|85:46,1,96,10|8,0:0|0:0,0:0:0:0:
245,47,41052,2,0,P|231:116|251:194,1,144,2|8,3:2|0:0,0:0:0:0:
314,255,41919,2,0,L|417:238,1,96,8|2,0:0|0:0,0:0:0:0:
484,180,42613,5,10,0:0:0:0:
476,84,42960,2,0,L|373:67,1,96,10|8,0:0|0:0,0:0:0:0:
228,111,43827,2,0,P|166:86|83:91,1,144,2|8,3:2|0:0,0:0:0:0:
22,157,44694,1,10,0:0:0:0:
74,237,45041,1,10,0:0:0:0:
169,250,45388,6,0,P|186:299|178:355,2,96,6|10|0,3:2|0:0|3:0,0:0:0:0:
306,170,46601,2,0,P|280:96|292:12,1,144,2|10,3:2|0:0,0:0:0:0:
381,24,47468,1,0,3:0:0:0:
466,67,47815,1,10,0:0:0:0:
466,163,48162,6,0,P|452:226|427:309,2,144,6|2|10,3:2|0:0|0:0,0:0:0:0:
371,144,49549,1,0,3:0:0:0:
286,189,49896,2,0,P|244:198|181:203,1,96,10|8,0:0|0:0,0:0:0:0:
106,247,50590,1,10,0:0:0:0:
31,186,50937,6,0,P|48:120|7:38,2,144,0|0|0,3:0|3:0|3:0,0:0:0:0:
106,247,52324,6,0,L|114:301,1,48,10|10,0:0|0:0,0:0:0:0:
180,362,52844,1,10,0:0:0:0:
360,151,53711,6,0,P|407:137|478:126,2,100.799996923828,6|10|0,3:2|0:0|3:0,0:0:0:0:
226,52,54924,2,0,P|205:122|193:232,1,151.199995385742,2|10,3:2|0:0,0:0:0:0:
242,287,55791,1,0,3:0:0:0:
174,360,56138,1,10,0:0:0:0:
83,317,56485,6,0,P|59:278|52:173,1,151.199995385742,2|2,3:2|0:0,0:0:0:0:
146,208,57352,1,0,3:0:0:0:
240,173,57699,2,0,P|241:98|208:30,1,151.199995385742,2|10,3:2|0:0,0:0:0:0:
306,5,58566,1,2,3:2:0:0:
397,48,58913,1,10,0:0:0:0:
497,36,59260,6,0,P|502:134|498:238,1,201.599993847656,6|0,3:2|3:0,0:0:0:0:
349,311,60474,2,0,P|345:237|348:159,1,151.199995385742,0|10,3:0|0:0,0:0:0:0:
294,74,61341,1,0,3:0:0:0:
196,99,61687,1,10,0:0:0:0:
189,199,62034,6,0,P|139:238|46:218,1,151.199995385742,6|2,3:2|0:0,0:0:0:0:
11,135,62901,1,0,3:0:0:0:
73,55,63248,1,2,3:2:0:0:
237,28,63768,1,14,0:0:0:0:
322,84,64115,1,10,0:0:0:0:
308,184,64462,1,10,0:0:0:0:
393,240,64809,6,0,P|440:225|507:222,2,100.799996923828,6|10|0,3:2|0:0|3:0,0:0:0:0:
255,333,66023,2,0,P|175:347|108:300,1,151.199995385742,2|10,3:2|0:0,0:0:0:0:
42,245,66890,1,0,3:0:0:0:
87,154,67237,2,0,P|89:102|77:36,1,100.799996923828,10|2,0:0|3:2,0:0:0:0:
247,37,68104,5,2,3:2:0:0:
262,136,68450,1,2,3:2:0:0:
277,235,68797,6,0,P|336:274|398:339,1,151.199995385742,6|10,3:2|0:0,0:0:0:0:
492,326,69664,1,10,0:0:0:0:
505,225,70011,1,10,0:0:0:0:
442,146,70358,6,0,P|358:152|278:112,1,151.199995385742,6|2,3:2|0:0,0:0:0:0:
217,66,71225,1,0,3:0:0:0:
118,42,71572,2,0,P|45:71|20:154,1,151.199995385742,2|10,3:2|0:0,0:0:0:0:
24,235,72439,1,2,0:0:0:0:
122,258,72786,1,10,0:0:0:0:
219,233,73132,6,0,P|223:152|207:63,1,151.199995385742,2|2,3:2|0:0,0:0:0:0:
291,19,74000,1,0,3:0:0:0:
383,58,74346,2,0,P|378:138|395:228,1,151.199995385742,2|10,3:2|0:0,0:0:0:0:
476,258,75213,1,2,3:2:0:0:
456,357,75560,1,10,0:0:0:0:
355,368,75907,6,0,P|269:360|143:341,1,192,6|10,3:2|0:0,0:0:0:0:
104,269,76947,2,0,L|100:216,1,48,10|0,0:0|3:0,0:0:0:0:
228,127,77641,2,0,L|236:22,2,96,0|10|0,3:0|0:0|0:0,0:0:0:0:
137,93,78682,6,0,P|73:76|24:183,1,192,6|10,3:2|0:0,0:0:0:0:
43,263,79722,2,0,L|97:270,1,48,8|0,0:0|3:0,0:0:0:0:
228,347,80416,1,0,3:0:0:0:
323,339,80763,2,0,L|431:325,1,96,8|8,0:0|0:0,0:0:0:0:
484,256,81456,6,0,L|485:203,1,48,10|10,0:0|0:0,0:0:0:0:
253,81,82497,2,0,L|254:28,1,48,10|10,0:0|0:0,0:0:0:0:
63,60,83364,1,10,0:0:0:0:
60,156,83711,2,0,L|113:157,1,48,8|8,0:0|0:0,0:0:0:0:
103,251,84231,6,0,L|56:251,1,48,10|10,0:0|0:0,0:0:0:0:
297,357,85271,2,0,L|344:357,1,48,10|10,0:0|0:0,0:0:0:0:
473,214,86138,2,0,L|473:166,1,48,10|10,0:0|0:0,0:0:0:0:
426,82,86658,1,8,0:0:0:0:
343,33,87005,6,0,P|298:24|229:32,2,96,6|8|0,3:2|0:0|3:0,0:0:0:0:
369,189,88219,2,0,P|348:233|339:281,1,96,2|2,0:0|3:2,0:0:0:0:
245,303,88913,2,0,P|231:232|200:167,1,144,2|8,0:0|0:0,0:0:0:0:
137,94,89780,5,2,3:2:0:0:
52,139,90127,2,0,P|35:178|36:237,1,96,8|2,0:0|3:2,0:0:0:0:
149,339,90994,2,0,P|188:356|247:355,1,96,2|0,0:0|3:0,0:0:0:0:
311,291,91687,2,0,B|362:280|401:341|468:331,1,144,2|10,0:0|0:0,0:0:0:0:
497,250,92554,5,2,3:2:0:0:
468,158,92901,2,0,P|455:113|455:65,1,96,8|0,0:0|3:0,0:0:0:0:
298,36,93768,2,0,P|285:82|261:123,1,96,2|0,0:0|3:0,0:0:0:0:
168,148,94462,2,0,L|20:140,1,144,2|10,0:0|0:0,0:0:0:0:
20,236,95329,6,0,L|108:364,1,144,6|2,3:2|0:0,0:0:0:0:
186,309,96196,1,0,3:0:0:0:
270,355,96543,2,0,L|351:236,1,144,2|8,0:0|0:0,0:0:0:0:
266,190,97410,1,8,0:0:0:0:
210,111,97757,1,8,0:0:0:0:
254,26,98104,6,0,P|397:43|483:209,1,336,6|2,3:2|3:2,0:0:0:0:
417,343,99838,1,8,0:0:0:0:
335,292,100184,1,8,0:0:0:0:
243,321,100531,1,10,0:0:0:0:
161,270,100878,6,0,P|104:248|20:260,1,144,2|2,3:2|0:0,0:0:0:0:
36,66,102092,2,0,P|93:88|177:76,1,144,2|10,3:2|0:0,0:0:0:0:
258,32,102959,2,0,L|286:136,1,96,10|10,0:0|0:0,0:0:0:0:
379,118,103653,5,10,0:0:0:0:
454,177,104000,2,0,P|435:218|432:292,1,96,10|8,0:0|0:0,0:0:0:0:
301,362,104867,2,0,P|290:295|231:200,1,144,2|8,3:2|0:0,0:0:0:0:
168,268,105734,2,0,L|69:253,1,96,8|2,0:0|0:0,0:0:0:0:
14,177,106427,5,10,0:0:0:0:
46,86,106774,2,0,L|140:71,1,96,10|8,0:0|0:0,0:0:0:0:
297,49,107641,2,0,P|304:107|258:187,1,144,2|8,3:2|0:0,0:0:0:0:
191,240,108508,1,10,0:0:0:0:
206,334,108855,1,2,3:2:0:0:
294,368,109202,6,0,L|394:353,2,96,6|8|0,3:2|0:0|3:0,0:0:0:0:
305,209,110416,2,0,L|455:186,1,144,2|10,3:2|0:0,0:0:0:0:
477,96,111283,1,0,3:0:0:0:
411,26,111630,1,10,0:0:0:0:
315,14,111976,6,0,P|237:61|220:160,1,192,6|0,3:2|3:0,0:0:0:0:
126,182,113017,2,0,L|69:172,1,48,10|2,0:0|3:2,0:0:0:0:
26,323,113711,2,0,L|140:343,1,96,10|8,0:0|0:0,0:0:0:0:
203,290,114404,1,10,0:0:0:0:
256,369,114751,1,0,3:0:0:0:
485,61,116138,6,0,L|424:39,1,48,10|10,0:0|0:0,0:0:0:0:
349,12,116658,1,10,0:0:0:0:
121,171,117526,6,0,P|79:198|17:207,2,100.799996923828,6|10|0,3:2|0:0|3:0,0:0:0:0:
284,202,118739,2,0,P|287:287|303:365,1,151.199995385742,2|10,3:2|0:0,0:0:0:0:
400,357,119606,1,0,3:0:0:0:
487,307,119953,1,10,0:0:0:0:
484,206,120300,6,0,P|463:124|391:78,1,151.199995385742,2|2,3:2|0:0,0:0:0:0:
316,54,121167,1,0,3:0:0:0:
219,25,121514,2,0,P|137:46|91:118,1,151.199995385742,2|10,3:2|0:0,0:0:0:0:
67,193,122381,1,2,3:2:0:0:
161,227,122728,1,10,0:0:0:0:
248,177,123075,6,0,P|334:161|451:208,1,201.599993847656,6|0,3:2|3:0,0:0:0:0:
358,344,124289,2,0,P|292:355|205:320,1,151.199995385742,0|10,3:0|0:0,0:0:0:0:
138,260,125156,1,0,3:0:0:0:
39,238,125502,1,10,0:0:0:0:
22,137,125849,6,0,P|105:124|181:100,1,151.199995385742,6|2,3:2|0:0,0:0:0:0:
227,22,126716,1,0,3:0:0:0:
326,40,127063,1,2,3:2:0:0:
461,135,127583,1,14,0:0:0:0:
403,217,127930,1,10,0:0:0:0:
304,199,128277,1,10,0:0:0:0:
246,281,128624,6,0,P|243:327|208:373,2,100.799996923828,6|10|0,3:2|0:0|3:0,0:0:0:0:
124,167,129838,2,0,P|128:98|181:28,1,151.199995385742,2|10,3:2|0:0,0:0:0:0:
258,89,130705,1,0,3:0:0:0:
349,47,131052,2,0,P|394:49|440:84,1,100.799996923828,10|2,0:0|3:2,0:0:0:0:
501,235,131919,5,2,3:2:0:0:
402,253,132265,1,2,3:2:0:0:
302,272,132612,6,0,P|223:276|182:366,1,151.199995385742,6|10,3:2|0:0,0:0:0:0:
90,370,133479,1,2,3:2:0:0:
20,296,133826,1,10,0:0:0:0:
23,195,134173,6,0,L|52:40,1,151.199995385742,6|2,3:2|0:0,0:0:0:0:
146,77,135040,1,0,3:0:0:0:
164,176,135387,2,0,L|191:324,1,151.199995385742,2|10,3:2|0:0,0:0:0:0:
280,372,136254,1,2,0:0:0:0:
374,336,136601,1,10,0:0:0:0:
467,372,136947,6,0,P|504:327|486:234,1,151.199995385742,2|2,3:2|0:0,0:0:0:0:
395,205,137815,1,0,3:0:0:0:
294,201,138161,2,0,P|276:129|317:68,1,151.199995385742,2|10,3:2|0:0,0:0:0:0:
406,20,139028,1,2,3:2:0:0:
493,70,139375,1,10,0:0:0:0:
480,165,139722,6,0,P|485:231|510:368,1,192,6|10,3:2|0:0,0:0:0:0:
412,375,140762,2,0,P|410:358|404:324,1,48,10|0,0:0|3:0,0:0:0:0:
285,223,141456,2,0,P|235:209|184:206,2,96,0|10|0,3:0|0:0|0:0,0:0:0:0:
379,220,142497,6,0,P|424:132|410:42,1,192,6|10,3:2|0:0,0:0:0:0:
314,35,143537,2,0,P|302:57|306:79,1,48,8|0,0:0|3:0,0:0:0:0:
175,169,144231,1,0,3:0:0:0:
153,75,144578,2,0,P|111:52|58:54,1,96,8|8,0:0|0:0,0:0:0:0:
18,136,145271,6,0,P|20:240|78:308,1,192,6|10,3:2|0:0,0:0:0:0:
163,270,146312,2,0,L|169:211,1,48,2|0,0:0|3:0,0:0:0:0:
291,123,147005,2,0,L|303:5,2,96,0|10|0,3:0|0:0|3:0,0:0:0:0:
360,189,148046,6,0,P|452:191|504:279,1,192,6|10,3:2|0:0,0:0:0:0:
465,356,149086,2,0,P|442:355|429:333,1,48,2|0,0:0|3:0,0:0:0:0:
277,290,149780,1,2,3:2:0:0:
184,315,150127,2,0,P|171:274|175:221,1,96,10|10,0:0|0:0,0:0:0:0:
114,147,150820,6,0,P|141:42|231:21,1,192,6|10,3:2|0:0,0:0:0:0:
305,40,151861,2,0,P|332:42|359:36,1,48,2|0,0:0|3:0,0:0:0:0:
455,158,152554,2,0,P|451:212|463:266,2,96,0|10|0,3:0|0:0|3:0,0:0:0:0:
358,152,153595,6,0,L|160:176,1,192,6|10,3:2|0:0,0:0:0:0:
179,270,154635,2,0,L|185:319,1,48,2|0,0:0|3:0,0:0:0:0:
89,329,155156,2,0,L|83:279,1,48,8|0,0:0|3:0,0:0:0:0:
25,204,155676,1,10,0:0:0:0:
47,110,156023,1,10,0:0:0:0:
129,62,156369,6,0,P|181:59|224:77,2,96,6|10|0,3:2|0:0|3:0,0:0:0:0:
136,158,157410,2,0,P|158:166|182:164,1,48,10|0,0:0|3:0,0:0:0:0:
326,99,158104,1,10,0:0:0:0:
420,83,158450,2,0,L|427:185,1,96,10|10,0:0|0:0,0:0:0:0:
403,272,159144,6,0,L|396:374,2,96,2|10|0,3:2|0:0|3:0,0:0:0:0:
308,286,160184,2,0,L|260:282,1,48,10|0,0:0|3:0,0:0:0:0:
116,349,160878,1,10,0:0:0:0:
114,252,161225,2,0,L|18:258,1,96,10|10,0:0|0:0,0:0:0:0:
18,162,161919,6,0,L|29:61,2,96,6|10|0,3:2|0:0|3:0,0:0:0:0:
113,157,162959,2,0,L|118:109,1,48,10|0,0:0|3:0,0:0:0:0:
259,37,163653,1,10,0:0:0:0:
354,30,163999,2,0,P|399:42|438:81,1,96,10|10,0:0|0:0,0:0:0:0:
415,169,164693,6,0,P|382:201|328:216,2,96,6|10|0,3:2|0:0|3:0,0:0:0:0:
489,229,165734,2,0,L|493:281,1,48,10|2,0:0|3:2,0:0:0:0:
452,364,166254,2,0,L|400:368,1,48,10|8,0:0|0:0,0:0:0:0:
314,333,166774,2,0,L|215:355,1,96,10|10,0:0|0:0,0:0:0:0:
134,309,167468,5,10,0:0:0:0:
189,230,167815,2,0,P|201:186|198:136,1,96,10|10,0:0|0:0,0:0:0:0:
54,69,168682,2,0,P|36:135|40:210,1,144,2|8,3:2|0:0,0:0:0:0:
11,301,169549,2,0,P|43:333|87:355,1,96,8|2,0:0|0:0,0:0:0:0:
179,325,170242,5,10,0:0:0:0:
255,266,170589,2,0,P|300:253|365:268,1,96,10|8,0:0|0:0,0:0:0:0:
477,168,171456,2,0,P|427:118|397:22,1,144,2|8,3:2|0:0,0:0:0:0:
306,32,172323,1,10,0:0:0:0:
254,113,172670,1,10,0:0:0:0:
157,111,173017,6,0,P|143:68|146:11,2,96,6|10|0,3:2|0:0|3:0,0:0:0:0:
22,195,174231,2,0,P|43:259|38:345,1,144,2|10,3:2|0:0,0:0:0:0:
131,365,175098,1,0,3:0:0:0:
205,304,175445,1,10,0:0:0:0:
294,338,175791,2,0,P|364:355|472:301,1,192,6|0,3:2|3:0,0:0:0:0:
458,209,176832,2,0,L|446:157,1,48,10|0,0:0|3:0,0:0:0:0:
294,119,177526,2,0,L|318:15,2,96,10|8|10,0:0|0:0|0:0,0:0:0:0:
199,136,178566,6,0,P|136:118|55:130,2,144,0|0|0,3:0|3:0|3:0,0:0:0:0:
198,230,179953,6,0,L|131:236,1,48,10|10,0:0|0:0,0:0:0:0:
54,243,180473,1,10,0:0:0:0:
293,353,181341,5,4,0:0:0:0:
399,39,190878,6,0,P|442:89|441:185,1,144,6|14,3:2|0:0,0:0:0:0:
417,255,191745,1,10,0:0:0:0:
323,277,192092,1,10,0:0:0:0:
242,216,192439,6,0,P|219:170|217:109,2,100.799996923828,6|10|0,3:2|0:0|3:0,0:0:0:0:
144,351,193653,2,0,P|80:335|32:266,1,151.199995385742,2|10,3:2|0:0,0:0:0:0:
41,167,194520,1,0,3:0:0:0:
94,81,194867,2,0,L|187:150,1,100.799996923828,10|2,0:0|3:2,0:0:0:0:
295,255,195734,5,2,3:2:0:0:
378,199,196080,1,2,3:2:0:0:
462,144,196427,6,0,P|472:92|384:31,1,151.199995385742,6|10,3:2|0:0,0:0:0:0:
314,72,197294,1,10,0:0:0:0:
215,52,197641,1,10,0:0:0:0:
116,32,197988,6,0,P|82:83|46:225,1,201.599993847656,6|0,3:2|3:0,0:0:0:0:
142,353,199202,2,0,P|167:314|194:208,1,151.199995385742,0|10,3:0|0:0,0:0:0:0:
191,113,200069,1,2,0:0:0:0:
282,70,200416,1,10,0:0:0:0:
345,148,200762,6,0,P|407:192|483:176,1,151.199995385742,2|2,3:2|0:0,0:0:0:0:
508,276,201630,1,0,3:0:0:0:
439,349,201976,2,0,P|377:305|301:321,1,151.199995385742,2|10,3:2|0:0,0:0:0:0:
215,360,202843,1,2,3:2:0:0:
121,321,203190,1,10,0:0:0:0:
160,233,203537,6,0,P|239:200|281:97,1,192,6|10,3:2|0:0,0:0:0:0:
218,34,204577,2,0,L|161:25,1,48,10|0,0:0|3:0,0:0:0:0:
22,84,205271,2,0,L|4:198,2,96,0|10|0,3:0|0:0|0:0,0:0:0:0:
113,115,206312,6,0,P|132:209|193:294,1,192,6|10,3:2|0:0,0:0:0:0:
270,332,207352,2,0,P|293:327|314:312,1,48,8|0,0:0|3:0,0:0:0:0:
316,155,208046,1,0,3:0:0:0:
355,67,208393,2,0,P|394:40|441:30,1,96,8|8,0:0|0:0,0:0:0:0:
500,105,209086,6,0,L|493:164,1,48,10|10,0:0|0:0,0:0:0:0:
258,272,210127,2,0,L|251:331,1,48,10|10,0:0|0:0,0:0:0:0:
64,360,210994,1,10,0:0:0:0:
36,268,211341,2,0,P|57:246|71:217,1,48,8|8,0:0|0:0,0:0:0:0:
63,134,211861,6,0,P|41:113|12:99,1,48,10|10,0:0|0:0,0:0:0:0:
277,26,212901,2,0,P|299:47|328:61,1,48,10|10,0:0|0:0,0:0:0:0:
415,219,213768,2,0,L|477:212,1,48,10|10,0:0|0:0,0:0:0:0:
498,302,214288,1,8,0:0:0:0:
416,352,214635,6,0,P|352:349|305:289,1,144,6|2,3:2|0:0,0:0:0:0:
288,195,215502,1,0,3:0:0:0:
195,167,215849,2,0,P|131:170|84:230,1,144,2|10,3:2|0:0,0:0:0:0:
72,324,216716,1,8,0:0:0:0:
156,369,217063,1,10,0:0:0:0:
251,359,217410,6,0,P|278:315|296:226,1,144,2|2,3:2|0:0,0:0:0:0:
200,218,218277,1,0,3:0:0:0:
128,153,218624,2,0,P|138:82|172:19,1,144,0|10,3:0|0:0,0:0:0:0:
254,70,219491,1,8,0:0:0:0:
350,71,219838,1,10,0:0:0:0:
365,165,220184,6,0,P|432:193|508:242,1,144,6|2,3:2|0:0,0:0:0:0:
428,301,221051,1,0,3:0:0:0:
367,375,221398,2,0,P|300:347|224:298,1,144,0|10,3:0|0:0,0:0:0:0:
148,279,222265,1,8,0:0:0:0:
133,184,222612,1,10,0:0:0:0:
211,128,222959,6,0,P|225:88|158:24,1,144,2|2,3:2|0:0,0:0:0:0:
67,46,223826,1,0,3:0:0:0:
37,137,224173,2,0,P|23:177|90:241,1,144,2|10,3:2|0:0,0:0:0:0:
181,219,225040,1,8,0:0:0:0:
267,259,225387,1,10,0:0:0:0:
314,347,225734,6,0,P|384:359|469:324,1,144,6|2,3:2|0:0,0:0:0:0:
472,242,226601,1,0,3:0:0:0:
425,154,226947,2,0,P|355:142|270:177,1,144,2|10,3:2|0:0,0:0:0:0:
267,259,227814,1,8,0:0:0:0:
191,318,228161,1,10,0:0:0:0:
100,350,228508,6,0,B|46:285|36:196|94:181|94:85|42:19,1,336,2|2,3:2|3:2,0:0:0:0:
207,27,230242,1,10,0:0:0:0:
245,115,230589,1,10,0:0:0:0:
340,126,230936,1,10,0:0:0:0:
397,49,231283,6,0,P|465:77|485:155,1,144,6|2,3:2|0:0,0:0:0:0:
473,234,232150,1,0,3:0:0:0:
431,320,232497,2,0,P|372:364|295:343,1,144,0|10,3:0|0:0,0:0:0:0:
232,293,233364,1,8,0:0:0:0:
286,214,233710,1,10,0:0:0:0:
197,177,234057,6,0,P|185:117|190:34,1,144,2|2,3:2|0:0,0:0:0:0:
94,19,234924,1,0,3:0:0:0:
29,90,235271,2,0,P|41:150|36:233,1,144,2|10,3:2|0:0,0:0:0:0:
131,243,236138,1,10,0:0:0:0:
219,281,236485,1,10,0:0:0:0:
273,360,236832,5,4,0:0:0:0:
256,192,237005,12,0,242381,0:0:0:0:
