osu file format v14

[General]
AudioFilename: audio.mp3
AudioLeadIn: 0
PreviewTime: 200605
Countdown: 0
SampleSet: Soft
StackLeniency: 0.5
Mode: 0
LetterboxInBreaks: 0
WidescreenStoryboard: 0

[Editor]
Bookmarks: 23473,145451
DistanceSpacing: 1
BeatDivisor: 4
GridSize: 4
TimelineZoom: 1.4

[Metadata]
Title:Last Desire
TitleUnicode:Last Desire
Artist:Maon Kurosaki
ArtistUnicode:黒崎真音
Creator:Electoz
Version:Normal
Source:Rewrite
Tags:electroz anime season 2 key opening full version visual novel リライト
BeatmapID:1634715
BeatmapSetID:772785

[Difficulty]
HPDrainRate:3.5
CircleSize:3
OverallDifficulty:3.5
ApproachRate:5
SliderMultiplier:1
SliderTickRate:1

[Events]
//Background and Video events
0,0,"bg.jpg",0,0
//Break Periods
2,85790,95624
2,164849,171860
2,201179,205389
//Storyboard Layer 0 (Background)
//Storyboard Layer 1 (Fail)
//Storyboard Layer 2 (Pass)
//Storyboard Layer 3 (Foreground)
//Storyboard Sound Samples

[TimingPoints]
885,352.941176470588,4,2,1,60,1,0
2120,-100,4,2,1,60,0,0
5208,-100,4,2,3,60,0,0
6179,-100,4,2,1,60,0,0
17826,-100,4,2,1,40,0,0
19237,-100,4,2,4,40,0,0
27355,-100,4,2,1,40,0,0
29120,-105.263157894737,4,2,1,50,0,0
40414,-114.942528735632,4,2,4,40,0,0
41473,-114.942528735632,4,2,4,40,0,0
49590,-114.942528735632,4,2,4,40,0,0
51708,-111.111111111111,4,2,1,50,0,0
57355,-100,4,2,1,60,0,0
60708,-100,4,2,2,60,0,0
60796,-100,4,2,1,60,0,0
62826,-95.2380952380952,4,2,1,70,0,1
67061,-95.2380952380952,4,2,2,70,0,1
67149,-95.2380952380952,4,2,1,70,0,1
74120,-90.9090909090909,4,2,1,70,0,1
75532,-90.9090909090909,4,2,2,70,0,1
75620,-90.9090909090909,4,2,1,70,0,1
85590,-100,4,2,1,60,0,0
96884,-105.263157894737,4,2,1,50,0,0
119473,-111.111111111111,4,2,2,45,0,0
130767,-111.111111111111,4,2,1,45,0,0
136414,-100,4,2,1,60,0,0
141884,-95.2380952380952,4,2,1,70,0,1
153179,-90.9090909090909,4,2,1,70,0,1
164649,-100,4,2,1,60,0,0
174532,-100,4,2,2,60,0,0
174620,-100,4,2,1,60,0,0
206649,-105.263157894737,4,2,1,60,0,0
209473,-100,4,2,1,60,0,0
213002,-86.9565217391304,4,2,1,70,0,1
223943,-100,4,2,1,60,0,0
239296,-90.9090909090909,4,2,1,70,0,0
240884,-90.9090909090909,4,2,1,55,0,0
242296,-90.9090909090909,4,2,1,40,0,0
243708,-90.9090909090909,4,2,1,25,0,0
245120,-90.9090909090909,4,2,1,10,0,0
245826,-90.9090909090909,4,2,1,5,0,0

[Colours]
Combo1 : 255,157,157
Combo2 : 160,254,233
Combo3 : 192,192,192
Combo4 : 183,183,255

[HitObjects]
115,95,2296,5,8,0:1:0:0:
264,107,2826,2,0,L|365:99,2,100,0|0|0,0:0|0:0|0:0,0:0:0:0:
205,188,3884,2,0,L|199:237,2,50,0|0|0,0:0|0:0|0:0,0:0:0:0:
304,199,4590,1,0,0:0:0:0:
304,199,4767,1,0,0:0:0:0:
279,296,5120,6,0,P|135:312|101:219,1,250,8|8,0:1|0:0,0:0:0:0:
118,137,6355,6,0,B|162:95|162:95|223:84,1,100,12|0,0:3|0:0,0:0:0:0:
250,85,6884,1,8,0:1:0:0:
347,108,7237,2,0,L|351:48,2,50,8|4|2,0:0|0:3|0:3,0:0:0:0:
362,155,7767,2,0,B|375:306,1,150,10|2,0:0|0:3,0:0:0:0:
402,346,8473,2,0,L|341:356,1,50,4|8,0:3|0:0,0:0:0:0:
270,297,9002,1,8,0:1:0:0:
204,371,9355,6,0,B|164:377|164:377|109:353,1,100,12|8,0:0|0:1,0:0:0:0:
60,342,9884,1,4,0:3:0:0:
62,241,10237,2,0,L|122:236,1,50,4|8,0:3|0:1,0:0:0:0:
164,232,10590,2,0,P|155:178|166:126,1,100,10|8,0:0|0:0,0:0:0:0:
179,86,11120,1,2,0:3:0:0:
270,126,11473,1,8,0:0:0:0:
261,225,11826,2,0,L|256:274,1,50,8|4,0:1|0:3,0:0:0:0:
256,324,12179,6,0,B|295:321|295:321|348:350,1,100,12|8,0:1|0:1,0:0:0:0:
398,355,12708,1,4,0:3:0:0:
438,263,13061,2,0,L|443:203,1,50,4|8,0:3|0:1,0:0:0:0:
437,163,13414,2,0,B|289:128,1,150,10|2,0:0|0:3,0:0:0:0:
242,141,14120,2,0,L|251:79,1,50,4|8,0:3|0:0,0:0:0:0:
149,79,14649,1,8,0:1:0:0:
50,99,15002,6,0,B|59:210,1,100,12|2,0:0|0:3,0:0:0:0:
63,248,15532,1,4,0:3:0:0:
115,332,15884,2,0,L|165:340,1,50,4|2,0:3|0:3,0:0:0:0:
214,345,16237,2,0,B|253:348|253:348|306:319,1,100,10|8,0:0|0:0,0:0:0:0:
340,282,16767,1,2,0:3:0:0:
353,183,17120,2,0,L|364:133,2,50,2|8|4,0:3|0:0|0:3,0:0:0:0:
340,282,17826,6,0,P|252:337|155:320,1,200,10|8,0:0|0:0,0:0:0:0:
106,240,18884,1,8,0:0:0:0:
146,148,19237,1,10,0:0:0:0:
287,98,19767,1,2,0:0:0:0:
145,48,20296,1,10,0:0:0:0:
146,148,20649,6,0,P|167:252|242:314,1,200,8|8,0:0|0:0,0:0:0:0:
306,242,21708,1,8,0:0:0:0:
378,327,22061,1,10,0:0:0:0:
504,246,22590,1,2,0:0:0:0:
405,132,23120,1,10,0:0:0:0:
405,231,23473,6,0,P|315:170|324:73,1,200,8|8,0:0|0:0,0:0:0:0:
225,42,24532,1,8,0:0:0:0:
126,26,24884,1,10,0:0:0:0:
186,163,25414,1,2,0:0:0:0:
315,87,25943,1,10,0:0:0:0:
284,182,26296,6,0,L|266:385,1,200,8|8,0:0|0:0,0:0:0:0:
172,351,27355,2,0,L|177:291,1,50,2|8,0:3|0:0,0:0:0:0:
384,29,28767,1,2,0:3:0:0:
384,29,29120,6,0,B|314:21|298:58|238:38,1,142.49999619484,12|4,0:0|0:3,0:0:0:0:
148,39,30002,2,0,L|115:97,1,47.4999987316132,4|2,0:3|0:3,0:0:0:0:
104,124,30355,2,0,P|85:171|93:228,1,94.9999974632264,8|4,0:0|0:3,0:0:0:0:
148,289,31061,1,4,0:3:0:0:
205,214,31414,2,0,L|209:158,2,47.4999987316132,4|2|0,0:3|0:3|0:0,0:0:0:0:
239,246,31943,6,0,B|293:227|309:264|379:256,1,142.49999619484,8|4,0:0|0:3,0:0:0:0:
410,166,32826,2,0,L|354:161,1,47.4999987316132,4|2,0:3|0:3,0:0:0:0:
316,163,33179,2,0,P|307:115|327:66,1,94.9999974632264,8|8,0:0|0:0,0:0:0:0:
344,30,33708,2,0,L|400:34,2,47.4999987316132,2|2|8,0:3|0:3|0:0,0:0:0:0:
250,7,34414,1,2,0:3:0:0:
168,55,34767,6,0,B|176:125|139:141|158:195,1,142.49999619484,12|4,0:0|0:3,0:0:0:0:
239,246,35649,2,0,L|295:242,1,47.4999987316132,8|2,0:0|0:3,0:0:0:0:
334,243,36002,2,0,P|343:289|327:333,1,94.9999974632264,8|8,0:0|0:0,0:0:0:0:
287,359,36532,1,2,0:3:0:0:
163,305,37061,2,0,L|142:252,1,47.4999987316132,0|2,0:0|0:3,0:0:0:0:
239,246,37590,6,0,L|250:103,1,142.49999619484,8|4,0:0|0:3,0:0:0:0:
259,9,38473,2,0,P|226:11|202:22,1,47.4999987316132,4|2,0:3|0:3,0:0:0:0:
175,45,38826,1,12,0:3:0:0:
107,112,39179,2,0,L|102:159,1,47.4999987316132,4|2,0:3|0:3,0:0:0:0:
98,206,39532,1,8,0:0:0:0:
54,290,39884,2,0,L|6:294,2,47.4999987316132,2|4|4,0:3|0:3|0:3,0:0:0:0:
97,293,40414,5,12,0:0:0:0:
276,104,41473,2,0,L|451:119,2,174.000001460266,0|0|0,0:0|0:0|0:0,0:0:0:0:
189,96,43237,1,4,0:0:0:0:
256,192,43414,12,12,46061,0:0:0:0:
236,280,47120,6,0,L|61:265,2,174.000001460266,0|0|0,0:0|0:0|0:0,0:0:0:0:
322,290,48884,1,4,0:0:0:0:
256,192,49061,12,8,51708,0:0:0:0:
27,89,52767,5,8,0:0:0:0:
35,179,53120,2,0,L|242:160,1,179.999994506836,8|8,0:0|0:0,0:0:0:0:
258,243,54179,1,8,0:0:0:0:
311,316,54532,6,0,P|394:313|438:235,1,179.999994506836,8|8,0:0|0:0,0:0:0:0:
394,156,55590,1,8,0:0:0:0:
385,66,55943,1,8,0:0:0:0:
210,117,56649,2,0,L|154:112,2,44.999998626709,8|4|2,0:0|0:3|0:3,0:0:0:0:
309,104,57355,6,0,P|278:189|215:218,1,150,12|4,0:3|0:3,0:0:0:0:
131,238,58237,2,0,L|126:298,2,50,4|8|4,0:3|0:0|0:3,0:0:0:0:
134,187,58767,2,0,P|133:138|160:93,1,100,8|8,0:0|0:0,0:0:0:0:
208,96,59296,1,4,0:3:0:0:
309,104,59649,2,0,L|304:164,2,50,4|2|4,0:3|0:3|0:3,0:0:0:0:
318,54,60179,6,0,B|374:46|374:46|431:59,1,100,10|8,0:3|0:0,0:0:0:0:
465,65,60708,1,10,0:3:0:0:
486,162,61061,2,0,L|481:222,1,50,8|2,0:0|0:3,0:0:0:0:
474,261,61414,2,0,L|370:270,1,100,12|2,0:0|0:3,0:0:0:0:
324,275,61943,1,10,0:0:0:0:
198,356,62473,1,12,0:1:0:0:
93,357,62826,6,0,B|118:292|118:292|100:205,1,157.499995193482,12|8,0:3|0:1,0:0:0:0:
88,101,63708,2,0,P|62:108|39:120,2,52.4999983978272,8|4|2,0:0|0:3|0:3,0:0:0:0:
140,100,64237,2,0,L|299:113,1,157.499995193482,10|8,0:0|0:1,0:0:0:0:
348,116,64943,1,4,0:3:0:0:
317,216,65296,1,4,0:3:0:0:
317,216,65473,2,0,L|253:221,1,52.4999983978272,2|4,0:3|0:3,0:0:0:0:
212,226,65826,6,0,P|202:282|217:334,1,104.999996795654,12|8,0:0|0:1,0:0:0:0:
319,331,66532,2,0,L|383:326,1,52.4999983978272,8|4,0:0|0:3,0:0:0:0:
476,321,67061,2,0,L|486:205,1,104.999996795654,12|4,0:3|0:3,0:0:0:0:
469,166,67590,2,0,P|456:142|450:117,1,52.4999983978272,8|8,0:1|0:0,0:0:0:0:
425,14,68120,1,2,0:3:0:0:
425,14,68296,2,0,L|361:9,1,52.4999983978272,8|8,0:1|0:0,0:0:0:0:
320,16,68649,6,0,L|212:25,1,104.999996795654,10|8,0:0|0:1,0:0:0:0:
110,34,69355,2,0,L|66:138,1,104.999996795654,8|8,0:0|0:1,0:0:0:0:
110,228,70061,2,0,L|217:218,1,104.999996795654,8|8,0:0|0:1,0:0:0:0:
320,210,70767,1,8,0:0:0:0:
423,203,71120,2,0,P|422:230|415:255,1,52.4999983978272,2|0,0:3|0:0,0:0:0:0:
380,294,71473,5,10,0:3:0:0:
320,210,71826,1,4,0:3:0:0:
320,210,72002,1,10,0:1:0:0:
367,114,72355,1,4,0:3:0:0:
262,120,72708,2,0,B|239:92|239:92|98:117,1,157.499995193482,10|4,0:0|0:3,0:0:0:0:
70,131,73414,1,12,0:0:0:0:
110,228,73767,2,0,L|100:291,1,52.4999983978272,8|2,0:1|0:3,0:0:0:0:
70,325,74120,6,0,B|135:350|135:350|232:331,1,165.000005035401,12|8,0:0|0:1,0:0:0:0:
337,314,75002,2,0,L|349:374,2,55.0000016784668,4|4|2,0:3|0:3|0:3,0:0:0:0:
343,258,75532,2,0,L|356:88,1,165.000005035401,12|8,0:3|0:1,0:0:0:0:
361,38,76238,1,4,0:3:0:0:
252,53,76590,1,8,0:0:0:0:
252,53,76767,2,0,L|186:60,1,55.0000016784668,2|4,0:3|0:3,0:0:0:0:
143,69,77120,6,0,P|153:125|134:190,1,110.000003356934,12|8,0:0|0:1,0:0:0:0:
101,278,77826,2,0,L|158:285,1,55.0000016784668,8|4,0:0|0:3,0:0:0:0:
264,263,78355,2,0,B|288:186|288:186|273:94,1,165.000005035401,12|2,0:0|0:3,0:0:0:0:
252,53,79061,1,8,0:0:0:0:
360,34,79414,2,0,B|394:78|394:78|407:142,1,110.000003356934,8|2,0:0|0:3,0:0:0:0:
414,185,79943,6,0,P|436:286|339:335,1,220.000006713867,10|8,0:0|0:0,0:0:0:0:
264,263,81002,1,8,0:0:0:0:
180,335,81355,2,0,P|90:284|113:183,1,220.000006713867,8|8,0:0|0:0,0:0:0:0:
221,160,82414,1,2,0:3:0:0:
264,263,82767,5,8,0:1:0:0:
264,263,82943,1,8,0:0:0:0:
332,175,83297,1,8,0:1:0:0:
332,175,83473,1,8,0:0:0:0:
221,160,83825,1,8,0:1:0:0:
221,160,84002,1,12,0:3:0:0:
256,192,84179,12,12,85590,0:3:0:0:
116,176,96884,6,0,L|125:68,2,94.9999974632264,10|8|8,0:0|0:0|0:0,0:0:0:0:
112,276,97943,1,8,0:0:0:0:
112,276,98120,1,4,0:3:0:0:
178,344,98473,1,0,0:0:0:0:
254,288,98826,1,4,0:3:0:0:
348,295,99179,2,0,P|334:237|302:207,1,94.9999974632264,8|0,0:0|0:0,0:0:0:0:
266,194,99708,6,0,L|275:86,2,94.9999974632264,10|8|8,0:0|0:0|0:0,0:0:0:0:
178,231,100767,1,8,0:0:0:0:
178,231,100943,2,0,L|122:226,1,47.4999987316132,2|2,0:3|0:3,0:0:0:0:
83,227,101296,2,0,P|66:137|89:77,1,142.49999619484,4|8,0:3|0:0,0:0:0:0:
157,33,102179,2,0,L|213:28,1,47.4999987316132,8|4,0:0|0:3,0:0:0:0:
251,25,102532,6,0,L|359:34,2,94.9999974632264,10|8|8,0:0|0:0|0:0,0:0:0:0:
235,118,103590,2,0,L|230:174,1,47.4999987316132,8|4,0:0|0:3,0:0:0:0:
234,212,103943,2,0,P|270:241|316:249,1,94.9999974632264,8|8,0:0|0:0,0:0:0:0:
412,247,104649,1,8,0:0:0:0:
363,165,105002,1,2,0:3:0:0:
412,83,105355,6,0,L|467:78,2,47.4999987316132,2|2|2,0:3|0:3|0:3,0:0:0:0:
293,3,106237,2,0,L|289:50,2,47.4999987316132,2|2|8,0:3|0:3|0:0,0:0:0:0:
366,330,107826,1,2,0:3:0:0:
366,330,108179,6,0,B|296:338|280:301|220:321,1,142.49999619484,12|4,0:0|0:3,0:0:0:0:
132,337,109061,2,0,L|127:282,1,47.4999987316132,4|2,0:3|0:3,0:0:0:0:
120,242,109414,2,0,P|206:202|241:164,1,142.49999619484,8|2,0:0|0:3,0:0:0:0:
267,131,110120,1,4,0:3:0:0:
188,77,110473,2,0,L|127:86,2,47.4999987316132,4|2|0,0:3|0:3|0:0,0:0:0:0:
225,46,111002,6,0,P|301:40|351:84,1,142.49999619484,8|4,0:0|0:3,0:0:0:0:
351,175,111884,2,0,L|407:170,1,47.4999987316132,4|2,0:3|0:3,0:0:0:0:
445,165,112237,2,0,P|462:210|451:262,1,94.9999974632264,8|8,0:0|0:0,0:0:0:0:
450,302,112767,2,0,L|506:306,2,47.4999987316132,2|2|8,0:3|0:3|0:0,0:0:0:0:
356,300,113473,1,2,0:3:0:0:
265,328,113826,6,0,B|211:347|195:310|125:318,1,142.49999619484,12|4,0:0|0:3,0:0:0:0:
30,327,114708,2,0,L|26:271,1,47.4999987316132,8|2,0:0|0:3,0:0:0:0:
27,232,115061,2,0,L|126:223,1,94.9999974632264,8|8,0:0|0:0,0:0:0:0:
169,218,115590,1,2,0:3:0:0:
308,188,116120,2,0,L|361:209,1,47.4999987316132,0|2,0:0|0:3,0:0:0:0:
366,111,116649,6,0,L|223:100,1,142.49999619484,8|4,0:0|0:3,0:0:0:0:
128,97,117532,2,0,L|123:144,1,47.4999987316132,4|2,0:3|0:3,0:0:0:0:
119,191,117885,1,12,0:3:0:0:
109,285,118238,2,0,L|156:290,1,47.4999987316132,4|2,0:3|0:3,0:0:0:0:
203,294,118591,1,8,0:0:0:0:
281,240,118943,2,0,L|277:192,2,47.4999987316132,2|4|4,0:3|0:3|0:3,0:0:0:0:
286,285,119473,6,0,L|465:269,1,179.999994506836,8|2,0:0|0:0,0:0:0:0:
451,179,120532,1,2,0:0:0:0:
451,179,120884,2,0,L|459:87,1,89.9999972534181,2|2,0:0|0:0,0:0:0:0:
368,84,121590,2,0,L|359:175,1,89.9999972534181,2|2,0:0|0:0,0:0:0:0:
269,167,122296,6,0,L|90:151,1,179.999994506836,2|2,0:0|0:0,0:0:0:0:
0,142,123355,1,2,0:0:0:0:
8,231,123708,2,0,L|187:247,1,179.999994506836,2|2,0:0|0:0,0:0:0:0:
269,167,124767,1,2,0:0:0:0:
351,87,125120,6,0,P|434:127|441:211,1,179.999994506836,6|2,0:0|0:0,0:0:0:0:
404,288,126179,1,2,0:0:0:0:
326,241,126532,2,0,L|236:232,1,89.9999972534181,2|2,0:0|0:0,0:0:0:0:
239,322,127237,2,0,L|149:313,1,89.9999972534181,2|2,0:0|0:0,0:0:0:0:
96,241,127943,6,0,P|65:154|187:52,1,269.999991760254,2|2,0:0|0:0,0:0:0:0:
208,140,129355,2,0,L|297:132,1,89.9999972534181,2|2,0:0|0:3,0:0:0:0:
342,129,129884,1,2,0:0:0:0:
348,218,130237,2,0,L|259:226,1,89.9999972534181,10|8,0:0|0:0,0:0:0:0:
214,229,130766,1,12,0:0:0:0:
66,333,131826,6,0,L|121:328,1,44.999998626709,8|0,0:0|0:0,0:0:0:0:
155,326,132179,1,4,0:3:0:0:
244,318,132532,1,0,0:0:0:0:
333,310,132884,1,2,0:3:0:0:
422,302,133237,1,4,0:3:0:0:
430,213,133590,6,0,B|370:136|445:115|356:51,1,179.999994506836,8|2,0:0|0:3,0:0:0:0:
184,51,135002,2,0,L|40:63,1,134.999995880127,4|4,0:3|0:3,0:0:0:0:
4,69,135708,1,2,0:3:0:0:
67,188,136237,1,2,0:3:0:0:
67,188,136414,6,0,L|266:170,1,200,12|8,0:3|0:0,0:0:0:0:
316,160,137296,2,0,L|321:100,2,50,4|8|4,0:3|0:0|0:3,0:0:0:0:
312,210,137826,2,0,P|304:258|272:296,1,100,8|8,0:0|0:0,0:0:0:0:
239,334,138355,1,4,0:3:0:0:
183,250,138708,2,0,L|123:255,2,50,4|2|4,0:3|0:3|0:3,0:0:0:0:
183,199,139237,6,0,B|175:143|175:143|188:86,1,100,10|8,0:3|0:0,0:0:0:0:
203,53,139767,1,10,0:3:0:0:
302,41,140120,2,0,L|362:46,1,50,8|2,0:0|0:3,0:0:0:0:
401,53,140473,2,0,L|392:152,1,100,12|2,0:0|0:3,0:0:0:0:
387,203,141002,1,10,0:0:0:0:
272,296,141532,1,12,0:1:0:0:
183,250,141884,6,0,B|201:163|201:163|176:98,1,157.499995193482,12|8,0:3|0:1,0:0:0:0:
71,97,142767,2,0,L|66:41,2,52.4999983978272,8|4|2,0:0|0:3|0:3,0:0:0:0:
74,149,143296,2,0,P|50:217|86:293,1,157.499995193482,10|8,0:0|0:1,0:0:0:0:
119,331,144002,1,4,0:3:0:0:
183,250,144356,1,4,0:3:0:0:
183,250,144532,2,0,L|247:245,1,52.4999983978272,2|4,0:3|0:3,0:0:0:0:
287,246,144885,6,0,L|299:118,1,104.999996795654,12|8,0:0|0:1,0:0:0:0:
305,36,145591,2,0,L|369:31,1,52.4999983978272,8|4,0:0|0:3,0:0:0:0:
462,38,146120,2,0,L|452:154,1,104.999996795654,12|4,0:3|0:3,0:0:0:0:
449,195,146649,2,0,L|385:200,2,52.4999983978272,8|8|4,0:1|0:0|0:3,0:0:0:0:
450,300,147355,2,0,L|386:295,1,52.4999983978272,8|8,0:1|0:0,0:0:0:0:
345,294,147708,6,0,L|237:303,1,104.999996795654,10|8,0:0|0:1,0:0:0:0:
135,313,148414,2,0,L|91:209,1,104.999996795654,8|8,0:0|0:1,0:0:0:0:
67,114,149120,2,0,L|174:104,1,104.999996795654,8|8,0:0|0:1,0:0:0:0:
276,99,149826,1,8,0:0:0:0:
380,89,150179,2,0,P|379:116|372:141,1,52.4999983978272,2|0,0:3|0:0,0:0:0:0:
340,182,150532,5,10,0:3:0:0:
363,284,150884,1,4,0:3:0:0:
363,284,151061,1,10,0:1:0:0:
444,217,151414,1,4,0:3:0:0:
340,182,151767,2,0,B|281:152|281:152|189:165,1,157.499995193482,10|4,0:0|0:3,0:0:0:0:
139,178,152473,1,12,0:0:0:0:
43,134,152826,2,0,L|33:71,1,52.4999983978272,8|2,0:1|0:3,0:0:0:0:
37,27,153179,6,0,B|102:52|102:52|195:33,1,165.000005035401,12|8,0:0|0:1,0:0:0:0:
304,24,154061,2,0,L|367:18,2,55.0000016784668,4|4|2,0:3|0:3|0:3,0:0:0:0:
300,80,154591,2,0,L|313:250,1,165.000005035401,12|8,0:3|0:1,0:0:0:0:
318,299,155297,1,4,0:3:0:0:
215,338,155649,1,8,0:0:0:0:
215,338,155826,2,0,L|149:331,1,55.0000016784668,2|4,0:3|0:3,0:0:0:0:
106,319,156179,6,0,P|96:263|115:198,1,110.000003356934,12|8,0:0|0:1,0:0:0:0:
163,116,156885,2,0,L|222:122,1,55.0000016784668,8|4,0:0|0:3,0:0:0:0:
328,138,157414,2,0,B|304:215|304:215|319:307,1,165.000005035401,12|2,0:0|0:3,0:0:0:0:
330,351,158120,1,8,0:0:0:0:
438,335,158473,2,0,B|459:283|459:283|455:218,1,110.000003356934,8|2,0:0|0:3,0:0:0:0:
445,175,159002,6,0,P|467:74|370:25,1,220.000006713867,10|8,0:0|0:0,0:0:0:0:
270,46,160061,1,8,0:0:0:0:
161,23,160414,2,0,P|71:74|94:175,1,220.000006713867,8|8,0:0|0:0,0:0:0:0:
177,245,161473,1,2,0:3:0:0:
226,146,161826,5,8,0:1:0:0:
226,146,162002,1,8,0:0:0:0:
270,46,162356,1,8,0:1:0:0:
270,46,162532,1,8,0:0:0:0:
337,138,162884,1,8,0:1:0:0:
337,138,163061,1,12,0:3:0:0:
256,192,163237,12,2,164649,0:3:0:0:
91,329,173120,5,12,0:0:0:0:
91,329,173826,2,0,L|81:225,1,100,2|2,0:3|0:3,0:0:0:0:
78,179,174355,1,2,0:3:0:0:
78,179,174532,5,10,0:3:0:0:
125,91,174884,1,8,0:0:0:0:
178,176,175237,1,12,0:3:0:0:
225,88,175590,1,2,0:3:0:0:
278,173,175943,6,0,L|337:167,1,50,12|4,0:3|0:3,0:0:0:0:
377,168,176296,2,0,L|422:206,1,50,2|4,0:3|0:3,0:0:0:0:
439,244,176649,2,0,L|393:282,1,50,8|4,0:0|0:3,0:0:0:0:
364,310,177002,1,2,0:3:0:0:
265,329,177355,6,0,L|206:335,1,50,8|4,0:0|0:3,0:0:0:0:
166,334,177708,2,0,L|121:296,1,50,2|4,0:3|0:3,0:0:0:0:
90,267,178061,1,8,0:0:0:0:
75,168,178414,2,0,L|134:174,1,50,2|4,0:3|0:3,0:0:0:0:
174,173,178767,6,0,B|204:140|204:140|203:73,1,100,8|2,0:0|0:3,0:0:0:0:
195,35,179296,1,4,0:3:0:0:
294,42,179649,2,0,L|343:36,2,50,8|2|4,0:0|0:3|0:3,0:0:0:0:
300,92,180179,2,0,B|299:147|299:147|329:180,1,100,8|2,0:0|0:3,0:0:0:0:
367,213,180708,1,4,0:3:0:0:
466,202,181061,1,8,0:0:0:0:
466,202,181237,2,0,L|472:261,1,50,2|4,0:3|0:3,0:0:0:0:
459,300,181590,6,0,B|414:307|414:307|406:316|406:316|362:320,1,100,10|2,0:0|0:3,0:0:0:0:
264,332,182296,2,0,L|205:338,2,50,8|8|2,0:0|0:0|0:3,0:0:0:0:
302,239,183002,2,0,B|309:194|309:194|318:186|318:186|322:142,1,100,8|2,0:0|0:3,0:0:0:0:
332,94,183532,2,0,L|229:85,1,100,4|8,0:3|0:0,0:0:0:0:
182,81,184061,1,2,0:3:0:0:
146,176,184414,5,10,0:3:0:0:
146,176,184590,1,4,0:3:0:0:
110,271,184943,1,2,0:3:0:0:
110,271,185120,1,4,0:3:0:0:
205,307,185473,1,2,0:3:0:0:
300,343,185826,6,0,B|333:313|333:313|395:319,1,100,10|8,0:3|0:0,0:0:0:0:
438,322,186355,2,0,L|447:218,1,100,2|8,0:3|0:0,0:0:0:0:
452,172,186884,1,2,0:3:0:0:
457,72,187237,6,0,P|406:77|357:70,1,100,12|2,0:0|0:3,0:0:0:0:
258,58,187943,2,0,L|254:2,2,50,8|8|2,0:0|0:0|0:3,0:0:0:0:
264,108,188473,2,0,B|272:160|272:160|254:215,1,100,10|4,0:0|0:3,0:0:0:0:
232,248,189002,2,0,L|176:244,1,50,2|4,0:3|0:3,0:0:0:0:
92,198,189532,2,0,L|79:262,2,50,8|2|4,0:0|0:3|0:3,0:0:0:0:
86,148,190061,6,0,P|118:108|164:89,1,100,12|2,0:0|0:3,0:0:0:0:
258,58,190767,2,0,L|262:2,2,50,8|8|2,0:0|0:0|0:3,0:0:0:0:
250,108,191297,2,0,B|242:160|242:160|260:215,1,100,10|4,0:0|0:3,0:0:0:0:
232,248,191826,2,0,L|176:244,1,50,2|4,0:3|0:3,0:0:0:0:
92,198,192355,2,0,L|79:262,2,50,8|2|4,0:0|0:3|0:3,0:0:0:0:
86,148,192884,6,0,P|118:108|164:89,1,100,12|2,0:0|0:3,0:0:0:0:
258,58,193590,2,0,L|314:54,2,50,8|8|2,0:0|0:0|0:3,0:0:0:0:
264,108,194120,2,0,B|259:151|259:151|265:165|265:165|255:215,1,100,10|8,0:0|0:0,0:0:0:0:
232,248,194649,2,0,L|387:261,1,150,2|8,0:3|0:0,0:0:0:0:
430,268,195355,1,2,0:3:0:0:
420,168,195708,6,0,P|431:118|416:64,1,100,12|0,0:0|0:0,0:0:0:0:
327,31,196414,1,2,0:3:0:0:
264,108,196767,1,4,0:3:0:0:
264,108,196943,2,0,L|164:99,1,100,8|2,0:0|0:3,0:0:0:0:
113,100,197473,1,4,0:3:0:0:
92,198,197826,1,2,0:3:0:0:
113,296,198179,2,0,L|162:299,1,50,2|4,0:3|0:3,0:0:0:0:
212,304,198532,6,0,B|263:313|263:313|329:297,1,100,12|2,0:0|0:3,0:0:0:0:
357,285,199061,1,4,0:3:0:0:
302,201,199414,2,0,L|307:141,1,50,2|8,0:3|0:0,0:0:0:0:
313,101,199767,2,0,L|417:92,1,100,12|2,0:0|0:3,0:0:0:0:
463,89,200296,1,10,0:0:0:0:
185,245,206649,5,4,0:3:0:0:
185,245,207002,2,0,L|380:262,1,189.999994926453,10|8,0:0|0:0,0:0:0:0:
386,167,208061,1,8,0:0:0:0:
386,167,208414,2,0,L|196:150,1,189.999994926453,8|8,0:0|0:0,0:0:0:0:
97,139,209473,1,8,0:0:0:0:
97,139,209826,6,0,P|125:82|166:56,1,100,10|8,0:0|0:0,0:0:0:0:
201,46,210355,1,10,0:0:0:0:
300,52,210708,2,8,L|355:56,1,50,2|2,0:3|0:3,0:0:0:0:
400,64,211061,1,12,0:0:0:0:
389,163,211414,2,8,L|334:159,1,50,2|2,0:3|0:3,0:0:0:0:
289,151,211767,2,0,P|248:225|311:321,1,200,12|8,0:0|0:0,0:0:0:0:
472,336,213002,6,0,L|461:220,1,115.000002193451,12|8,0:1|0:1,0:0:0:0:
452,108,213708,1,2,0:3:0:0:
452,108,213884,2,0,B|391:71|391:71|277:96,1,172.500003290176,12|8,0:3|0:1,0:0:0:0:
289,151,214590,1,4,0:3:0:0:
292,270,214943,1,8,0:0:0:0:
292,270,215120,2,0,L|232:264,1,57.5000010967255,2|4,0:3|0:3,0:0:0:0:
177,268,215473,6,0,P|164:211|183:141,1,115.000002193451,12|8,0:0|0:1,0:0:0:0:
289,151,216179,2,0,L|283:91,1,57.5000010967255,8|4,0:0|0:3,0:0:0:0:
186,31,216708,2,0,B|106:52|106:52|54:124,1,172.500003290176,12|2,0:0|0:3,0:0:0:0:
45,181,217414,1,8,0:0:0:0:
69,293,217767,2,0,B|121:298|121:298|177:268,1,115.000002193451,8|2,0:0|0:3,0:0:0:0:
232,252,218296,6,0,L|253:11,1,230.000004386902,10|8,0:0|0:0,0:0:0:0:
347,86,219355,1,8,0:0:0:0:
449,32,219708,2,0,L|428:261,1,230.000004386902,8|8,0:0|0:0,0:0:0:0:
334,198,220767,1,2,0:3:0:0:
232,252,221120,5,8,0:1:0:0:
225,309,221296,1,8,0:0:0:0:
110,300,221649,1,8,0:1:0:0:
117,243,221825,1,8,0:0:0:0:
152,133,222179,1,8,0:1:0:0:
209,140,222355,1,12,0:3:0:0:
209,140,223590,1,4,0:3:0:0:
209,140,223943,6,0,B|165:182|165:182|104:193,1,100,12|8,0:3|0:1,0:0:0:0:
119,288,224649,2,0,L|115:348,2,50,8|4|2,0:0|0:3|0:3,0:0:0:0:
169,284,225179,2,0,B|320:297,1,150,10|2,0:0|0:3,0:0:0:0:
356,329,225884,2,0,L|366:268,1,50,4|8,0:3|0:0,0:0:0:0:
381,181,226413,1,8,0:1:0:0:
392,81,226767,6,0,B|337:57|337:57|297:63,1,100,12|8,0:0|0:1,0:0:0:0:
251,46,227296,2,0,L|260:96,1,50,4|2,0:3|0:3,0:0:0:0:
282,193,227826,1,8,0:1:0:0:
282,193,228002,2,0,L|218:282,1,100,10|8,0:0|0:0,0:0:0:0:
193,314,228532,1,2,0:3:0:0:
91,302,228884,1,2,0:3:0:0:
33,221,229237,2,0,L|28:172,1,50,8|4,0:1|0:3,0:0:0:0:
25,121,229590,6,0,B|64:120|64:120|114:87,1,100,12|8,0:1|0:1,0:0:0:0:
151,52,230119,1,4,0:3:0:0:
251,46,230472,2,0,L|311:51,1,50,4|8,0:3|0:1,0:0:0:0:
352,56,230825,2,0,B|365:207,1,150,10|2,0:0|0:3,0:0:0:0:
391,248,231531,2,0,L|331:253,1,50,4|8,0:3|0:0,0:0:0:0:
257,306,232060,1,8,0:1:0:0:
173,252,232414,6,0,B|59:243,1,100,12|2,0:0|0:3,0:0:0:0:
23,240,232943,1,4,0:3:0:0:
42,142,233296,2,0,L|50:92,1,50,4|2,0:3|0:3,0:0:0:0:
64,44,233649,2,0,B|103:41|103:41|156:70,1,100,10|8,0:0|0:0,0:0:0:0:
198,97,234179,1,2,0:3:0:0:
298,99,234531,2,0,L|300:50,2,50,2|4|8,0:3|0:3|0:1,0:0:0:0:
295,199,235237,6,0,P|348:185|381:154,1,100,12|8,0:0|0:1,0:0:0:0:
422,126,235767,1,10,0:0:0:0:
399,34,236120,1,4,0:3:0:0:
399,34,236296,1,4,0:3:0:0:
300,49,236649,2,0,L|193:58,1,100,12|8,0:0|0:1,0:0:0:0:
150,66,237179,1,10,0:0:0:0:
50,79,237532,2,0,L|54:133,1,50,2|2,0:3|0:3,0:0:0:0:
64,228,238061,5,8,0:1:0:0:
64,228,238237,1,8,0:0:0:0:
163,218,238590,1,8,0:1:0:0:
163,218,238766,1,8,0:0:0:0:
262,208,239120,5,8,0:1:0:0:
312,203,239296,1,12,0:3:0:0:
256,192,239473,12,0,245826,0:0:0:0:
