osu file format v14

[General]
AudioFilename: audio.mp3
AudioLeadIn: 0
PreviewTime: 200605
Countdown: 0
SampleSet: Soft
StackLeniency: 0.5
Mode: 0
LetterboxInBreaks: 0
WidescreenStoryboard: 0

[Editor]
Bookmarks: 145451
DistanceSpacing: 1.2
BeatDivisor: 4
GridSize: 4
TimelineZoom: 2.1

[Metadata]
Title:Last Desire
TitleUnicode:Last Desire
Artist:Maon Kurosaki
ArtistUnicode:黒崎真音
Creator:Electoz
Version:Insane
Source:Rewrite
Tags:electroz anime season 2 key opening full version visual novel リライト
BeatmapID:1629581
BeatmapSetID:772785

[Difficulty]
HPDrainRate:6
CircleSize:4
OverallDifficulty:8
ApproachRate:9
SliderMultiplier:1.6
SliderTickRate:1

[Events]
//Background and Video events
0,0,"bg.jpg",0,0
//Break Periods
2,201179,206049
//Storyboard Layer 0 (Background)
//Storyboard Layer 1 (Fail)
//Storyboard Layer 2 (Pass)
//Storyboard Layer 3 (Foreground)
//Storyboard Sound Samples

[TimingPoints]
885,352.941176470588,4,2,1,60,1,0
2120,-100,4,2,1,60,0,0
5208,-100,4,2,3,60,0,0
6179,-100,4,2,1,60,0,0
17826,-100,4,2,1,40,0,0
19237,-100,4,2,4,40,0,0
27355,-100,4,2,1,40,0,0
28767,-83.3333333333333,4,2,1,40,0,0
29120,-111.111111111111,4,2,1,50,0,0
34414,-83.3333333333333,4,2,1,50,0,0
34767,-111.111111111111,4,2,1,50,0,0
37237,-83.3333333333333,4,2,1,50,0,0
37590,-111.111111111111,4,2,1,50,0,0
40414,-200,4,2,4,40,0,0
43943,-133.333333333333,4,2,4,40,0,0
44561,-133.333333333333,4,2,4,5,0,0
44649,-200,4,2,4,40,0,0
45267,-200,4,2,4,5,0,0
45355,-400,4,2,4,40,0,0
45973,-400,4,2,4,5,0,0
46061,-200,4,2,4,40,0,0
49590,-133.333333333333,4,2,4,40,0,0
50208,-133.333333333333,4,2,4,5,0,0
50296,-200,4,2,4,40,0,0
51708,-125,4,2,1,50,0,0
57355,-100,4,2,1,60,0,0
60708,-100,4,2,2,60,0,0
60796,-100,4,2,1,60,0,0
62826,-90.9090909090909,4,2,1,70,0,1
67061,-90.9090909090909,4,2,2,70,0,1
67149,-90.9090909090909,4,2,1,70,0,1
74120,-83.3333333333333,4,2,1,70,0,1
75532,-83.3333333333333,4,2,2,70,0,1
75620,-83.3333333333333,4,2,1,70,0,1
79061,-133.333333333333,4,2,1,70,0,1
79590,-83.3333333333333,4,2,1,70,0,1
85590,-100,4,2,1,60,0,0
96884,-111.111111111111,4,2,1,50,0,0
107826,-83.3333333333333,4,2,1,50,0,0
108179,-111.111111111111,4,2,1,50,0,0
113473,-83.3333333333333,4,2,1,50,0,0
113826,-111.111111111111,4,2,1,50,0,0
116296,-83.3333333333333,4,2,1,50,0,0
116649,-111.111111111111,4,2,1,50,0,0
119473,-125,4,2,2,45,0,0
130767,-125,4,2,1,45,0,0
136414,-100,4,2,1,60,0,0
141884,-90.9090909090909,4,2,1,70,0,1
153179,-83.3333333333333,4,2,1,70,0,1
158120,-133.333333333333,4,2,1,70,0,1
158649,-83.3333333333333,4,2,1,70,0,1
164649,-100,4,2,1,60,0,0
174532,-100,4,2,2,60,0,0
174620,-100,4,2,1,60,0,0
175590,-83.3333333333333,4,2,1,60,0,0
175943,-100,4,2,1,60,0,0
206649,-111.111111111111,4,2,1,60,0,0
209473,-100,4,2,1,60,0,0
212473,-133.333333333333,4,2,1,60,0,0
213002,-76.9230769230769,4,2,1,70,0,1
217414,-117.647058823529,4,2,1,70,0,1
217943,-76.9230769230769,4,2,1,70,0,1
223943,-100,4,2,1,60,0,0
239296,-83.3333333333333,4,2,1,70,0,0
240884,-83.3333333333333,4,2,1,55,0,0
242296,-83.3333333333333,4,2,1,40,0,0
243708,-83.3333333333333,4,2,1,25,0,0
245120,-83.3333333333333,4,2,1,10,0,0
245826,-83.3333333333333,4,2,1,5,0,0

[Colours]
Combo1 : 255,157,157
Combo2 : 160,254,233
Combo3 : 192,192,192
Combo4 : 183,183,255

[HitObjects]
80,100,2120,5,8,0:0:0:0:
80,100,2208,1,8,0:0:0:0:
80,100,2296,1,8,0:1:0:0:
175,191,2473,1,0,0:0:0:0:
175,191,2826,5,0,0:0:0:0:
206,70,3179,5,0,0:0:0:0:
296,158,3532,5,0,0:0:0:0:
296,158,3884,5,0,0:0:0:0:
327,37,4061,1,0,0:0:0:0:
386,246,4237,2,0,P|413:206|421:162,1,80,0|0,0:0|0:0,0:0:0:0:
414,79,4590,1,0,0:0:0:0:
291,256,4767,1,0,0:0:0:0:
256,192,5120,12,8,6179,0:1:0:0:
352,272,6355,6,0,L|188:257,1,160,12|0,0:3|0:0,0:0:0:0:
89,172,6884,2,0,P|76:209|81:248,1,80,8|0,0:1|0:0,0:0:0:0:
129,349,7237,1,8,0:0:0:0:
192,257,7414,1,4,0:3:0:0:
200,145,7590,1,2,0:3:0:0:
241,358,7767,6,0,P|298:292|293:212,1,160,10|4,0:0|0:3,0:0:0:0:
206,65,8296,2,0,L|199:144,1,80,2|4,0:3|0:3,0:0:0:0:
200,145,8561,1,2,0:3:0:0:
200,145,8649,1,8,0:0:0:0:
78,127,8826,1,8,0:0:0:0:
83,239,9002,1,8,0:1:0:0:
192,257,9179,1,0,0:0:0:0:
316,100,9355,6,0,L|480:115,1,160,12|8,0:0|0:1,0:0:0:0:
401,251,9884,1,4,0:3:0:0:
401,251,9973,1,4,0:3:0:0:
401,251,10061,1,8,0:0:0:0:
192,257,10237,1,4,0:3:0:0:
297,222,10414,1,8,0:1:0:0:
83,239,10590,6,0,P|96:316|164:366,1,160,10|8,0:0|0:0,0:0:0:0:
297,222,11120,1,2,0:3:0:0:
192,257,11296,1,4,0:3:0:0:
192,257,11384,1,4,0:3:0:0:
192,257,11473,2,0,P|186:208|199:168,1,80,8|4,0:0|0:3,0:0:0:0:
428,91,11826,1,8,0:1:0:0:
400,93,11914,1,2,0:3:0:0:
372,95,12002,1,4,0:3:0:0:
344,98,12090,1,2,0:3:0:0:
316,100,12179,6,0,L|152:85,1,160,12|8,0:1|0:1,0:0:0:0:
83,239,12708,1,4,0:3:0:0:
83,239,12796,1,2,0:3:0:0:
83,239,12884,1,8,0:0:0:0:
297,222,13061,1,4,0:3:0:0:
192,257,13237,1,8,0:1:0:0:
402,257,13414,6,0,P|352:320|261:327,1,160,10|8,0:0|0:0,0:0:0:0:
193,178,13943,2,0,P|185:217|191:256,1,80,2|4,0:3|0:3,0:0:0:0:
191,256,14208,1,2,0:3:0:0:
191,256,14296,1,8,0:0:0:0:
297,222,14473,1,4,0:3:0:0:
276,331,14649,1,8,0:1:0:0:
283,109,14826,1,4,0:3:0:0:
283,109,14914,1,4,0:3:0:0:
283,109,15002,6,0,B|341:114|341:114|371:128|371:128|439:134,1,160,12|2,0:0|0:3,0:0:0:0:
297,222,15532,1,4,0:3:0:0:
297,222,15620,1,4,0:3:0:0:
297,222,15708,1,8,0:0:0:0:
83,239,15884,1,4,0:3:0:0:
193,178,16061,1,2,0:3:0:0:
75,336,16237,6,0,P|-1:287|-6:202,1,160,10|8,0:0|0:0,0:0:0:0:
86,114,16767,1,2,0:3:0:0:
83,239,16943,1,8,0:1:0:0:
83,239,17032,1,8,0:1:0:0:
83,239,17120,1,2,0:3:0:0:
193,178,17296,2,0,L|232:181,2,40,8|8|4,0:0|0:0|0:3,0:0:0:0:
173,272,17649,1,2,0:3:0:0:
193,366,17826,5,10,0:0:0:0:
287,346,18179,1,8,0:0:0:0:
381,326,18532,1,8,0:0:0:0:
475,306,18884,1,8,0:0:0:0:
435,118,19237,5,10,0:0:0:0:
344,143,19590,1,8,0:0:0:0:
344,143,19767,1,2,0:0:0:0:
344,143,19943,1,8,0:0:0:0:
247,158,20296,1,10,0:0:0:0:
475,306,20649,5,8,0:0:0:0:
381,326,21001,1,8,0:0:0:0:
287,346,21354,1,8,0:0:0:0:
193,366,21707,1,8,0:0:0:0:
247,158,22060,5,10,0:0:0:0:
344,143,22414,1,8,0:0:0:0:
344,143,22590,1,2,0:0:0:0:
344,143,22767,1,8,0:0:0:0:
435,118,23120,1,10,0:0:0:0:
193,366,23473,5,8,0:0:0:0:
287,346,23826,1,8,0:0:0:0:
381,326,24179,1,8,0:0:0:0:
475,306,24531,1,8,0:0:0:0:
435,118,24884,5,10,0:0:0:0:
341,138,25237,1,8,0:0:0:0:
341,138,25414,1,2,0:0:0:0:
341,138,25590,1,8,0:0:0:0:
247,158,25943,1,10,0:0:0:0:
51,282,26296,5,8,0:0:0:0:
83,192,26649,1,8,0:0:0:0:
115,102,27002,1,8,0:0:0:0:
147,12,27355,2,0,L|59:19,1,80,2|8,0:3|0:0,0:0:0:0:
432,212,28590,1,8,0:0:0:0:
432,212,28679,1,8,0:0:0:0:
432,212,28767,6,0,P|404:264|404:208,1,143.999995605469,2|0,0:3|0:0,0:0:0:0:
432,212,29120,6,0,L|288:224,1,143.999995605469,12|2,0:0|0:3,0:0:0:0:
204,274,29649,2,0,P|192:227|197:191,1,71.9999978027344,4|8,0:3|0:0,0:0:0:0:
257,132,30002,1,4,0:3:0:0:
163,113,30179,1,2,0:3:0:0:
288,223,30355,6,0,P|341:179|349:101,1,143.999995605469,8|4,0:0|0:3,0:0:0:0:
282,39,30884,1,2,0:3:0:0:
257,132,31061,2,0,L|168:124,1,71.9999978027344,4|8,0:3|0:0,0:0:0:0:
90,120,31414,1,4,0:3:0:0:
47,36,31590,1,2,0:3:0:0:
133,36,31767,1,0,0:0:0:0:
141,208,31943,6,0,L|213:215,2,71.9999978027344,8|4|2,0:0|0:3|0:3,0:0:0:0:
40,209,32473,1,4,0:3:0:0:
40,209,32649,1,8,0:0:0:0:
83,293,32825,1,4,0:3:0:0:
141,208,33002,1,2,0:3:0:0:
126,377,33179,6,0,L|282:363,1,143.999995605469,8|8,0:0|0:0,0:0:0:0:
360,384,33708,2,0,P|360:349|350:315,1,71.9999978027344,2|2,0:3|0:3,0:0:0:0:
349,313,33973,1,2,0:3:0:0:
349,313,34061,1,8,0:0:0:0:
264,266,34237,1,4,0:3:0:0:
431,208,34414,6,0,P|406:157|391:211,1,143.999995605469,2|0,0:3|0:0,0:0:0:0:
392,212,34767,6,0,L|406:56,1,143.999995605469,12|2,0:0|0:3,0:0:0:0:
307,83,35296,1,4,0:3:0:0:
307,83,35384,1,4,0:3:0:0:
307,83,35473,1,8,0:0:0:0:
233,164,35649,1,8,0:0:0:0:
199,59,35826,1,2,0:3:0:0:
180,261,36002,6,0,P|132:211|126:140,1,143.999995605469,8|8,0:0|0:0,0:0:0:0:
199,59,36532,2,0,P|158:36|116:34,1,71.9999978027344,2|4,0:3|0:3,0:0:0:0:
133,32,36796,1,2,0:3:0:0:
133,32,36884,1,8,0:0:0:0:
37,80,37061,1,0,0:0:0:0:
233,163,37237,6,0,P|285:144|259:194,1,143.999995605469,2|0,0:3|0:0,0:0:0:0:
233,164,37590,6,0,L|149:156,2,71.9999978027344,8|4|2,0:0|0:3|0:3,0:0:0:0:
180,261,38120,1,4,0:3:0:0:
180,261,38296,1,8,0:0:0:0:
81,225,38473,1,4,0:3:0:0:
161,157,38650,1,2,0:3:0:0:
100,329,38826,5,12,0:3:0:0:
100,329,39179,1,4,0:3:0:0:
199,365,39355,1,2,0:3:0:0:
81,225,39532,1,8,0:0:0:0:
81,225,39884,5,2,0:3:0:0:
100,329,40061,1,4,0:3:0:0:
180,261,40237,1,4,0:3:0:0:
161,157,40414,6,0,B|211:151|248:182|248:182|300:131|392:157,1,240,12|0,0:0|0:0,0:0:0:0:
438,92,41826,1,0,0:0:0:0:
465,169,42179,1,0,0:0:0:0:
412,231,42532,1,0,0:0:0:0:
465,169,42884,1,0,0:0:0:0:
465,293,43237,1,4,0:0:0:0:
465,293,43943,6,0,L|253:311,1,210.000008010865,0|0,0:0|0:0,0:0:0:0:
255,311,44649,6,0,L|111:323,1,140,0|0,0:0|0:0,0:0:0:0:
115,323,45355,6,0,L|39:329,1,70,0|0,0:0|0:0,0:0:0:0:
45,328,46061,6,0,B|21:243|72:191|72:191|41:154|47:104,1,240,12|0,0:0|0:0,0:0:0:0:
114,23,47473,1,0,0:0:0:0:
151,123,47826,1,0,0:0:0:0:
220,41,48179,1,0,0:0:0:0:
257,141,48532,1,0,0:0:0:0:
114,23,48884,1,4,0:0:0:0:
114,23,49590,6,0,L|325:41,1,210.000008010865,0|0,0:0|0:0,0:0:0:0:
323,41,50296,6,0,L|370:36,1,40,2|2,0:0|0:0,0:0:0:0:
363,134,50649,2,0,L|410:129,1,40,2|2,0:0|0:0,0:0:0:0:
343,308,51179,2,0,L|360:352,2,40,2|2|2,0:0|0:0|0:0,0:0:0:0:
303,216,51708,5,8,0:0:0:0:
261,123,52061,1,8,0:0:0:0:
363,134,52414,1,8,0:0:0:0:
303,216,52767,2,0,P|305:250|320:284,1,64,8|0,0:0|0:0,0:0:0:0:
303,216,53120,2,0,L|175:227,1,128,8|8,0:0|0:0,0:0:0:0:
133,320,53826,2,0,P|85:272|81:196,1,128,8|8,0:0|0:0,0:0:0:0:
137,135,54532,5,8,0:0:0:0:
39,122,54884,1,8,0:0:0:0:
137,135,55237,2,0,L|265:124,1,128,8|8,0:0|0:0,0:0:0:0:
307,31,55943,2,0,P|355:79|359:155,1,128,8|8,0:0|0:0,0:0:0:0:
303,216,56649,5,8,0:0:0:0:
264,124,56826,1,4,0:3:0:0:
403,228,57002,1,2,0:3:0:0:
403,228,57355,6,0,B|304:216|304:216|239:223,1,160,12|8,0:3|0:0,0:0:0:0:
145,231,57884,2,0,B|116:232|116:232|56:227,1,80,4|8,0:3|0:0,0:0:0:0:
111,134,58237,1,4,0:3:0:0:
208,132,58414,1,8,0:0:0:0:
158,49,58590,1,4,0:3:0:0:
243,222,58767,6,0,P|278:198|301:157,1,80,8|4,0:0|0:3,0:0:0:0:
282,72,59120,1,8,0:0:0:0:
145,231,59296,2,0,P|157:273|186:303,1,80,4|8,0:3|0:0,0:0:0:0:
279,316,59649,1,4,0:3:0:0:
378,333,59826,1,2,0:3:0:0:
412,238,60002,1,4,0:3:0:0:
179,298,60179,6,0,P|143:230|167:156,1,160,10|8,0:3|0:0,0:0:0:0:
322,215,60708,2,0,L|242:221,1,80,10|4,0:3|0:3,0:0:0:0:
167,155,61061,1,8,0:0:0:0:
186,59,61237,1,2,0:3:0:0:
279,316,61414,6,0,L|438:302,1,160,12|2,0:0|0:3,0:0:0:0:
242,220,61943,1,10,0:0:0:0:
242,220,62296,5,4,0:3:0:0:
186,59,62473,1,12,0:1:0:0:
186,59,62826,6,0,B|273:48|273:48|362:62,1,176.000005371094,12|4,0:3|0:3,0:0:0:0:
298,227,63355,2,0,P|292:183|301:141,1,88.000002685547,8|4,0:1|0:3,0:0:0:0:
300,141,63620,1,2,0:3:0:0:
300,141,63708,1,8,0:0:0:0:
410,164,63884,1,4,0:3:0:0:
474,69,64062,1,2,0:3:0:0:
450,285,64237,6,0,P|364:282|298:227,1,176.000005371094,10|4,0:0|0:3,0:0:0:0:
107,281,64767,2,0,P|151:287|193:278,1,88.000002685547,8|4,0:1|0:3,0:0:0:0:
194,278,65032,1,2,0:3:0:0:
194,278,65120,1,8,0:0:0:0:
200,162,65296,1,4,0:3:0:0:
308,48,65473,1,2,0:3:0:0:
278,50,65561,1,0,0:0:0:0:
247,53,65649,1,4,0:3:0:0:
216,56,65737,1,0,0:0:0:0:
186,59,65826,6,0,P|105:119|100:192,1,176.000005371094,12|8,0:0|0:1,0:0:0:0:
200,162,66355,1,4,0:3:0:0:
200,162,66443,1,2,0:3:0:0:
200,162,66532,1,8,0:0:0:0:
297,226,66708,1,4,0:3:0:0:
194,278,66884,1,2,0:3:0:0:
186,59,67061,6,0,L|361:43,1,176.000005371094,12|4,0:3|0:3,0:0:0:0:
472,34,67590,1,8,0:1:0:0:
400,174,67767,1,8,0:0:0:0:
400,174,68120,5,2,0:3:0:0:
409,203,68208,1,8,0:0:0:0:
411,233,68296,1,8,0:1:0:0:
374,341,68472,1,8,0:0:0:0:
194,278,68649,6,0,L|98:269,1,88.000002685547,10|4,0:0|0:3,0:0:0:0:
200,162,69002,2,0,L|104:153,1,88.000002685547,8|4,0:1|0:3,0:0:0:0:
106,270,69355,6,0,L|194:278,1,88.000002685547,8|4,0:0|0:3,0:0:0:0:
112,154,69708,2,0,L|200:162,1,88.000002685547,8|4,0:1|0:3,0:0:0:0:
291,342,70061,5,8,0:0:0:0:
291,342,70237,1,4,0:3:0:0:
297,226,70414,1,8,0:1:0:0:
297,226,70590,1,4,0:3:0:0:
493,226,70767,1,8,0:0:0:0:
395,290,70943,1,4,0:3:0:0:
199,161,71120,5,2,0:3:0:0:
190,132,71208,1,0,0:0:0:0:
188,102,71296,1,0,0:0:0:0:
194,72,71384,1,0,0:0:0:0:
207,44,71473,6,0,L|298:52,1,88.000002685547,10|4,0:3|0:3,0:0:0:0:
407,62,71826,1,4,0:3:0:0:
297,226,72002,2,0,L|306:134,1,88.000002685547,10|8,0:1|0:0,0:0:0:0:
414,174,72355,1,4,0:3:0:0:
407,62,72532,1,2,0:3:0:0:
401,302,72708,6,0,P|366:336|325:350,1,88.000002685547,10|0,0:0|0:0,0:0:0:0:
217,351,73061,1,4,0:3:0:0:
188,341,73149,1,4,0:3:0:0:
162,325,73237,1,4,0:3:0:0:
368,178,73414,2,0,P|327:194|297:226,1,88.000002685547,12|0,0:0|0:0,0:0:0:0:
199,161,73767,2,0,L|164:132,2,44.0000013427735,8|8|2,0:1|0:1|0:3,0:0:0:0:
401,302,74120,6,0,P|488:217|491:149,1,191.999994140625,12|8,0:0|0:0,0:0:0:0:
313,103,74649,2,0,P|331:146|367:177,1,95.9999970703126,8|2,0:1|0:3,0:0:0:0:
367,177,74914,1,2,0:3:0:0:
367,177,75002,1,4,0:3:0:0:
422,80,75179,1,4,0:3:0:0:
491,152,75355,1,2,0:3:0:0:
296,264,75532,6,0,P|224:182|211:103,1,191.999994140625,12|4,0:3|0:3,0:0:0:0:
354,8,76061,2,0,P|307:0|262:13,1,95.9999970703126,8|4,0:1|0:3,0:0:0:0:
262,13,76326,1,2,0:3:0:0:
262,13,76414,1,8,0:0:0:0:
313,103,76590,1,8,0:0:0:0:
109,101,76768,1,2,0:3:0:0:
100,130,76856,1,0,0:0:0:0:
98,160,76944,1,4,0:3:0:0:
104,190,77032,1,4,0:3:0:0:
117,218,77120,6,0,L|312:200,1,191.999994140625,12|8,0:0|0:1,0:0:0:0:
435,197,77649,1,4,0:3:0:0:
435,197,77737,1,2,0:3:0:0:
435,197,77826,1,8,0:0:0:0:
368,88,78002,1,4,0:3:0:0:
495,84,78179,1,2,0:3:0:0:
307,199,78355,6,0,P|255:148|247:123,1,95.9999970703126,12|0,0:0|0:0,0:0:0:0:
372,308,78708,1,2,0:3:0:0:
398,287,78796,1,2,0:3:0:0:
418,261,78884,1,2,0:3:0:0:
430,229,78972,1,2,0:3:0:0:
435,196,79060,1,8,0:0:0:0:
435,196,79414,5,8,0:0:0:0:
245,311,79590,1,2,0:3:0:0:
245,311,79679,1,2,0:3:0:0:
245,311,79767,1,2,0:3:0:0:
245,311,79855,1,2,0:3:0:0:
245,311,79943,6,0,L|141:301,1,95.9999970703126,10|4,0:0|0:3,0:0:0:0:
40,292,80296,1,8,0:0:0:0:
40,292,80473,1,4,0:3:0:0:
254,202,80649,5,8,0:0:0:0:
254,202,80826,1,4,0:3:0:0:
49,183,81002,1,8,0:0:0:0:
49,183,81178,1,4,0:3:0:0:
257,91,81355,5,8,0:0:0:0:
257,91,81531,1,4,0:3:0:0:
58,74,81708,2,0,L|10:69,2,47.9999985351563,8|4|4,0:0|0:3|0:3,0:0:0:0:
253,201,82061,6,0,L|301:204,2,47.9999985351563,8|4|4,0:0|0:3|0:3,0:0:0:0:
245,311,82414,2,0,L|141:301,1,95.9999970703126,2|4,0:3|0:3,0:0:0:0:
58,74,82767,5,8,0:1:0:0:
256,90,82943,1,8,0:0:0:0:
256,90,83120,1,4,0:3:0:0:
49,183,83296,5,8,0:1:0:0:
256,90,83473,1,8,0:0:0:0:
256,90,83650,1,4,0:3:0:0:
40,292,83826,5,8,0:1:0:0:
256,90,84002,1,12,0:3:0:0:
256,192,84090,12,4,85237,0:3:0:0:
96,206,85590,6,0,L|255:191,1,160,12|8,0:3|0:1,0:0:0:0:
359,106,86120,2,0,L|406:101,2,40,4|4|8,0:3|0:3|0:0,0:0:0:0:
364,219,86473,1,4,0:3:0:0:
364,219,86561,1,4,0:3:0:0:
364,219,86649,1,2,0:3:0:0:
250,79,86826,6,0,P|167:124|146:198,1,160,10|4,0:0|0:3,0:0:0:0:
161,357,87355,2,0,L|155:278,1,80,2|4,0:3|0:3,0:0:0:0:
155,277,87620,1,2,0:3:0:0:
155,277,87708,1,8,0:0:0:0:
255,190,87884,1,8,0:0:0:0:
145,181,88061,1,8,0:1:0:0:
207,90,88237,1,4,0:3:0:0:
303,290,88414,6,0,L|466:275,1,160,12|8,0:0|0:1,0:0:0:0:
366,198,88943,1,4,0:3:0:0:
207,90,89120,1,2,0:3:0:0:
207,122,89209,1,2,0:3:0:0:
217,148,89297,1,4,0:3:0:0:
233,171,89385,1,4,0:3:0:0:
255,190,89473,1,4,0:3:0:0:
462,275,89649,6,0,P|489:192|462:121,1,160,10|8,0:0|0:0,0:0:0:0:
283,111,90179,2,0,P|315:87|354:77,1,80,2|4,0:3|0:3,0:0:0:0:
353,77,90443,1,4,0:3:0:0:
353,77,90532,1,2,0:3:0:0:
366,198,90708,2,0,L|413:193,2,40,4|0|8,0:3|0:0|0:1,0:0:0:0:
162,108,91061,1,4,0:3:0:0:
162,108,91149,1,2,0:3:0:0:
162,108,91237,6,0,L|-1:93,1,160,12|8,0:1|0:1,0:0:0:0:
153,221,91767,1,4,0:3:0:0:
153,221,91855,1,2,0:3:0:0:
153,221,91943,1,8,0:0:0:0:
366,198,92120,1,4,0:3:0:0:
465,126,92296,1,8,0:1:0:0:
332,313,92473,6,0,P|410:310|471:253,1,160,10|8,0:0|0:0,0:0:0:0:
385,119,93002,1,2,0:3:0:0:
385,119,93178,1,4,0:3:0:0:
272,207,93355,1,8,0:0:0:0:
272,207,93532,1,4,0:3:0:0:
211,312,93708,1,8,0:1:0:0:
332,313,93884,1,4,0:3:0:0:
90,311,94061,6,0,B|95:253|95:253|109:223|109:223|115:155,1,160,12|2,0:0|0:3,0:0:0:0:
272,207,94590,1,4,0:3:0:0:
272,207,94679,1,4,0:3:0:0:
272,207,94767,1,2,0:3:0:0:
129,43,94943,1,4,0:3:0:0:
29,93,95120,1,2,0:3:0:0:
236,73,95296,6,0,P|191:137|115:154,1,160,10|8,0:0|0:0,0:0:0:0:
90,311,95826,1,2,0:3:0:0:
24,220,96002,1,4,0:3:0:0:
211,312,96179,1,2,0:3:0:0:
230,310,96267,1,8,0:0:0:0:
250,308,96355,1,4,0:3:0:0:
270,306,96443,1,8,0:0:0:0:
290,305,96531,1,8,0:1:0:0:
272,207,96708,1,2,0:3:0:0:
468,257,96884,6,0,L|474:185,1,71.9999978027344,10|0,0:0|0:0,0:0:0:0:
370,232,97237,2,0,L|376:160,1,71.9999978027344,8|0,0:0|0:0,0:0:0:0:
272,207,97590,2,0,L|278:135,1,71.9999978027344,8|0,0:0|0:0,0:0:0:0:
174,182,97943,1,8,0:0:0:0:
299,304,98120,2,0,L|291:343,1,35.9999989013672,4|4,0:3|0:3,0:0:0:0:
299,304,98296,6,0,L|371:310,1,71.9999978027344,8|0,0:0|0:0,0:0:0:0:
272,207,98649,1,8,0:0:0:0:
272,207,98827,2,0,L|344:213,1,71.9999978027344,4|8,0:3|0:0,0:0:0:0:
345,112,99179,1,8,0:0:0:0:
297,23,99355,1,8,0:0:0:0:
244,109,99532,1,0,0:0:0:0:
104,109,99708,6,0,P|77:153|74:194,1,71.9999978027344,10|0,0:0|0:0,0:0:0:0:
174,182,100061,2,0,P|164:216|143:245,1,71.9999978027344,8|0,0:0|0:0,0:0:0:0:
45,270,100414,2,0,P|54:304|75:333,1,71.9999978027344,8|0,0:0|0:0,0:0:0:0:
184,347,100767,2,0,L|263:340,1,71.9999978027344,8|2,0:0|0:3,0:0:0:0:
255,340,101032,1,2,0:3:0:0:
255,340,101120,5,2,0:3:0:0:
297,238,101296,1,4,0:3:0:0:
351,317,101473,1,8,0:0:0:0:
393,215,101649,1,2,0:3:0:0:
447,294,101826,1,8,0:0:0:0:
489,192,102002,2,0,P|469:150|441:124,2,71.9999978027344,4|8|4,0:3|0:0|0:3,0:0:0:0:
351,317,102532,6,0,L|279:311,1,71.9999978027344,10|0,0:0|0:0,0:0:0:0:
225,232,102885,2,0,L|297:238,1,71.9999978027344,8|0,0:0|0:0,0:0:0:0:
203,305,103238,2,0,L|131:299,1,71.9999978027344,8|0,0:0|0:0,0:0:0:0:
77,220,103590,1,8,0:0:0:0:
247,159,103767,2,0,L|286:159,1,35.9999989013672,4|4,0:3|0:3,0:0:0:0:
247,159,103943,6,0,L|253:87,1,71.9999978027344,8|4,0:0|0:3,0:0:0:0:
162,189,104296,2,0,L|168:117,1,71.9999978027344,8|4,0:0|0:3,0:0:0:0:
336,56,104649,2,0,L|348:203,1,143.999995605469,8|2,0:0|0:3,0:0:0:0:
162,189,105355,5,2,0:3:0:0:
225,232,105531,1,2,0:3:0:0:
347,199,105708,1,2,0:3:0:0:
162,189,106237,5,2,0:3:0:0:
203,305,106413,1,2,0:3:0:0:
347,199,106590,1,8,0:0:0:0:
132,104,107473,5,4,0:3:0:0:
132,104,107826,2,0,P|124:152|88:96,1,143.999995605469,2|0,0:3|0:0,0:0:0:0:
132,104,108179,6,0,L|276:116,1,143.999995605469,12|2,0:0|0:3,0:0:0:0:
360,165,108708,2,0,P|370:131|370:96,1,71.9999978027344,4|8,0:3|0:0,0:0:0:0:
307,24,109061,1,4,0:3:0:0:
401,6,109237,1,2,0:3:0:0:
275,115,109414,6,0,P|265:150|270:196,2,71.9999978027344,8|0|4,0:0|0:0|0:3,0:0:0:0:
307,24,109943,1,2,0:3:0:0:
369,94,110120,2,0,L|447:100,1,71.9999978027344,4|8,0:3|0:0,0:0:0:0:
502,170,110473,1,4,0:3:0:0:
411,188,110649,1,2,0:3:0:0:
473,258,110826,1,0,0:0:0:0:
440,99,111002,6,0,P|397:96|356:113,2,71.9999978027344,8|4|2,0:0|0:3|0:3,0:0:0:0:
411,188,111532,1,4,0:3:0:0:
411,188,111708,1,8,0:0:0:0:
473,258,111884,1,4,0:3:0:0:
502,170,112061,1,2,0:3:0:0:
381,276,112238,6,0,L|225:262,1,143.999995605469,8|8,0:0|0:0,0:0:0:0:
157,212,112767,2,0,P|147:247|147:283,1,71.9999978027344,2|2,0:3|0:3,0:0:0:0:
146,282,113032,1,2,0:3:0:0:
146,282,113120,1,8,0:0:0:0:
207,351,113296,1,4,0:3:0:0:
241,168,113473,6,0,P|266:118|282:172,1,143.999995605469,2|0,0:3|0:0,0:0:0:0:
241,168,113826,6,0,P|188:120|109:128,1,143.999995605469,12|2,0:0|0:3,0:0:0:0:
65,200,114355,1,4,0:3:0:0:
65,200,114443,1,4,0:3:0:0:
65,200,114532,1,8,0:0:0:0:
119,122,114708,1,8,0:0:0:0:
24,114,114884,1,2,0:3:0:0:
157,212,115061,6,0,P|208:259|278:257,1,143.999995605469,8|8,0:0|0:0,0:0:0:0:
374,270,115590,2,0,P|365:215|345:184,1,71.9999978027344,2|4,0:3|0:3,0:0:0:0:
357,201,115855,1,2,0:3:0:0:
357,201,115943,1,8,0:0:0:0:
438,143,116120,1,0,0:0:0:0:
278,257,116296,6,0,P|261:311|237:260,1,143.999995605469,2|0,0:3|0:0,0:0:0:0:
278,257,116649,6,0,L|122:271,1,143.999995605469,8|2,0:0|0:3,0:0:0:0:
39,283,117179,1,4,0:3:0:0:
75,194,117355,1,8,0:0:0:0:
16,119,117532,1,4,0:3:0:0:
75,194,117708,1,2,0:3:0:0:
241,168,117884,5,12,0:3:0:0:
241,168,118237,1,4,0:3:0:0:
277,80,118414,1,2,0:3:0:0:
278,257,118590,1,8,0:0:0:0:
278,257,118943,5,2,0:3:0:0:
241,168,119119,1,4,0:3:0:0:
279,80,119296,1,4,0:3:0:0:
371,67,119473,6,0,B|435:58|426:93|497:71,2,128,8|2|2,0:0|0:0|0:0,0:0:0:0:
279,80,120532,6,0,L|198:72,1,64,2|8,0:0|0:0,0:0:0:0:
177,162,120884,2,0,L|240:167,1,64,2|0,0:0|0:0,0:0:0:0:
342,86,121237,2,0,L|261:78,1,64,2|0,0:0|0:0,0:0:0:0:
240,167,121590,2,0,L|303:172,1,64,2|8,0:0|0:0,0:0:0:0:
405,92,121943,2,0,L|324:84,1,64,2|8,0:0|0:0,0:0:0:0:
303,172,122296,2,0,L|438:183,1,128,2|2,0:0|0:0,0:0:0:0:
430,182,123002,6,0,P|434:218|430:248,1,64,2|8,0:0|0:0,0:0:0:0:
303,235,123355,2,0,P|299:199|303:169,1,64,2|8,0:0|0:0,0:0:0:0:
405,92,123708,2,0,L|277:81,1,128,2|2,0:0|0:0,0:0:0:0:
277,81,124414,6,0,L|196:73,1,64,2|8,0:0|0:0,0:0:0:0:
110,152,124767,2,0,L|173:158,1,64,2|8,0:0|0:0,0:0:0:0:
302,171,125120,6,0,B|311:235|276:226|298:297,2,128,6|2|2,0:0|0:0|0:0,0:0:0:0:
278,79,126179,6,0,L|341:85,1,64,2|8,0:0|0:0,0:0:0:0:
365,176,126531,2,0,L|302:171,1,64,2|0,0:0|0:0,0:0:0:0:
214,72,126884,2,0,L|277:78,1,64,2|0,0:0|0:0,0:0:0:0:
301,170,127237,2,0,L|238:165,1,64,2|8,0:0|0:0,0:0:0:0:
150,65,127590,6,0,L|213:71,1,64,2|8,0:0|0:0,0:0:0:0:
109,153,127943,1,2,0:0:0:0:
109,153,128296,5,2,0:0:0:0:
150,65,128649,1,2,0:0:0:0:
55,46,129002,1,2,0:0:0:0:
55,46,129355,5,2,0:0:0:0:
150,65,129531,1,2,0:0:0:0:
109,153,129708,1,2,0:3:0:0:
237,164,129884,1,2,0:0:0:0:
237,164,130237,2,0,L|276:167,2,32,10|8|2,0:0|0:0|0:3,0:0:0:0:
277,78,130590,1,8,0:0:0:0:
197,250,130767,5,12,0:0:0:0:
197,250,131120,1,0,0:0:0:0:
237,164,131296,1,4,0:3:0:0:
277,78,131472,1,2,0:3:0:0:
277,78,131826,2,0,L|348:84,1,64,8|0,0:0|0:0,0:0:0:0:
436,91,132179,1,4,0:3:0:0:
436,91,132355,1,2,0:3:0:0:
381,170,132532,5,0,0:0:0:0:
381,170,132708,1,4,0:3:0:0:
477,179,132885,2,0,L|471:250,1,64,2|0,0:3|0:0,0:0:0:0:
464,338,133238,1,4,0:3:0:0:
464,338,133414,1,0,0:0:0:0:
384,283,133590,6,0,P|317:263|275:207,1,128,8|0,0:0|0:0,0:0:0:0:
436,91,134296,2,0,P|361:75|304:111,1,128,2|4,0:3|0:3,0:0:0:0:
191,125,135002,6,0,L|127:119,2,64,4|2|0,0:3|0:3|0:0,0:0:0:0:
30,112,135532,1,4,0:3:0:0:
184,211,135708,2,0,L|283:219,2,96,2|2|2,0:3|0:3|0:3,0:0:0:0:
72,199,136414,6,0,P|96:279|156:321,1,160,12|8,0:3|0:0,0:0:0:0:
251,342,136943,2,0,B|292:348|292:348|330:345,1,80,4|8,0:3|0:0,0:0:0:0:
368,256,137296,1,4,0:3:0:0:
355,160,137473,1,8,0:0:0:0:
279,219,137649,1,4,0:3:0:0:
431,101,137826,6,0,P|390:69|345:64,1,80,8|4,0:0|0:3,0:0:0:0:
274,104,138179,1,8,0:0:0:0:
444,196,138355,2,0,P|463:245|460:282,1,80,4|8,0:3|0:0,0:0:0:0:
368,256,138708,1,4,0:3:0:0:
355,160,138884,1,2,0:3:0:0:
274,104,139061,1,4,0:3:0:0:
330,344,139237,6,0,L|170:330,1,160,10|8,0:3|0:0,0:0:0:0:
86,177,139767,2,0,P|100:215|128:243,1,80,10|4,0:3|0:3,0:0:0:0:
225,251,140120,1,8,0:0:0:0:
183,164,140296,1,2,0:3:0:0:
426,333,140473,6,0,L|440:174,1,160,12|2,0:0|0:3,0:0:0:0:
330,344,141002,1,10,0:0:0:0:
330,344,141355,5,4,0:3:0:0:
170,330,141532,1,12,0:1:0:0:
170,330,141885,6,0,B|159:243|159:243|173:154,1,176.000005371094,12|4,0:3|0:3,0:0:0:0:
278,19,142414,2,0,P|284:63|275:105,1,88.000002685547,8|4,0:1|0:3,0:0:0:0:
275,106,142679,1,2,0:3:0:0:
275,106,142767,1,8,0:0:0:0:
181,41,142943,1,4,0:3:0:0:
77,90,143120,1,2,0:3:0:0:
263,200,143296,6,0,L|438:184,1,176.000005371094,10|4,0:0|0:3,0:0:0:0:
429,363,143826,2,0,P|435:319|426:277,1,88.000002685547,8|4,0:1|0:3,0:0:0:0:
426,276,144091,1,2,0:3:0:0:
426,276,144179,1,8,0:0:0:0:
438,183,144355,1,4,0:3:0:0:
271,80,144531,1,2,0:3:0:0:
278,110,144619,1,0,0:0:0:0:
279,141,144707,1,4,0:3:0:0:
274,171,144795,1,0,0:0:0:0:
263,200,144884,6,0,L|88:216,1,176.000005371094,12|8,0:0|0:1,0:0:0:0:
13,133,145414,1,4,0:3:0:0:
13,133,145502,1,2,0:3:0:0:
13,133,145590,1,8,0:0:0:0:
122,111,145767,1,4,0:3:0:0:
87,216,145943,1,2,0:3:0:0:
204,36,146120,6,0,P|128:-1|48:28,1,176.000005371094,12|4,0:3|0:3,0:0:0:0:
13,133,146649,1,8,0:1:0:0:
196,194,146826,1,8,0:0:0:0:
87,216,147002,1,4,0:3:0:0:
87,216,147090,1,2,0:3:0:0:
87,216,147179,5,4,0:3:0:0:
96,245,147267,1,4,0:3:0:0:
113,270,147355,1,8,0:1:0:0:
196,194,147531,1,8,0:0:0:0:
339,323,147708,6,0,L|331:226,1,88.000002685547,10|4,0:0|0:3,0:0:0:0:
454,308,148061,2,0,L|446:211,1,88.000002685547,8|4,0:1|0:3,0:0:0:0:
331,234,148414,6,0,L|338:322,1,88.000002685547,8|4,0:0|0:3,0:0:0:0:
446,220,148767,2,0,L|453:308,1,88.000002685547,8|4,0:1|0:3,0:0:0:0:
377,128,149120,5,8,0:0:0:0:
377,128,149296,1,4,0:3:0:0:
262,142,149473,1,8,0:1:0:0:
262,142,149649,1,4,0:3:0:0:
446,220,149826,1,8,0:0:0:0:
331,234,150002,1,4,0:3:0:0:
87,216,150179,5,2,0:3:0:0:
117,218,150267,1,0,0:0:0:0:
148,221,150355,1,0,0:0:0:0:
179,224,150443,1,0,0:0:0:0:
209,226,150532,6,0,P|213:270|234:311,1,88.000002685547,10|4,0:3|0:3,0:0:0:0:
331,234,150884,1,4,0:3:0:0:
238,59,151061,2,0,P|241:102|261:141,1,88.000002685547,10|8,0:1|0:0,0:0:0:0:
331,234,151414,1,4,0:3:0:0:
377,128,151590,1,2,0:3:0:0:
231,303,151767,6,0,L|135:294,1,88.000002685547,10|0,0:0|0:0,0:0:0:0:
35,297,152120,1,4,0:3:0:0:
26,326,152208,1,4,0:3:0:0:
24,356,152296,1,4,0:3:0:0:
79,114,152473,2,0,L|86:201,1,88.000002685547,12|0,0:0|0:0,0:0:0:0:
143,294,152826,2,0,L|125:343,2,44.0000013427735,8|8|2,0:1|0:1|0:3,0:0:0:0:
238,58,153179,6,0,P|206:146|251:228,1,191.999994140625,12|8,0:0|0:0,0:0:0:0:
409,149,153708,2,0,P|365:131|318:135,1,95.9999970703126,8|2,0:1|0:3,0:0:0:0:
317,135,153973,1,2,0:3:0:0:
319,136,154061,1,4,0:3:0:0:
342,27,154237,1,4,0:3:0:0:
238,59,154414,1,2,0:3:0:0:
363,237,154590,6,0,P|299:329|226:337,1,191.999994140625,12|4,0:3|0:3,0:0:0:0:
32,326,155120,2,0,L|139:335,1,95.9999970703126,8|4,0:1|0:3,0:0:0:0:
127,334,155385,1,2,0:3:0:0:
127,334,155473,1,8,0:0:0:0:
141,225,155649,1,8,0:0:0:0:
238,59,155826,1,2,0:3:0:0:
223,85,155914,1,0,0:0:0:0:
218,115,156002,1,4,0:3:0:0:
221,146,156090,1,4,0:3:0:0:
232,174,156179,6,0,L|423:157,1,191.999994140625,12|8,0:0|0:1,0:0:0:0:
452,48,156708,1,4,0:3:0:0:
452,48,156796,1,2,0:3:0:0:
452,48,156884,1,8,0:0:0:0:
340,49,157061,1,4,0:3:0:0:
423,156,157237,1,2,0:3:0:0:
237,59,157414,6,0,P|186:67|144:100,1,95.9999970703126,12|0,0:0|0:0,0:0:0:0:
114,320,157767,1,2,0:3:0:0:
129,294,157855,1,2,0:3:0:0:
134,264,157943,1,2,0:3:0:0:
131,233,158031,1,2,0:3:0:0:
120,205,158120,1,8,0:0:0:0:
120,205,158473,5,8,0:0:0:0:
356,273,158649,1,2,0:3:0:0:
356,273,158738,1,2,0:3:0:0:
356,273,158826,1,2,0:3:0:0:
356,273,158914,1,2,0:3:0:0:
356,273,159002,6,0,L|451:263,1,95.9999970703126,10|4,0:0|0:3,0:0:0:0:
423,156,159355,1,8,0:0:0:0:
423,156,159532,1,4,0:3:0:0:
288,21,159708,5,8,0:0:0:0:
288,21,159884,1,4,0:3:0:0:
423,156,160061,1,8,0:0:0:0:
423,156,160237,1,4,0:3:0:0:
181,49,160414,5,8,0:0:0:0:
181,49,160590,1,4,0:3:0:0:
304,160,160767,2,0,L|347:189,2,47.9999985351563,8|4|4,0:0|0:3|0:3,0:0:0:0:
74,77,161120,6,0,L|41:43,2,47.9999985351563,8|4|4,0:0|0:3|0:3,0:0:0:0:
197,188,161473,2,0,L|101:197,1,95.9999970703126,2|4,0:3|0:3,0:0:0:0:
288,21,161826,5,8,0:1:0:0:
343,186,162002,1,8,0:0:0:0:
343,186,162179,1,4,0:3:0:0:
288,21,162355,5,8,0:1:0:0:
450,158,162532,1,8,0:0:0:0:
343,186,162708,1,4,0:3:0:0:
288,21,162884,5,8,0:1:0:0:
314,293,163061,1,12,0:3:0:0:
256,192,163149,12,4,164296,0:3:0:0:
124,136,164649,5,2,0:3:0:0:
126,124,164737,1,2,0:3:0:0:
127,112,164825,1,2,0:3:0:0:
128,100,164913,1,2,0:3:0:0:
129,88,165002,2,0,L|288:101,1,160,2|8,0:3|0:0,0:0:0:0:
288,101,165532,2,0,P|278:145|283:182,1,80,2|0,0:3|0:0,0:0:0:0:
287,257,165885,2,0,P|291:217|282:179,1,80,10|0,0:0|0:0,0:0:0:0:
268,352,166237,5,4,0:3:0:0:
268,352,166414,1,2,0:3:0:0:
268,352,166590,2,0,L|351:344,2,80,8|2|4,0:0|0:3|0:3,0:0:0:0:
196,289,167120,5,2,0:3:0:0:
196,289,167296,1,8,0:0:0:0:
124,136,167473,5,2,0:3:0:0:
126,124,167561,1,2,0:3:0:0:
127,112,167649,1,2,0:3:0:0:
128,100,167737,1,2,0:3:0:0:
129,88,167826,2,0,L|288:101,1,160,2|8,0:3|0:0,0:0:0:0:
288,101,168355,2,0,P|298:145|293:182,1,80,2|0,0:3|0:0,0:0:0:0:
288,257,168708,2,0,P|284:217|294:179,1,80,10|0,0:0|0:0,0:0:0:0:
268,352,169061,5,4,0:3:0:0:
268,352,169237,1,2,0:3:0:0:
268,352,169414,2,0,L|351:359,2,80,4|8|4,0:3|0:0|0:3,0:0:0:0:
196,289,169943,5,2,0:3:0:0:
196,289,170119,1,4,0:3:0:0:
124,136,170296,5,2,0:3:0:0:
126,124,170384,1,2,0:3:0:0:
127,112,170472,1,2,0:3:0:0:
128,100,170560,1,2,0:3:0:0:
129,88,170649,2,0,L|288:101,1,160,2|8,0:3|0:0,0:0:0:0:
287,257,171179,2,0,P|291:217|282:179,1,80,2|0,0:3|0:0,0:0:0:0:
281,178,171532,2,0,P|277:139|288:100,1,80,4|0,0:3|0:0,0:0:0:0:
267,6,171884,5,8,0:0:0:0:
359,35,172061,1,4,0:3:0:0:
374,238,172237,2,0,L|381:158,2,80,8|4|8,0:0|0:3|0:0,0:0:0:0:
346,322,172767,5,2,0:3:0:0:
346,322,172943,1,0,0:0:0:0:
195,222,173120,5,12,0:0:0:0:
195,222,173296,1,0,0:0:0:0:
195,222,173473,1,4,0:3:0:0:
195,222,173649,1,4,0:3:0:0:
282,179,173826,5,2,0:3:0:0:
380,158,174002,1,2,0:3:0:0:
478,179,174179,1,2,0:3:0:0:
483,297,174355,1,2,0:3:0:0:
282,179,174532,5,10,0:3:0:0:
262,180,174620,1,4,0:3:0:0:
242,182,174708,1,4,0:3:0:0:
222,184,174796,1,4,0:3:0:0:
202,185,174884,1,8,0:0:0:0:
182,187,174973,1,8,0:0:0:0:
162,189,175061,2,0,L|106:184,2,40,2|2|12,0:3|0:3|0:3,0:0:0:0:
336,94,175414,5,8,0:0:0:0:
358,111,175502,1,8,0:0:0:0:
373,134,175590,2,0,P|381:190|357:245,1,95.9999970703126,2|0,0:3|0:0,0:0:0:0:
340,320,175943,6,0,L|288:315,1,40,12|4,0:3|0:3,0:0:0:0:
221,310,176120,2,0,L|169:305,1,40,4|4,0:3|0:3,0:0:0:0:
101,303,176296,1,2,0:3:0:0:
101,303,176384,1,4,0:3:0:0:
101,303,176473,2,0,L|96:251,1,40,4|2,0:3|0:3,0:0:0:0:
169,225,176649,1,8,0:0:0:0:
169,225,176737,1,4,0:3:0:0:
169,225,176826,2,0,L|174:173,1,40,4|4,0:3|0:3,0:0:0:0:
174,64,177002,5,2,0:3:0:0:
174,64,177090,1,4,0:3:0:0:
174,64,177179,2,0,L|178:104,1,40,4|4,0:3|0:3,0:0:0:0:
172,185,177355,6,0,L|120:180,1,40,8|4,0:0|0:3,0:0:0:0:
53,175,177532,2,0,L|1:170,1,40,4|4,0:3|0:3,0:0:0:0:
97,263,177708,1,2,0:3:0:0:
97,263,177796,1,4,0:3:0:0:
97,263,177885,2,0,L|102:315,1,40,4|2,0:3|0:3,0:0:0:0:
181,306,178061,1,8,0:0:0:0:
221,310,178149,1,0,0:0:0:0:
260,312,178237,6,0,L|299:315,1,40,4|0,0:3|0:0,0:0:0:0:
369,226,178414,2,0,L|330:223,1,40,2|0,0:3|0:0,0:0:0:0:
277,123,178590,2,0,L|315:126,1,40,4|0,0:3|0:0,0:0:0:0:
217,217,178767,6,0,B|202:168|177:146|177:146|198:104|172:72,1,160,8|2,0:0|0:3,0:0:0:0:
267,12,179296,1,4,0:3:0:0:
267,12,179384,1,2,0:3:0:0:
267,12,179473,1,8,0:0:0:0:
379,170,179649,1,8,0:0:0:0:
277,123,179825,1,2,0:3:0:0:
369,59,180002,1,4,0:3:0:0:
172,72,180179,6,0,B|198:104|177:146|177:146|202:168|217:217,1,160,8|2,0:0|0:3,0:0:0:0:
379,170,180708,1,4,0:3:0:0:
379,170,180796,1,2,0:3:0:0:
379,170,180884,1,8,0:0:0:0:
318,263,181061,1,8,0:0:0:0:
114,263,181238,1,2,0:3:0:0:
94,261,181326,1,0,0:0:0:0:
74,259,181414,1,4,0:3:0:0:
55,258,181502,1,4,0:3:0:0:
35,256,181590,6,0,B|15:199|15:199|83:157|42:127|58:95,1,160
89,34,182120,1,4,0:3:0:0:
89,34,182208,1,2,0:3:0:0:
89,34,182296,1,8,0:0:0:0:
175,76,182473,1,8,0:0:0:0:
216,216,182649,1,2,0:3:0:0:
277,123,182826,1,4,0:3:0:0:
160,295,183002,6,0,B|206:329|263:301|263:301|314:294,1,160,8|2,0:0|0:3,0:0:0:0:
374,108,183532,1,4,0:3:0:0:
374,108,183620,1,2,0:3:0:0:
374,108,183708,1,8,0:0:0:0:
346,199,183885,1,8,0:0:0:0:
277,123,184061,1,2,0:3:0:0:
414,275,184237,1,4,0:3:0:0:
414,275,184326,1,0,0:0:0:0:
414,275,184414,5,10,0:3:0:0:
314,294,184590,1,4,0:3:0:0:
214,313,184767,1,4,0:3:0:0:
414,275,184943,5,2,0:3:0:0:
346,199,185120,1,4,0:3:0:0:
277,123,185296,1,4,0:3:0:0:
414,275,185473,5,2,0:3:0:0:
440,171,185650,1,4,0:3:0:0:
314,294,185826,5,10,0:3:0:0:
247,216,186002,1,8,0:0:0:0:
214,313,186179,1,8,0:0:0:0:
47,254,186355,5,2,0:3:0:0:
149,235,186532,1,8,0:0:0:0:
80,157,186709,1,8,0:0:0:0:
247,216,186884,6,0,P|231:175|216:227,1,120,2|0,0:3|0:0,0:0:0:0:
247,216,187237,6,0,L|410:201,1,160,12|2,0:0|0:3,0:0:0:0:
362,59,187767,1,4,0:3:0:0:
362,59,187855,1,2,0:3:0:0:
362,59,187943,1,8,0:0:0:0:
454,108,188120,1,8,0:0:0:0:
510,197,188296,1,2,0:3:0:0:
362,59,188473,6,0,L|202:73,1,160,10|4,0:0|0:3,0:0:0:0:
75,157,189002,2,0,P|83:118|108:85,1,80,2|4,0:3|0:3,0:0:0:0:
108,87,189267,1,2,0:3:0:0:
108,87,189355,1,8,0:0:0:0:
185,168,189532,1,8,0:0:0:0:
121,258,189708,1,2,0:3:0:0:
75,157,189884,1,4,0:3:0:0:
57,348,190061,6,0,P|146:364|204:329,1,160,12|2,0:0|0:3,0:0:0:0:
185,168,190590,1,4,0:3:0:0:
185,168,190679,1,2,0:3:0:0:
185,168,190767,1,8,0:0:0:0:
245,243,190943,1,8,0:0:0:0:
340,229,191120,1,2,0:3:0:0:
202,73,191296,6,0,L|362:59,1,160,10|4,0:0|0:3,0:0:0:0:
340,229,191826,2,0,P|363:197|371:158,1,80,2|4,0:3|0:3,0:0:0:0:
370,158,192091,1,2,0:3:0:0:
370,158,192179,1,8,0:0:0:0:
279,153,192355,1,8,0:0:0:0:
245,243,192532,1,2,0:3:0:0:
185,168,192708,1,4,0:3:0:0:
57,348,192884,6,0,P|146:364|204:329,1,160,12|2,0:0|0:3,0:0:0:0:
340,229,193414,1,4,0:3:0:0:
340,229,193502,1,2,0:3:0:0:
340,229,193590,1,8,0:0:0:0:
245,243,193767,1,8,0:0:0:0:
185,168,193943,1,2,0:3:0:0:
362,59,194120,6,0,L|202:73,1,160,10|8,0:0|0:0,0:0:0:0:
113,202,194649,2,0,P|151:192|182:167,1,80,2|4,0:3|0:3,0:0:0:0:
183,168,194914,1,2,0:3:0:0:
184,167,195002,1,8,0:0:0:0:
110,104,195179,1,8,0:0:0:0:
245,243,195355,1,2,0:3:0:0:
245,243,195708,6,0,L|332:235,2,80,12|0|0,0:0|0:0|0:0,0:0:0:0:
202,330,196237,1,8,0:0:0:0:
299,324,196414,1,2,0:3:0:0:
245,243,196590,1,4,0:3:0:0:
202,330,196767,1,4,0:3:0:0:
396,318,196943,6,0,L|409:158,1,160,8|2,0:0|0:3,0:0:0:0:
419,61,197473,2,0,P|461:76|488:103,2,80,4|8|2,0:3|0:0|0:3,0:0:0:0:
318,196,198002,1,8,0:0:0:0:
241,138,198179,1,2,0:3:0:0:
330,100,198355,1,4,0:3:0:0:
306,292,198532,6,0,L|226:284,1,80,12|0,0:0|0:0,0:0:0:0:
131,275,198884,1,2,0:3:0:0:
241,138,199061,1,4,0:3:0:0:
25,117,199237,1,2,0:3:0:0:
53,119,199325,1,2,0:3:0:0:
81,122,199413,1,2,0:3:0:0:
109,124,199501,1,2,0:3:0:0:
137,127,199589,1,8,0:0:0:0:
153,349,199767,6,0,P|134:314|130:274,1,80,12|0,0:0|0:0,0:0:0:0:
137,127,200120,1,2,0:3:0:0:
305,291,200296,1,10,0:0:0:0:
173,303,206649,5,4,0:3:0:0:
173,303,207002,2,0,L|320:290,1,143.999995605469,10|8,0:0|0:0,0:0:0:0:
163,207,207708,2,0,L|310:194,1,143.999995605469,8|8,0:0|0:0,0:0:0:0:
153,111,208414,2,0,L|300:98,1,143.999995605469,8|8,0:0|0:0,0:0:0:0:
174,304,209120,5,8,0:0:0:0:
174,304,209473,2,0,P|196:345|208:300,1,120,8|0,0:0|0:0,0:0:0:0:
208,300,209826,5,10,0:0:0:0:
198,204,210002,1,2,0:3:0:0:
188,108,210179,1,8,0:0:0:0:
331,95,210355,5,10,0:0:0:0:
198,204,210532,1,2,0:3:0:0:
45,121,210708,1,2,0:3:0:0:
55,217,210884,1,2,0:3:0:0:
341,191,211061,5,12,0:0:0:0:
188,108,211237,1,0,0:0:0:0:
331,94,211414,1,2,0:3:0:0:
370,98,211502,1,2,0:3:0:0:
405,117,211590,1,2,0:3:0:0:
195,201,211767,6,0,L|191:157,1,40,12|0,0:0|0:0,0:0:0:0:
191,161,211943,2,0,L|188:117,1,40
188,121,212120,6,0,L|145:124,1,40,2|2,0:3|0:3,0:0:0:0:
142,44,212296,2,0,L|185:40,1,40,2|2,0:3|0:3,0:0:0:0:
184,44,212473,6,0,L|56:55,1,120.000004577637,8|8,0:0|0:0,0:0:0:0:
52,307,213002,6,0,P|98:218|198:204,1,207.999990478516,12|8,0:1|0:1,0:0:0:0:
353,109,213532,1,4,0:3:0:0:
355,150,213620,1,2,0:3:0:0:
340,190,213708,1,2,0:3:0:0:
184,44,213884,6,0,P|135:116|197:205,1,207.999990478516,12|4,0:3|0:3,0:0:0:0:
353,289,214414,2,0,P|334:241|340:189,1,103.999995239258,8|4,0:1|0:3,0:0:0:0:
340,190,214679,1,2,0:3:0:0:
340,190,214767,1,8,0:0:0:0:
399,58,214943,1,8,0:0:0:0:
144,41,215120,5,2,0:3:0:0:
184,44,215208,1,0,0:0:0:0:
226,48,215296,1,4,0:3:0:0:
267,51,215384,1,4,0:3:0:0:
309,55,215473,6,0,L|97:73,1,207.999990478516,12|8,0:0|0:1,0:0:0:0:
181,244,216002,1,4,0:3:0:0:
196,204,216090,1,2,0:3:0:0:
194,163,216178,1,8,0:0:0:0:
84,183,216355,1,4,0:3:0:0:
101,72,216532,1,2,0:3:0:0:
73,306,216708,6,0,P|116:350|162:367,1,103.999995239258,12|0,0:0|0:0,0:0:0:0:
201,125,217061,1,2,0:3:0:0:
183,149,217149,1,2,0:3:0:0:
176,179,217237,1,2,0:3:0:0:
176,210,217325,1,2,0:3:0:0:
184,239,217414,1,8,0:0:0:0:
184,239,217767,5,8,0:0:0:0:
184,44,217943,1,2,0:3:0:0:
184,44,218032,1,2,0:3:0:0:
184,44,218120,1,2,0:3:0:0:
184,44,218208,1,2,0:3:0:0:
184,44,218296,6,0,L|291:52,1,103.999995239258,10|4,0:0|0:3,0:0:0:0:
414,66,218649,1,8,0:0:0:0:
414,66,218826,1,4,0:3:0:0:
389,287,219002,5,8,0:0:0:0:
389,287,219178,1,4,0:3:0:0:
338,169,219355,1,8,0:0:0:0:
338,169,219532,1,4,0:3:0:0:
135,257,219708,5,8,0:0:0:0:
135,257,219884,1,4,0:3:0:0:
262,272,220061,2,0,L|257:327,2,51.999997619629,8|4|4,0:0|0:3|0:3,0:0:0:0:
465,184,220414,6,0,L|469:128,2,51.999997619629,8|4|4,0:0|0:3|0:3,0:0:0:0:
338,169,220767,2,0,L|234:161,1,103.999995239258,2|4,0:3|0:3,0:0:0:0:
465,184,221120,5,8,0:1:0:0:
287,51,221296,1,8,0:0:0:0:
234,161,221473,1,4,0:3:0:0:
414,66,221649,5,8,0:1:0:0:
389,287,221826,1,8,0:0:0:0:
465,184,222002,1,4,0:3:0:0:
184,44,222179,5,8,0:1:0:0:
389,287,222355,1,12,0:3:0:0:
389,287,223590,1,4,0:3:0:0:
389,287,223943,6,0,L|230:272,1,160,12|8,0:3|0:1,0:0:0:0:
126,187,224473,2,0,L|79:182,2,40,4|4|8,0:3|0:3|0:0,0:0:0:0:
251,140,224826,1,4,0:3:0:0:
251,140,224914,1,4,0:3:0:0:
251,140,225002,1,2,0:3:0:0:
422,197,225179,6,0,P|478:250|476:328,1,160,10|4,0:0|0:3,0:0:0:0:
309,293,225708,2,0,L|388:287,1,80,2|4,0:3|0:3,0:0:0:0:
389,287,225973,1,2,0:3:0:0:
389,287,226061,1,8,0:0:0:0:
336,168,226237,1,8,0:0:0:0:
413,86,226414,1,8,0:1:0:0:
422,197,226590,1,4,0:3:0:0:
251,140,226767,6,0,L|88:125,1,160,12|8,0:0|0:1,0:0:0:0:
188,48,227296,1,4,0:3:0:0:
250,228,227473,1,2,0:3:0:0:
278,224,227562,1,2,0:3:0:0:
303,212,227650,1,4,0:3:0:0:
323,192,227738,1,4,0:3:0:0:
336,168,227826,1,8,0:1:0:0:
154,227,228002,6,0,P|197:309|258:325,1,160,10|8,0:0|0:0,0:0:0:0:
431,317,228532,2,0,L|352:323,1,80,2|4,0:3|0:3,0:0:0:0:
351,323,228797,1,4,0:3:0:0:
351,323,228885,1,2,0:3:0:0:
289,223,229061,2,0,L|250:228,2,40,4|4|8,0:3|0:3|0:1,0:0:0:0:
413,86,229414,1,4,0:3:0:0:
413,86,229502,1,2,0:3:0:0:
413,86,229590,6,0,L|250:101,1,160,12|8,0:1|0:1,0:0:0:0:
406,219,230120,1,4,0:3:0:0:
406,219,230208,1,2,0:3:0:0:
406,219,230296,1,8,0:0:0:0:
257,325,230473,1,4,0:3:0:0:
355,327,230649,1,8,0:1:0:0:
154,227,230826,6,0,P|197:145|258:129,1,160,10|8,0:0|0:0,0:0:0:0:
406,219,231355,2,0,P|395:180|372:148,1,80,2|4,0:3|0:3,0:0:0:0:
372,148,231619,1,2,0:3:0:0:
372,148,231708,1,8,0:0:0:0:
289,223,231884,1,4,0:3:0:0:
257,128,232061,1,8,0:1:0:0:
355,327,232237,1,4,0:3:0:0:
355,327,232326,1,4,0:3:0:0:
355,327,232414,6,0,B|297:332|297:332|265:323|265:323|197:329,1,160,12|2,0:0|0:3,0:0:0:0:
61,252,232943,1,4,0:3:0:0:
156,220,233120,1,8,0:1:0:0:
191,53,233296,1,4,0:3:0:0:
257,128,233473,1,2,0:3:0:0:
61,252,233649,6,0,L|76:89,1,160,10|8,0:0|0:0,0:0:0:0:
257,128,234179,1,2,0:3:0:0:
257,128,234267,1,4,0:3:0:0:
257,128,234355,1,4,0:3:0:0:
150,297,234532,5,2,0:3:0:0:
157,279,234620,1,8,0:0:0:0:
160,259,234708,1,4,0:3:0:0:
160,239,234796,1,8,0:0:0:0:
156,220,234884,1,8,0:1:0:0:
355,327,235061,1,8,0:0:0:0:
355,327,235149,1,4,0:3:0:0:
355,327,235237,1,12,0:0:0:0:
372,148,235414,6,0,P|375:172|370:196,1,40,4|0,0:3|0:0,0:0:0:0:
257,167,235590,2,0,P|254:143|259:119,1,40,8|4,0:1|0:3,0:0:0:0:
301,253,235767,2,0,L|215:261,1,80,10|0,0:0|0:0,0:0:0:0:
125,272,236120,5,4,0:3:0:0:
105,273,236208,1,4,0:3:0:0:
85,275,236296,1,4,0:3:0:0:
65,277,236384,1,4,0:3:0:0:
46,279,236472,1,4,0:3:0:0:
232,355,236649,1,12,0:0:0:0:
256,166,236826,6,0,P|253:147|256:127,1,40,2|2,0:3|0:3,0:0:0:0:
372,148,237002,2,0,P|375:167|372:187,1,40,8|2,0:1|0:3,0:0:0:0:
327,62,237179,2,0,L|490:47,1,160,10|2,0:0|0:3,0:0:0:0:
430,265,237708,1,2,0:3:0:0:
430,265,237884,1,8,0:0:0:0:
256,126,238061,5,8,0:1:0:0:
272,324,238237,1,8,0:0:0:0:
272,324,238414,1,4,0:3:0:0:
256,126,238590,5,8,0:1:0:0:
156,302,238767,1,8,0:0:0:0:
272,324,238943,1,4,0:3:0:0:
327,62,239120,5,8,0:1:0:0:
272,324,239296,1,12,0:3:0:0:
256,192,239384,12,0,245826,0:0:0:0:
