osu file format v14

[General]
AudioFilename: audio.mp3
AudioLeadIn: 0
PreviewTime: 200605
Countdown: 0
SampleSet: Soft
StackLeniency: 0.5
Mode: 0
LetterboxInBreaks: 0
WidescreenStoryboard: 0

[Editor]
DistanceSpacing: 1.2
BeatDivisor: 4
GridSize: 4
TimelineZoom: 2.1

[Metadata]
Title:Last Desire
TitleUnicode:Last Desire
Artist:Maon Kurosaki
ArtistUnicode:黒崎真音
Creator:Electoz
Version:Extra
Source:Rewrite
Tags:electroz anime season 2 key opening full version visual novel リライト
BeatmapID:1624360
BeatmapSetID:772785

[Difficulty]
HPDrainRate:6.5
CircleSize:4
OverallDifficulty:8.5
ApproachRate:9.3
SliderMultiplier:1.8
SliderTickRate:1

[Events]
//Background and Video events
0,0,"bg.jpg",0,0
//Break Periods
2,201179,206095
//Storyboard Layer 0 (Background)
//Storyboard Layer 1 (Fail)
//Storyboard Layer 2 (Pass)
//Storyboard Layer 3 (Foreground)
//Storyboard Sound Samples

[TimingPoints]
885,352.941176470588,4,2,1,60,1,0
2120,-100,4,2,1,60,0,0
5208,-100,4,2,3,60,0,0
6179,-100,4,2,1,60,0,0
17826,-100,4,2,1,40,0,0
19237,-100,4,2,4,40,0,0
27355,-100,4,2,1,40,0,0
28767,-83.3333333333333,4,2,1,40,0,0
29120,-111.111111111111,4,2,1,50,0,0
34414,-83.3333333333333,4,2,1,50,0,0
34767,-111.111111111111,4,2,1,50,0,0
37237,-83.3333333333333,4,2,1,50,0,0
37590,-111.111111111111,4,2,1,50,0,0
40414,-200,4,2,4,40,0,0
43943,-133.333333333333,4,2,4,40,0,0
44561,-133.333333333333,4,2,4,5,0,0
44649,-200,4,2,4,40,0,0
45267,-200,4,2,4,5,0,0
45355,-400,4,2,4,40,0,0
45973,-400,4,2,4,5,0,0
46061,-200,4,2,4,40,0,0
49590,-133.333333333333,4,2,4,40,0,0
50208,-133.333333333333,4,2,4,5,0,0
50296,-200,4,2,4,40,0,0
51708,-125,4,2,1,50,0,0
53032,-125,4,2,1,5,0,0
53120,-125,4,2,1,50,0,0
57355,-100,4,2,1,60,0,0
60708,-100,4,2,2,60,0,0
60796,-100,4,2,1,60,0,0
61855,-100,4,2,1,5,0,0
61943,-100,4,2,1,60,0,0
62384,-100,4,2,1,5,0,0
62473,-200,4,2,1,60,0,0
62737,-200,4,2,1,5,0,0
62826,-90.9090909090909,4,2,1,70,0,1
67061,-90.9090909090909,4,2,2,70,0,1
67149,-90.9090909090909,4,2,1,70,0,1
67767,-133.333333333333,4,2,1,70,0,1
68120,-90.9090909090909,4,2,1,70,0,1
74120,-83.3333333333333,4,2,1,70,0,1
75532,-83.3333333333333,4,2,2,70,0,1
75620,-83.3333333333333,4,2,1,70,0,1
79061,-133.333333333333,4,2,1,70,0,1
79590,-83.3333333333333,4,2,1,70,0,1
82855,-83.3333333333333,4,2,1,5,0,1
82943,-83.3333333333333,4,2,1,70,0,1
83032,-83.3333333333333,4,2,1,5,0,1
83120,-83.3333333333333,4,2,1,70,0,1
83384,-83.3333333333333,4,2,1,5,0,1
83473,-83.3333333333333,4,2,1,70,0,1
83561,-83.3333333333333,4,2,1,5,0,1
83649,-83.3333333333333,4,2,1,70,0,1
83914,-83.3333333333333,4,2,1,5,0,1
84002,-83.3333333333333,4,2,1,70,0,1
85590,-100,4,2,1,60,0,0
96884,-111.111111111111,4,2,1,50,0,0
107826,-83.3333333333333,4,2,1,50,0,0
108179,-111.111111111111,4,2,1,50,0,0
113473,-83.3333333333333,4,2,1,50,0,0
113826,-111.111111111111,4,2,1,50,0,0
116296,-83.3333333333333,4,2,1,50,0,0
116649,-111.111111111111,4,2,1,50,0,0
119473,-125,4,2,2,45,0,0
130767,-125,4,2,1,45,0,0
136414,-100,4,2,1,60,0,0
140914,-100,4,2,1,5,0,0
141002,-100,4,2,1,60,0,0
141443,-100,4,2,1,5,0,0
141532,-200,4,2,1,60,0,0
141796,-200,4,2,1,5,0,0
141884,-90.9090909090909,4,2,1,70,0,1
153179,-83.3333333333333,4,2,1,70,0,1
158120,-133.333333333333,4,2,1,70,0,1
158649,-83.3333333333333,4,2,1,70,0,1
161914,-83.3333333333333,4,2,1,5,0,1
162002,-83.3333333333333,4,2,1,70,0,1
162091,-83.3333333333333,4,2,1,5,0,1
162179,-83.3333333333333,4,2,1,70,0,1
162443,-83.3333333333333,4,2,1,5,0,1
162532,-83.3333333333333,4,2,1,70,0,1
162620,-83.3333333333333,4,2,1,5,0,1
162708,-83.3333333333333,4,2,1,70,0,1
162973,-83.3333333333333,4,2,1,5,0,1
163061,-83.3333333333333,4,2,1,70,0,1
164649,-100,4,2,1,60,0,0
174532,-100,4,2,2,60,0,0
174620,-100,4,2,1,60,0,0
175590,-83.3333333333333,4,2,1,60,0,0
175943,-100,4,2,1,60,0,0
200208,-100,4,2,1,5,0,0
200296,-100,4,2,1,60,0,0
206649,-111.111111111111,4,2,1,60,0,0
209473,-133.333333333333,4,2,1,60,0,0
211767,-100,4,2,1,60,0,0
212473,-200,4,2,1,60,0,0
213002,-76.9230769230769,4,2,1,70,0,1
217414,-117.647058823529,4,2,1,70,0,1
217943,-76.9230769230769,4,2,1,70,0,1
221208,-83.3333333333333,4,2,1,5,0,1
221296,-83.3333333333333,4,2,1,70,0,1
221385,-83.3333333333333,4,2,1,5,0,1
221473,-83.3333333333333,4,2,1,70,0,1
221737,-83.3333333333333,4,2,1,5,0,1
221826,-83.3333333333333,4,2,1,70,0,1
221914,-83.3333333333333,4,2,1,5,0,1
222002,-83.3333333333333,4,2,1,70,0,1
222267,-83.3333333333333,4,2,1,5,0,1
222355,-83.3333333333333,4,2,1,70,0,1
223943,-100,4,2,1,60,0,0
238061,-83.3333333333333,4,2,1,60,0,0
238149,-83.3333333333333,4,2,1,5,0,0
238237,-83.3333333333333,4,2,1,60,0,0
238326,-83.3333333333333,4,2,1,5,0,0
238414,-83.3333333333333,4,2,1,60,0,0
238678,-83.3333333333333,4,2,1,5,0,0
238767,-83.3333333333333,4,2,1,60,0,0
238855,-83.3333333333333,4,2,1,5,0,0
238943,-83.3333333333333,4,2,1,60,0,0
239208,-83.3333333333333,4,2,1,5,0,0
239296,-83.3333333333333,4,2,1,70,0,0
240884,-83.3333333333333,4,2,1,55,0,0
242296,-83.3333333333333,4,2,1,40,0,0
243708,-83.3333333333333,4,2,1,25,0,0
245120,-83.3333333333333,4,2,1,10,0,0
245826,-83.3333333333333,4,2,1,5,0,0

[Colours]
Combo1 : 255,157,157
Combo2 : 160,254,233
Combo3 : 192,192,192
Combo4 : 183,183,255

[HitObjects]
180,104,2120,5,8,0:0:0:0:
180,104,2208,1,8,0:0:0:0:
180,104,2296,1,8,0:1:0:0:
376,292,2473,1,0,0:0:0:0:
272,264,2826,5,0,0:0:0:0:
444,176,3179,5,0,0:0:0:0:
72,208,3532,5,0,0:0:0:0:
156,296,3884,5,0,0:0:0:0:
169,152,4061,1,0,0:0:0:0:
356,200,4237,1,0,0:0:0:0:
264,116,4590,5,0,0:0:0:0:
272,352,4767,1,0,0:0:0:0:
455,182,5120,5,8,0:1:0:0:
455,182,5208,1,8,0:3:0:0:
455,182,5296,2,0,L|450:129,1,45,8|8,0:0|0:0,0:0:0:0:
344,57,5473,1,8,0:3:0:0:
344,57,5561,1,8,0:3:0:0:
344,57,5649,2,0,L|339:110,1,45,8|8,0:0|0:0,0:0:0:0:
272,237,5826,1,8,0:3:0:0:
272,237,5914,1,8,0:3:0:0:
272,237,6002,2,0,L|267:192,1,45,8|8,0:0|0:0,0:0:0:0:
195,83,6179,6,0,L|190:29,1,45,8|0,0:1|0:0,0:0:0:0:
216,270,6355,6,0,P|278:209|366:206,1,180,12|0,0:3|0:0,0:0:0:0:
257,377,6884,2,0,P|212:371|164:378,1,90,8|0,0:1|0:0,0:0:0:0:
89,268,7237,1,8,0:0:0:0:
216,270,7414,1,4,0:3:0:0:
91,141,7590,1,2,0:3:0:0:
320,311,7767,6,0,P|408:308|471:247,1,180,10|4,0:0|0:3,0:0:0:0:
421,23,8296,1,2,0:3:0:0:
366,206,8473,1,4,0:3:0:0:
366,206,8561,1,2,0:3:0:0:
366,206,8649,1,8,0:0:0:0:
458,135,8826,1,8,0:0:0:0:
268,135,9002,1,8,0:1:0:0:
320,311,9179,1,0,0:0:0:0:
304,24,9355,6,0,P|206:36|155:106,1,180,12|8,0:0|0:1,0:0:0:0:
180,211,9884,1,4,0:3:0:0:
180,211,9973,1,4,0:3:0:0:
180,211,10061,1,8,0:0:0:0:
292,254,10237,1,4,0:3:0:0:
82,283,10414,1,8,0:1:0:0:
268,135,10590,6,0,B|352:132|352:132|372:141|372:141|448:139,1,180,10|8,0:0|0:0,0:0:0:0:
411,30,11120,1,2,0:3:0:0:
446,251,11296,1,4,0:3:0:0:
446,251,11384,1,4,0:3:0:0:
446,251,11473,2,0,P|454:295|461:343,1,90,8|4,0:0|0:3,0:0:0:0:
290,242,11826,6,0,L|335:239,1,45,8|2,0:1|0:3,0:0:0:0:
445,139,12002,2,0,L|400:142,1,45,4|2,0:3|0:3,0:0:0:0:
166,212,12179,6,0,P|181:304|246:361,1,180,12|8,0:1|0:1,0:0:0:0:
359,359,12708,1,4,0:3:0:0:
359,359,12796,1,2,0:3:0:0:
359,359,12884,1,8,0:0:0:0:
334,239,13061,1,4,0:3:0:0:
460,339,13237,1,8,0:1:0:0:
268,135,13414,6,0,P|204:89|102:103,1,180,10|8,0:0|0:0,0:0:0:0:
52,201,13943,1,2,0:3:0:0:
19,18,14120,1,4,0:3:0:0:
19,18,14208,1,2,0:3:0:0:
19,18,14296,1,8,0:0:0:0:
107,99,14473,1,4,0:3:0:0:
107,303,14649,1,8,0:1:0:0:
52,201,14826,2,0,P|73:193|99:188,1,45,4|4,0:3|0:3,0:0:0:0:
268,267,15002,6,0,P|365:223|397:160,1,180,12|2,0:0|0:3,0:0:0:0:
352,59,15532,1,4,0:3:0:0:
352,59,15620,1,4,0:3:0:0:
352,59,15708,1,8,0:0:0:0:
268,135,15884,1,4,0:3:0:0:
107,99,16061,1,2,0:3:0:0:
268,267,16237,6,0,B|352:264|352:264|372:273|372:273|448:271,1,180,10|8,0:0|0:0,0:0:0:0:
268,135,16767,1,2,0:3:0:0:
396,160,16943,1,8,0:1:0:0:
422,157,17031,1,8,0:1:0:0:
449,155,17120,1,2,0:3:0:0:
407,32,17296,1,8,0:0:0:0:
407,32,17384,1,8,0:0:0:0:
407,32,17473,1,4,0:3:0:0:
279,14,17649,1,2,0:3:0:0:
268,267,17826,5,10,0:0:0:0:
268,267,18179,1,8,0:0:0:0:
268,267,18532,1,8,0:0:0:0:
268,267,18884,1,8,0:0:0:0:
396,160,19237,5,10,0:0:0:0:
396,160,19590,1,8,0:0:0:0:
346,73,19767,1,2,0:0:0:0:
268,135,19943,1,8,0:0:0:0:
268,135,20296,1,10,0:0:0:0:
396,160,20649,5,8,0:0:0:0:
396,160,21002,1,8,0:0:0:0:
396,160,21355,1,8,0:0:0:0:
396,160,21708,1,8,0:0:0:0:
268,135,22061,5,10,0:0:0:0:
268,135,22414,1,8,0:0:0:0:
191,198,22590,1,2,0:0:0:0:
268,267,22767,1,8,0:0:0:0:
268,267,23120,1,10,0:0:0:0:
268,135,23473,5,8,0:0:0:0:
268,135,23826,1,8,0:0:0:0:
268,135,24179,1,8,0:0:0:0:
268,135,24532,1,8,0:0:0:0:
268,267,24884,5,10,0:0:0:0:
268,267,25237,1,8,0:0:0:0:
391,288,25414,1,2,0:0:0:0:
396,160,25590,1,8,0:0:0:0:
396,160,25943,1,10,0:0:0:0:
268,267,26296,5,8,0:0:0:0:
268,267,26649,1,8,0:0:0:0:
268,267,27002,1,8,0:0:0:0:
268,267,27355,2,0,L|173:275,1,90,2|8,0:3|0:0,0:0:0:0:
78,91,28590,5,8,0:0:0:0:
78,91,28679,1,8,0:0:0:0:
78,91,28767,2,0,P|55:155|26:98,1,161.999995056153,2|0,0:3|0:0,0:0:0:0:
78,91,29120,6,0,P|154:67|234:79,1,161.999995056153,12|2,0:0|0:3,0:0:0:0:
396,57,29649,2,0,P|364:81|342:116,1,80.9999975280763,4|8,0:3|0:0,0:0:0:0:
257,190,30002,1,4,0:3:0:0:
149,154,30179,1,2,0:3:0:0:
372,227,30355,6,0,P|364:309|415:366,1,161.999995056153,8|4,0:0|0:3,0:0:0:0:
455,276,30884,1,2,0:3:0:0:
269,331,31061,2,0,P|223:327|182:328,1,80.9999975280763,4|8,0:3|0:0,0:0:0:0:
122,255,31414,1,4,0:3:0:0:
266,175,31590,1,2,0:3:0:0:
170,166,31767,1,0,0:0:0:0:
189,328,31943,5,8,0:0:0:0:
122,255,32120,1,4,0:3:0:0:
266,175,32296,1,2,0:3:0:0:
122,255,32473,2,0,P|77:258|33:261,1,80.9999975280763,4|8,0:3|0:0,0:0:0:0:
74,157,32826,1,4,0:3:0:0:
206,248,33002,1,2,0:3:0:0:
129,78,33179,6,0,B|194:56|225:98|291:78,1,161.999995056153,8|8,0:0|0:0,0:0:0:0:
346,178,33708,2,0,P|302:174|260:175,1,80.9999975280763,2|2,0:3|0:3,0:0:0:0:
266,175,33973,1,2,0:3:0:0:
266,175,34061,1,8,0:0:0:0:
384,88,34237,1,4,0:3:0:0:
386,266,34414,6,0,P|363:330|334:273,1,161.999995056153,2|0,0:3|0:0,0:0:0:0:
386,266,34767,6,0,P|313:301|232:288,1,161.999995056153,12|2,0:0|0:3,0:0:0:0:
177,213,35296,1,4,0:3:0:0:
177,213,35384,1,4,0:3:0:0:
177,213,35473,1,8,0:0:0:0:
138,306,35649,1,8,0:0:0:0:
88,176,35826,1,2,0:3:0:0:
272,199,36002,6,0,P|338:143|423:140,1,161.999995056153,8|8,0:0|0:0,0:0:0:0:
434,329,36532,2,0,P|405:301|386:266,1,80.9999975280763,2|4,0:3|0:3,0:0:0:0:
386,266,36796,1,2,0:3:0:0:
386,266,36884,1,8,0:0:0:0:
410,136,37061,1,0,0:0:0:0:
313,344,37237,6,0,P|245:338|292:295,1,161.999995056153,2|0,0:3|0:0,0:0:0:0:
288,295,37590,5,8,0:0:0:0:
272,199,37767,1,4,0:3:0:0:
410,136,37943,1,2,0:3:0:0:
383,41,38120,1,4,0:3:0:0:
272,199,38296,1,8,0:0:0:0:
367,223,38473,1,4,0:3:0:0:
505,160,38649,1,2,0:3:0:0:
357,331,38826,6,0,P|318:320|288:295,1,80.9999975280763,12|0,0:3|0:0,0:0:0:0:
219,119,39179,1,4,0:3:0:0:
410,136,39355,1,2,0:3:0:0:
202,340,39532,2,0,P|192:301|197:261,1,80.9999975280763,8|0,0:0|0:0,0:0:0:0:
124,126,39884,5,2,0:3:0:0:
124,126,40061,1,4,0:3:0:0:
124,126,40237,1,4,0:3:0:0:
124,126,40414,6,0,B|179:123|212:149|212:149|291:75|312:183|377:109,1,270,12|0,0:0|0:0,0:0:0:0:
458,67,41826,1,0,0:0:0:0:
372,114,42179,1,0,0:0:0:0:
456,165,42532,1,0,0:0:0:0:
370,212,42884,1,0,0:0:0:0:
454,263,43237,5,4,0:0:0:0:
454,263,43943,2,0,P|368:308|273:219,1,236.250009012223
274,226,44649,2,0,P|184:219|109:226,1,157.5,0|0,0:0|0:0,0:0:0:0:
117,224,45355,1,0,0:0:0:0:
124,126,45708,1,0,0:0:0:0:
124,126,46061,6,0,B|179:129|212:103|212:103|291:177|312:69|377:143,1,270,12|0,0:0|0:0,0:0:0:0:
444,202,47473,1,0,0:0:0:0:
372,137,47826,1,0,0:0:0:0:
464,107,48179,1,0,0:0:0:0:
392,42,48532,1,0,0:0:0:0:
484,12,48884,5,4,0:0:0:0:
484,12,49590,2,0,L|463:247,1,236.250009012223,0|0,0:0|0:0,0:0:0:0:
462,247,50296,5,2,0:0:0:0:
402,304,50473,1,2,0:0:0:0:
341,249,50649,1,2,0:0:0:0:
281,306,50826,1,2,0:0:0:0:
342,162,51179,1,2,0:0:0:0:
301,162,51355,1,2,0:0:0:0:
261,163,51532,1,2,0:0:0:0:
462,247,51708,5,8,0:0:0:0:
462,247,52061,1,8,0:0:0:0:
462,247,52414,1,8,0:0:0:0:
462,247,52767,2,0,P|407:241|348:250,1,108,8|0,0:0|0:0,0:0:0:0:
355,248,53120,6,0,P|274:261|215:241,1,144,8|8,0:0|0:0,0:0:0:0:
143,197,53826,1,8,0:0:0:0:
91,115,54179,1,8,0:0:0:0:
216,241,54532,6,0,P|285:261|355:248,1,144,8|8,0:0|0:0,0:0:0:0:
404,149,55237,1,8,0:0:0:0:
295,150,55590,1,8,0:0:0:0:
351,244,55943,5,8,0:0:0:0:
351,244,56296,1,8,0:0:0:0:
351,244,56649,5,8,0:0:0:0:
349,56,56826,1,4,0:3:0:0:
188,152,57002,1,2,0:3:0:0:
188,152,57355,6,0,L|367:136,1,180,12|8,0:3|0:0,0:0:0:0:
355,330,57884,2,0,P|344:287|349:243,1,90,4|8,0:3|0:0,0:0:0:0:
367,135,58237,1,4,0:3:0:0:
441,283,58414,1,8,0:0:0:0:
487,152,58590,1,4,0:3:0:0:
350,243,58767,5,8,0:0:0:0:
367,135,58943,1,4,0:3:0:0:
512,235,59120,1,8,0:0:0:0:
265,175,59296,2,0,P|257:116|276:76,1,90,4|8,0:3|0:0,0:0:0:0:
357,24,59649,1,4,0:3:0:0:
350,243,59826,1,2,0:3:0:0:
487,152,60002,1,4,0:3:0:0:
177,24,60179,5,10,0:3:0:0:
110,134,60355,1,4,0:3:0:0:
180,243,60532,1,8,0:0:0:0:
177,24,60708,5,10,0:3:0:0:
180,243,60884,1,4,0:3:0:0:
110,134,61061,5,8,0:0:0:0:
267,88,61237,1,2,0:3:0:0:
259,344,61414,2,0,L|261:253,1,90,12|0,0:0|0:0,0:0:0:0:
267,88,61767,6,0,L|266:139,1,45,2|0,0:3|0:0,0:0:0:0:
259,344,61943,1,10,0:0:0:0:
259,344,62296,6,0,L|208:343,1,45,4|0,0:3|0:0,0:0:0:0:
370,343,62473,6,0,P|394:311|409:278,1,67.5,12|0,0:1|0:0,0:0:0:0:
292,72,62826,6,0,P|276:168|310:260,1,198.000006042481,12|4,0:3|0:3,0:0:0:0:
138,192,63355,1,8,0:1:0:0:
259,344,63532,1,4,0:3:0:0:
221,311,63620,1,2,0:3:0:0:
197,269,63708,1,8,0:0:0:0:
279,181,63884,1,4,0:3:0:0:
405,286,64061,1,2,0:3:0:0:
292,72,64237,6,0,B|208:49|158:110|97:72,1,198.000006042481,10|4,0:0|0:3,0:0:0:0:
151,345,64767,2,0,P|165:298|158:249,1,99.0000030212403,8|4,0:1|0:3,0:0:0:0:
145,222,65032,1,2,0:3:0:0:
129,196,65120,1,8,0:0:0:0:
277,296,65296,1,4,0:3:0:0:
277,159,65473,6,0,P|274:196|278:224,1,49.5000015106202,2|0,0:3|0:0,0:0:0:0:
277,296,65649,2,0,P|281:321|279:346,1,49.5000015106202,4|0,0:3|0:0,0:0:0:0:
277,159,65826,6,0,B|330:152|330:152|377:155,1,99.0000030212403,12|0,0:0|0:0,0:0:0:0:
129,196,66179,1,8,0:1:0:0:
279,345,66355,1,4,0:3:0:0:
230,347,66443,1,2,0:3:0:0:
180,341,66532,1,8,0:0:0:0:
129,196,66708,6,0,P|146:168|156:147,1,49.5000015106202,4|4,0:3|0:3,0:0:0:0:
203,61,66884,1,2,0:3:0:0:
72,295,67061,6,0,P|34:253|18:200,1,99.0000030212403,12|0,0:3|0:0,0:0:0:0:
53,105,67414,1,4,0:3:0:0:
203,61,67590,1,8,0:1:0:0:
72,295,67767,6,0,L|137:277,1,67.5000025749208,8|4,0:0|0:3,0:0:0:0:
291,226,68120,1,2,0:3:0:0:
306,197,68208,1,8,0:0:0:0:
308,163,68296,1,8,0:1:0:0:
203,61,68473,1,8,0:0:0:0:
487,152,68649,5,10,0:0:0:0:
487,152,68826,1,4,0:3:0:0:
291,226,69002,1,8,0:1:0:0:
291,226,69179,1,4,0:3:0:0:
357,109,69355,1,8,0:0:0:0:
357,109,69532,1,4,0:3:0:0:
127,92,69708,1,8,0:1:0:0:
127,92,69884,1,4,0:3:0:0:
72,295,70061,5,8,0:0:0:0:
147,209,70237,1,4,0:3:0:0:
190,0,70414,1,8,0:1:0:0:
241,100,70590,1,4,0:3:0:0:
278,345,70767,5,8,0:0:0:0:
291,226,70943,1,4,0:3:0:0:
192,104,71120,2,0,P|215:99|240:99,1,49.5000015106202,2|0,0:3|0:0,0:0:0:0:
385,103,71296,2,0,P|361:97|337:100,1,49.5000015106202,0|0,0:0|0:0,0:0:0:0:
497,125,71473,6,0,P|492:177|488:224,1,99.0000030212403,10|4,0:3|0:3,0:0:0:0:
476,336,71826,1,4,0:3:0:0:
338,99,72002,1,10,0:1:0:0:
291,228,72179,1,8,0:0:0:0:
399,203,72355,1,4,0:3:0:0:
240,99,72532,1,2,0:3:0:0:
368,299,72708,5,10,0:0:0:0:
192,225,72884,1,0,0:0:0:0:
352,347,73061,1,4,0:3:0:0:
368,299,73149,1,4,0:3:0:0:
352,251,73237,1,4,0:3:0:0:
79,300,73414,2,0,P|60:256|62:199,1,99.0000030212403,12|0,0:0|0:0,0:0:0:0:
241,50,73767,1,8,0:1:0:0:
240,99,73855,1,8,0:1:0:0:
260,145,73943,1,2,0:3:0:0:
475,335,74120,6,0,P|416:251|312:253,1,215.999993408203,12|8,0:0|0:0,0:0:0:0:
364,136,74649,1,8,0:1:0:0:
263,354,74826,1,2,0:3:0:0:
315,367,74914,1,2,0:3:0:0:
366,351,75002,1,4,0:3:0:0:
200,261,75179,1,4,0:3:0:0:
366,351,75355,1,2,0:3:0:0:
252,158,75532,6,0,P|311:39|387:25,1,215.999993408203,12|4,0:3|0:3,0:0:0:0:
479,143,76061,1,8,0:1:0:0:
367,239,76237,1,4,0:3:0:0:
380,187,76326,1,2,0:3:0:0:
364,136,76414,1,8,0:0:0:0:
136,164,76590,1,8,0:0:0:0:
364,136,76767,6,0,P|331:132|305:126,1,53.9999983520508,2|0,0:3|0:0,0:0:0:0:
211,60,76943,2,0,P|184:54|157:51,1,53.9999983520508,4|4,0:3|0:3,0:0:0:0:
364,136,77120,6,0,B|371:189|371:189|366:252,1,107.999996704102,12|0,0:0|0:0,0:0:0:0:
136,164,77473,1,8,0:1:0:0:
112,277,77649,1,4,0:3:0:0:
165,276,77737,1,2,0:3:0:0:
211,250,77826,1,8,0:0:0:0:
211,60,78002,1,4,0:3:0:0:
366,243,78179,1,2,0:3:0:0:
35,191,78355,6,0,P|82:165|136:164,1,107.999996704102,12|0,0:0|0:0,0:0:0:0:
366,243,78708,1,2,0:3:0:0:
369,199,78796,1,2,0:3:0:0:
373,156,78884,1,2,0:3:0:0:
377,113,78973,1,2,0:3:0:0:
381,70,79061,6,0,L|246:57,1,135.000005149842,8|8,0:0|0:0,0:0:0:0:
241,158,79590,6,0,P|238:184|241:211,1,53.9999983520508,2|2,0:3|0:3,0:0:0:0:
244,308,79767,2,0,P|246:334|245:361,1,53.9999983520508,2|2,0:3|0:3,0:0:0:0:
247,58,79943,6,0,P|319:101|332:168,1,107.999996704102,10|4,0:0|0:3,0:0:0:0:
220,56,80296,5,8,0:0:0:0:
242,212,80473,1,4,0:3:0:0:
193,54,80649,5,8,0:0:0:0:
269,214,80826,1,4,0:3:0:0:
166,52,81002,5,8,0:0:0:0:
296,216,81179,1,4,0:3:0:0:
139,50,81355,5,8,0:0:0:0:
323,218,81532,1,4,0:3:0:0:
112,48,81708,5,8,0:0:0:0:
94,98,81796,1,4,0:3:0:0:
106,150,81884,1,4,0:3:0:0:
344,322,82061,1,8,0:0:0:0:
362,272,82149,1,4,0:3:0:0:
350,220,82237,1,4,0:3:0:0:
117,283,82414,1,2,0:3:0:0:
117,282,82590,1,4,0:3:0:0:
386,75,82767,6,0,P|386:106|376:142,1,53.9999983520508,8|0,0:1|0:0,0:0:0:0:
350,220,82943,2,0,P|350:251|360:287,1,53.9999983520508,8|0,0:0|0:0,0:0:0:0:
354,273,83120,1,4,0:3:0:0:
166,52,83296,6,0,P|166:83|176:119,1,53.9999983520508,8|0,0:1|0:0,0:0:0:0:
242,212,83473,2,0,P|247:238|246:265,1,53.9999983520508,8|0,0:0|0:0,0:0:0:0:
247,266,83649,1,4,0:3:0:0:
276,63,83826,6,0,P|276:94|266:130,1,53.9999983520508,8|0,0:1|0:0,0:0:0:0:
117,283,84002,1,12,0:3:0:0:
256,192,84090,12,4,85237,0:3:0:0:
341,210,85590,6,0,P|258:172|173:211,1,180,12|8,0:3|0:1,0:0:0:0:
74,234,86120,1,4,0:3:0:0:
74,234,86208,1,4,0:3:0:0:
74,234,86296,1,8,0:0:0:0:
223,346,86473,1,4,0:3:0:0:
244,318,86561,1,4,0:3:0:0:
258,284,86649,1,2,0:3:0:0:
325,52,86826,6,0,P|298:139|342:211,1,180,10|4,0:0|0:3,0:0:0:0:
437,276,87355,1,2,0:3:0:0:
186,136,87532,1,4,0:3:0:0:
186,136,87620,1,2,0:3:0:0:
186,136,87708,1,8,0:0:0:0:
242,261,87884,1,8,0:0:0:0:
447,160,88061,1,8,0:1:0:0:
332,327,88237,1,4,0:3:0:0:
325,52,88414,6,0,B|221:68|253:6|147:34,1,180,12|8,0:0|0:1,0:0:0:0:
78,114,88943,1,4,0:3:0:0:
276,143,89120,1,2,0:3:0:0:
253,142,89208,1,2,0:3:0:0:
231,140,89296,1,4,0:3:0:0:
208,138,89384,1,4,0:3:0:0:
186,136,89473,1,4,0:3:0:0:
410,123,89649,6,0,P|460:194|440:279,1,180,10|8,0:0|0:0,0:0:0:0:
332,327,90179,1,2,0:3:0:0:
276,143,90355,1,4,0:3:0:0:
276,143,90443,1,4,0:3:0:0:
276,143,90532,1,2,0:3:0:0:
220,327,90708,1,4,0:3:0:0:
220,327,90796,1,0,0:0:0:0:
220,327,90884,1,8,0:1:0:0:
119,146,91061,2,0,L|157:114,1,45,4|2,0:3|0:3,0:0:0:0:
87,256,91237,6,0,P|10:168|16:106,1,180,12|8,0:1|0:1,0:0:0:0:
90,24,91767,1,4,0:3:0:0:
90,24,91855,1,2,0:3:0:0:
90,24,91943,1,8,0:0:0:0:
119,146,92120,1,4,0:3:0:0:
203,18,92296,1,8,0:1:0:0:
199,299,92473,6,0,P|205:211|271:154,1,180,10|8,0:0|0:0,0:0:0:0:
383,122,93002,1,2,0:3:0:0:
383,122,93179,1,4,0:3:0:0:
306,263,93355,1,8,0:0:0:0:
306,263,93532,1,4,0:3:0:0:
220,59,93708,1,8,0:1:0:0:
271,154,93884,1,4,0:3:0:0:
0,86,94061,6,0,B|105:86|58:138|163:150,1,180,12|2,0:0|0:3,0:0:0:0:
306,263,94590,1,4,0:3:0:0:
306,263,94679,1,4,0:3:0:0:
306,263,94767,1,2,0:3:0:0:
271,154,94943,1,4,0:3:0:0:
96,237,95120,1,2,0:3:0:0:
220,59,95296,6,0,P|331:65|371:117,1,180,10|8,0:0|0:0,0:0:0:0:
195,239,95826,1,2,0:3:0:0:
271,154,96002,1,4,0:3:0:0:
396,270,96179,1,2,0:3:0:0:
373,269,96267,1,8,0:0:0:0:
351,267,96355,1,4,0:3:0:0:
328,265,96443,1,8,0:0:0:0:
306,263,96532,1,8,0:1:0:0:
369,113,96708,1,2,0:3:0:0:
230,348,96884,6,0,L|150:341,1,80.9999975280763,10|0,0:0|0:0,0:0:0:0:
195,239,97237,2,0,L|115:232,1,80.9999975280763,8|0,0:0|0:0,0:0:0:0:
160,130,97590,2,0,L|80:123,1,80.9999975280763,8|0,0:0|0:0,0:0:0:0:
128,31,97943,1,8,0:0:0:0:
272,155,98120,2,0,P|268:138|267:94,1,40.4999987640381,4|4,0:3|0:3,0:0:0:0:
272,155,98296,6,0,L|351:148,1,80.9999975280763,8|0,0:0|0:0,0:0:0:0:
306,263,98649,1,8,0:0:0:0:
386,255,98826,1,4,0:3:0:0:
340,371,99002,1,8,0:0:0:0:
420,363,99179,1,8,0:0:0:0:
306,263,99355,1,8,0:0:0:0:
230,348,99532,1,0,0:0:0:0:
386,255,99708,6,0,L|379:175,1,80.9999975280763,10|0,0:0|0:0,0:0:0:0:
263,185,100061,2,0,L|256:105,1,80.9999975280763,8|0,0:0|0:0,0:0:0:0:
140,115,100414,2,0,L|133:35,1,80.9999975280763,8|0,0:0|0:0,0:0:0:0:
18,44,100767,1,8,0:0:0:0:
17,185,100943,1,2,0:3:0:0:
18,205,101032,1,2,0:3:0:0:
20,225,101120,5,2,0:3:0:0:
53,344,101296,1,4,0:3:0:0:
140,256,101473,1,8,0:0:0:0:
226,345,101649,1,2,0:3:0:0:
313,257,101826,1,8,0:0:0:0:
385,326,102002,5,4,0:3:0:0:
313,257,102179,1,8,0:0:0:0:
241,188,102355,1,4,0:3:0:0:
27,144,102532,6,0,L|20:224,1,80.9999975280763,10|0,0:0|0:0,0:0:0:0:
140,115,102884,2,0,L|133:195,1,80.9999975280763,8|0,0:0|0:0,0:0:0:0:
248,107,103237,2,0,L|241:187,1,80.9999975280763,8|0,0:0|0:0,0:0:0:0:
339,155,103590,1,8,0:0:0:0:
188,18,103767,2,0,L|132:9,1,40.4999987640381,4|4,0:3|0:3,0:0:0:0:
188,18,103943,6,0,L|268:11,1,80.9999975280763,8|4,0:0|0:3,0:0:0:0:
167,114,104296,2,0,L|247:107,1,80.9999975280763,8|4,0:0|0:3,0:0:0:0:
117,338,104649,2,0,P|93:262|131:193,1,161.999995056153,8|2,0:0|0:3,0:0:0:0:
247,106,105355,5,2,0:3:0:0:
131,193,105532,1,2,0:3:0:0:
339,155,105708,1,2,0:3:0:0:
188,18,106237,5,2,0:3:0:0:
131,193,106414,1,2,0:3:0:0:
431,204,106590,1,8,0:0:0:0:
253,96,107473,5,4,0:3:0:0:
396,75,107649,1,4,0:3:0:0:
396,75,107737,1,4,0:3:0:0:
396,75,107826,2,0,P|430:120|434:170,1,107.999996704102,2|8,0:3|0:0,0:0:0:0:
396,75,108179,6,0,P|319:54|254:96,1,161.999995056153,12|2,0:0|0:3,0:0:0:0:
333,230,108708,2,0,P|338:190|334:150,1,80.9999975280763,4|8,0:3|0:0,0:0:0:0:
227,189,109061,1,4,0:3:0:0:
115,170,109237,1,2,0:3:0:0:
244,301,109414,5,8,0:0:0:0:
156,259,109590,1,0,0:0:0:0:
227,189,109767,1,4,0:3:0:0:
181,373,109943,1,2,0:3:0:0:
244,301,110120,2,0,P|209:280|167:277,1,80.9999975280763,4|8,0:3|0:0,0:0:0:0:
227,189,110473,1,4,0:3:0:0:
91,335,110649,1,2,0:3:0:0:
79,238,110826,1,0,0:0:0:0:
244,301,111002,5,8,0:0:0:0:
332,230,111179,1,4,0:3:0:0:
307,373,111355,1,2,0:3:0:0:
332,230,111532,2,0,P|377:227|421:224,1,80.9999975280763,4|8,0:3|0:0,0:0:0:0:
344,134,111884,1,4,0:3:0:0:
227,189,112061,1,2,0:3:0:0:
440,137,112237,6,0,P|408:61|334:38,1,161.999995056153,8|8,0:0|0:0,0:0:0:0:
264,142,112767,1,2,0:3:0:0:
284,140,112855,1,0,0:0:0:0:
304,138,112943,1,2,0:3:0:0:
324,136,113032,1,2,0:3:0:0:
344,134,113120,1,8,0:0:0:0:
241,45,113296,1,4,0:3:0:0:
365,243,113473,6,0,P|401:293|401:231,1,161.999995056153,2|0,0:3|0:0,0:0:0:0:
366,245,113826,6,0,P|293:280|212:267,1,161.999995056153,12|2,0:0|0:3,0:0:0:0:
198,171,114355,1,4,0:3:0:0:
198,171,114443,1,4,0:3:0:0:
198,171,114532,1,8,0:0:0:0:
215,268,114708,1,8,0:0:0:0:
89,229,114884,1,2,0:3:0:0:
295,154,115061,6,0,P|225:73|153:82,1,161.999995056153,8|8,0:0|0:0,0:0:0:0:
67,29,115590,1,2,0:3:0:0:
198,171,115767,1,4,0:3:0:0:
198,171,115855,1,2,0:3:0:0:
198,171,115943,1,8,0:0:0:0:
80,143,116120,1,0,0:0:0:0:
131,295,116296,6,0,P|78:326|139:331,1,161.999995056153,2|0,0:3|0:0,0:0:0:0:
140,332,116649,5,8,0:0:0:0:
215,268,116826,1,4,0:3:0:0:
295,154,117002,1,2,0:3:0:0:
198,171,117179,1,4,0:3:0:0:
278,343,117355,1,8,0:0:0:0:
312,251,117532,1,4,0:3:0:0:
231,78,117708,1,2,0:3:0:0:
374,326,117884,6,0,P|400:290|408:244,1,80.9999975280763,12|0,0:3|0:0,0:0:0:0:
392,137,118237,1,4,0:3:0:0:
231,78,118414,1,2,0:3:0:0:
221,286,118590,2,0,P|242:320|277:342,1,80.9999975280763,8|0,0:0|0:0,0:0:0:0:
101,154,118943,1,2,0:3:0:0:
101,154,119120,1,4,0:3:0:0:
101,154,119296,1,4,0:3:0:0:
101,154,119473,6,0,B|161:127|178:170|242:150,2,144,8|2|2,0:0|0:0|0:0,0:0:0:0:
321,211,120532,6,0,P|338:169|339:126,1,72,2|8,0:0|0:0,0:0:0:0:
229,249,120884,2,0,P|256:284|293:307,1,72,2|0,0:0|0:0,0:0:0:0:
242,150,121237,2,0,P|197:156|159:176,1,72,2|0,0:0|0:0,0:0:0:0:
179,299,121590,2,0,P|208:278|229:249,1,72,2|8,0:0|0:0,0:0:0:0:
98,237,121943,2,0,P|73:198|65:156,1,72,2|8,0:0|0:0,0:0:0:0:
174,31,122296,6,0,P|194:99|173:167,1,144,2|2,0:0|0:0,0:0:0:0:
173,166,123002,6,0,L|248:159,1,72,2|8,0:0|0:0,0:0:0:0:
219,260,123355,2,0,L|294:266,1,72,2|8,0:0|0:0,0:0:0:0:
244,159,123708,2,0,L|319:152,1,72,2|0,0:0|0:0,0:0:0:0:
290,266,124061,2,0,L|365:272,1,72,2|0,0:0|0:0,0:0:0:0:
315,152,124414,2,0,L|390:145,1,72,2|8,0:0|0:0,0:0:0:0:
386,145,124767,2,0,L|461:151,1,72,2|8,0:0|0:0,0:0:0:0:
201,164,125120,6,0,P|229:229|290:266,2,144,6|2|2,0:0|0:0|0:0,0:0:0:0:
142,84,126179,6,0,P|184:67|227:66,1,72,2|8,0:0|0:0,0:0:0:0:
104,176,126532,2,0,P|69:149|46:112,1,72,2|0,0:0|0:0,0:0:0:0:
203,163,126884,2,0,P|197:208|177:246,1,72,2|0,0:0|0:0,0:0:0:0:
54,226,127237,2,0,P|75:197|104:176,1,72,2|8,0:0|0:0,0:0:0:0:
116,306,127590,2,0,P|155:331|197:339,1,72,2|8,0:0|0:0,0:0:0:0:
322,231,127943,5,2,0:0:0:0:
186,231,128296,1,2,0:0:0:0:
322,231,128649,1,2,0:0:0:0:
186,231,129002,1,2,0:0:0:0:
186,231,129355,5,2,0:0:0:0:
104,175,129532,1,2,0:0:0:0:
210,64,129708,1,2,0:3:0:0:
110,74,129884,2,0,P|72:70|38:67,1,72,2|0,0:0|0:0,0:0:0:0:
210,64,130237,1,10,0:0:0:0:
210,64,130326,1,8,0:0:0:0:
210,64,130414,1,2,0:3:0:0:
292,120,130590,1,8,0:0:0:0:
104,175,130767,5,12,0:0:0:0:
276,319,131120,1,0,0:0:0:0:
284,219,131296,1,4,0:3:0:0:
292,120,131473,1,2,0:3:0:0:
292,120,131826,6,0,L|367:113,1,72,8|0,0:0|0:0,0:0:0:0:
284,219,132179,1,4,0:3:0:0:
213,212,132355,1,2,0:3:0:0:
276,319,132532,1,0,0:0:0:0:
347,312,132708,1,4,0:3:0:0:
284,219,132884,2,0,L|209:212,1,72,2|0,0:3|0:0,0:0:0:0:
292,120,133237,1,4,0:3:0:0:
363,113,133414,1,0,0:0:0:0:
276,319,133590,6,0,L|132:306,1,144,8|0,0:0|0:0,0:0:0:0:
427,206,134296,2,0,L|284:219,1,144,2|4,0:3|0:3,0:0:0:0:
291,119,135002,2,0,L|220:113,2,72,4|2|0,0:3|0:3|0:0,0:0:0:0:
266,19,135532,1,4,0:3:0:0:
161,222,135708,5,2,0:3:0:0:
76,124,135973,5,2,0:3:0:0:
161,26,136237,5,2,0:3:0:0:
284,219,136414,2,0,P|368:178|386:98,1,180,12|8,0:3|0:0,0:0:0:0:
205,100,136943,2,0,P|245:120|290:118,1,90,4|8,0:3|0:0,0:0:0:0:
264,22,137296,1,4,0:3:0:0:
386,99,137473,1,8,0:0:0:0:
362,0,137649,1,4,0:3:0:0:
290,118,137826,5,8,0:0:0:0:
284,219,138002,1,4,0:3:0:0:
386,99,138179,1,8,0:0:0:0:
262,318,138355,2,0,P|221:299|194:265,1,90,4|8,0:3|0:0,0:0:0:0:
200,165,138708,1,4,0:3:0:0:
386,99,138884,1,2,0:3:0:0:
284,219,139061,1,4,0:3:0:0:
37,28,139237,5,10,0:3:0:0:
45,185,139414,1,4,0:3:0:0:
200,165,139590,1,8,0:0:0:0:
37,28,139767,5,10,0:3:0:0:
200,165,139943,1,4,0:3:0:0:
45,185,140120,5,8,0:0:0:0:
180,95,140296,1,2,0:3:0:0:
204,353,140473,2,0,L|193:263,1,90,12|0,0:0|0:0,0:0:0:0:
175,50,140826,6,0,L|180:103,1,45,2|0,0:3|0:0,0:0:0:0:
192,264,141002,1,10,0:0:0:0:
192,264,141355,6,0,L|243:263,1,45,4|0,0:3|0:0,0:0:0:0:
80,241,141532,6,0,P|56:209|41:176,1,67.5,12|0,0:1|0:0,0:0:0:0:
168,0,141884,6,0,P|124:74|164:161,1,198.000006042481,12|4,0:3|0:3,0:0:0:0:
119,331,142414,1,8,0:1:0:0:
266,169,142590,1,4,0:3:0:0:
264,120,142679,1,2,0:3:0:0:
238,78,142767,1,8,0:0:0:0:
164,161,142943,1,4,0:3:0:0:
357,53,143120,1,2,0:3:0:0:
208,254,143296,6,0,P|303:263|364:190,1,198.000006042481,10|4,0:0|0:3,0:0:0:0:
175,53,143826,2,0,P|220:74|249:113,1,99.0000030212403,8|4,0:1|0:3,0:0:0:0:
264,139,144090,1,2,0:3:0:0:
266,169,144179,1,8,0:0:0:0:
452,116,144355,1,4,0:3:0:0:
469,279,144532,6,0,P|472:242|468:214,1,49.5000015106202,2|0,0:3|0:0,0:0:0:0:
452,116,144708,2,0,P|449:79|453:51,1,49.5000015106202,4|0,0:3|0:0,0:0:0:0:
469,279,144884,6,0,B|416:272|416:272|370:275,1,99.0000030212403,12|0,0:0|0:0,0:0:0:0:
452,116,145237,1,8,0:1:0:0:
266,169,145414,1,4,0:3:0:0:
315,171,145502,1,2,0:3:0:0:
365,165,145590,1,8,0:0:0:0:
367,66,145767,1,4,0:3:0:0:
370,274,145943,1,2,0:3:0:0:
452,17,146120,6,0,P|465:73|450:118,1,99.0000030212403,12|0,0:3|0:0,0:0:0:0:
365,165,146473,1,4,0:3:0:0:
282,17,146649,1,8,0:1:0:0:
370,274,146826,1,8,0:0:0:0:
159,246,147002,6,0,L|207:253,1,49.5000015106202,4|2,0:3|0:3,0:0:0:0:
370,274,147179,1,4,0:3:0:0:
392,250,147267,1,4,0:3:0:0:
403,218,147355,1,8,0:1:0:0:
367,66,147532,1,8,0:0:0:0:
145,114,147708,5,10,0:0:0:0:
145,114,147884,1,4,0:3:0:0:
382,155,148061,1,8,0:1:0:0:
382,155,148237,1,4,0:3:0:0:
248,221,148414,1,8,0:0:0:0:
248,221,148590,1,4,0:3:0:0:
41,310,148767,1,8,0:1:0:0:
41,310,148943,1,4,0:3:0:0:
145,114,149120,5,8,0:0:0:0:
93,212,149296,1,4,0:3:0:0:
278,351,149473,1,8,0:1:0:0:
159,330,149649,1,4,0:3:0:0:
385,190,149826,5,8,0:0:0:0:
266,169,150002,1,4,0:3:0:0:
87,260,150179,2,0,P|93:235|92:211,1,49.5000015106202,2|0,0:3|0:0,0:0:0:0:
144,65,150355,2,0,P|140:89|144:113,1,49.5000015106202,0|0,0:0|0:0,0:0:0:0:
159,330,150532,6,0,P|211:325|258:321,1,99.0000030212403,10|4,0:3|0:3,0:0:0:0:
370,309,150884,1,4,0:3:0:0:
144,113,151061,1,10,0:1:0:0:
266,169,151237,1,8,0:0:0:0:
244,54,151414,1,4,0:3:0:0:
370,309,151590,1,2,0:3:0:0:
320,313,151679,1,4,0:3:0:0:
271,317,151767,6,0,P|219:322|172:326,1,99.0000030212403,10|0,0:0|0:0,0:0:0:0:
92,115,152120,1,4,0:3:0:0:
76,163,152208,1,4,0:3:0:0:
92,211,152296,1,4,0:3:0:0:
370,309,152473,2,0,P|389:265|387:208,1,99.0000030212403,12|0,0:0|0:0,0:0:0:0:
244,54,152826,1,8,0:1:0:0:
290,52,152914,1,8,0:1:0:0:
336,32,153002,1,2,0:3:0:0:
172,247,153179,6,0,P|179:341|270:316,1,215.999993408203,12|8,0:0|0:0,0:0:0:0:
388,214,153708,1,8,0:1:0:0:
244,54,153885,1,2,0:3:0:0:
190,49,153973,1,2,0:3:0:0:
136,44,154061,1,4,0:3:0:0:
310,246,154237,1,4,0:3:0:0:
161,154,154414,1,2,0:3:0:0:
377,298,154590,6,0,P|471:232|439:146,1,215.999993408203,12|4,0:3|0:3,0:0:0:0:
244,54,155120,1,8,0:1:0:0:
388,214,155296,1,4,0:3:0:0:
335,222,155384,1,2,0:3:0:0:
285,202,155473,1,8,0:0:0:0:
461,66,155649,1,8,0:0:0:0:
285,202,155826,6,0,P|281:169|275:143,1,53.9999983520508,2|0,0:3|0:0,0:0:0:0:
193,106,156002,2,0,P|187:79|184:52,1,53.9999983520508,4|4,0:3|0:3,0:0:0:0:
285,202,156179,6,0,B|340:198|340:198|393:205,1,107.999996704102,12|0,0:0|0:0,0:0:0:0:
115,158,156532,1,8,0:1:0:0:
77,267,156708,1,4,0:3:0:0:
132,272,156796,1,2,0:3:0:0:
182,253,156884,1,8,0:0:0:0:
88,64,157061,1,4,0:3:0:0:
11,322,157237,1,2,0:3:0:0:
184,51,157414,6,0,P|237:51|285:75,1,107.999996704102,12|0,0:0|0:0,0:0:0:0:
261,321,157767,1,2,0:3:0:0:
265,278,157855,1,2,0:3:0:0:
269,235,157943,1,2,0:3:0:0:
272,192,158032,1,2,0:3:0:0:
276,148,158120,6,0,L|411:159,1,135.000005149842,8|8,0:0|0:0,0:0:0:0:
215,230,158649,6,0,L|269:235,1,53.9999983520508,2|2,0:3|0:3,0:0:0:0:
360,268,158826,2,0,L|414:273,1,53.9999983520508,2|2,0:3|0:3,0:0:0:0:
124,263,159002,6,0,P|123:199|151:155,1,107.999996704102,10|4,0:0|0:3,0:0:0:0:
103,280,159355,5,8,0:0:0:0:
144,162,159532,1,4,0:3:0:0:
82,297,159708,5,8,0:0:0:0:
165,145,159884,1,4,0:3:0:0:
61,314,160061,5,8,0:0:0:0:
186,128,160237,1,4,0:3:0:0:
40,331,160414,5,8,0:0:0:0:
207,111,160590,1,4,0:3:0:0:
19,348,160767,5,8,0:0:0:0:
1,298,160855,1,4,0:3:0:0:
13,246,160943,1,4,0:3:0:0:
228,94,161120,1,8,0:0:0:0:
246,144,161208,1,4,0:3:0:0:
234,196,161296,1,4,0:3:0:0:
36,48,161473,1,2,0:3:0:0:
36,48,161649,1,4,0:3:0:0:
322,239,161826,6,0,L|268:234,1,53.9999983520508,8|0,0:1|0:0,0:0:0:0:
106,219,162002,2,0,L|159:223,1,53.9999983520508,8|0,0:0|0:0,0:0:0:0:
322,239,162179,1,4,0:3:0:0:
71,133,162355,6,0,L|123:137,1,53.9999983520508,8|0,0:1|0:0,0:0:0:0:
357,153,162532,2,0,L|304:149,1,53.9999983520508,8|0,0:0|0:0,0:0:0:0:
71,133,162708,1,4,0:3:0:0:
392,67,162884,6,0,L|338:62,1,53.9999983520508,8|0,0:1|0:0,0:0:0:0:
36,48,163061,1,12,0:3:0:0:
256,192,163149,12,4,164296,0:3:0:0:
165,72,164649,5,2,0:3:0:0:
151,73,164737,1,2,0:3:0:0:
138,75,164826,1,2,0:3:0:0:
124,77,164914,1,2,0:3:0:0:
111,78,165002,2,0,L|290:93,1,180,2|8,0:3|0:0,0:0:0:0:
428,187,165532,2,0,L|339:180,1,90,2|0,0:3|0:0,0:0:0:0:
149,170,165884,2,0,L|238:177,1,90,10|0,0:0|0:0,0:0:0:0:
238,355,166237,5,4,0:3:0:0:
339,180,166414,1,2,0:3:0:0:
185,264,166590,1,8,0:0:0:0:
350,346,166767,1,2,0:3:0:0:
286,266,166943,1,4,0:3:0:0:
84,262,167120,5,2,0:3:0:0:
84,262,167296,1,8,0:0:0:0:
165,72,167473,5,2,0:3:0:0:
151,73,167561,1,2,0:3:0:0:
138,75,167649,1,2,0:3:0:0:
124,77,167737,1,2,0:3:0:0:
111,78,167826,2,0,L|290:93,1,180,2|8,0:3|0:0,0:0:0:0:
149,170,168355,2,0,L|238:177,1,90,2|0,0:3|0:0,0:0:0:0:
428,187,168708,2,0,L|339:180,1,90,10|0,0:0|0:0,0:0:0:0:
238,355,169061,5,4,0:3:0:0:
238,177,169237,1,2,0:3:0:0:
350,346,169414,1,4,0:3:0:0:
185,264,169590,1,8,0:0:0:0:
286,266,169767,1,4,0:3:0:0:
84,262,169943,5,2,0:3:0:0:
84,262,170120,1,4,0:3:0:0:
165,72,170296,5,2,0:3:0:0:
151,73,170384,1,2,0:3:0:0:
138,75,170473,1,2,0:3:0:0:
124,77,170561,1,2,0:3:0:0:
111,78,170649,2,0,L|290:93,1,180,2|8,0:3|0:0,0:0:0:0:
375,273,171179,2,0,L|286:266,1,90,2|0,0:3|0:0,0:0:0:0:
84,262,171532,2,0,L|173:269,1,90,4|0,0:3|0:0,0:0:0:0:
338,179,171884,5,8,0:0:0:0:
238,177,172061,1,4,0:3:0:0:
132,369,172237,1,8,0:0:0:0:
238,355,172414,1,4,0:3:0:0:
285,265,172590,1,8,0:0:0:0:
290,93,172767,5,2,0:3:0:0:
290,93,172943,1,0,0:0:0:0:
84,262,173120,5,12,0:0:0:0:
84,262,173296,1,0,0:0:0:0:
84,262,173473,1,4,0:3:0:0:
84,262,173649,1,4,0:3:0:0:
171,158,173826,5,2,0:3:0:0:
290,93,174002,1,2,0:3:0:0:
409,158,174179,1,2,0:3:0:0:
447,288,174355,1,2,0:3:0:0:
171,158,174532,5,10,0:3:0:0:
185,159,174620,1,4,0:3:0:0:
198,161,174708,1,4,0:3:0:0:
212,163,174796,1,4,0:3:0:0:
225,164,174884,2,0,L|272:168,1,45,8|8,0:0|0:0,0:0:0:0:
84,262,175061,5,2,0:3:0:0:
129,266,175149,1,2,0:3:0:0:
174,270,175237,1,12,0:3:0:0:
357,280,175414,5,8,0:0:0:0:
312,276,175502,1,8,0:0:0:0:
267,272,175590,6,0,L|159:262,1,107.999996704102,2|0,0:3|0:0,0:0:0:0:
447,288,175943,6,0,L|443:238,1,45,12|4,0:3|0:3,0:0:0:0:
371,135,176120,2,0,L|368:180,1,45,4|4,0:3|0:3,0:0:0:0:
364,292,176296,1,2,0:3:0:0:
355,322,176384,1,4,0:3:0:0:
336,347,176473,2,0,L|291:350,1,45,4|2,0:3|0:3,0:0:0:0:
132,369,176649,1,8,0:0:0:0:
102,357,176737,1,4,0:3:0:0:
78,337,176826,2,0,L|75:292,1,45,4|4,0:3|0:3,0:0:0:0:
99,97,177002,5,2,0:3:0:0:
96,128,177090,1,4,0:3:0:0:
93,159,177179,2,0,L|90:204,1,45,4|4,0:3|0:3,0:0:0:0:
269,167,177355,6,0,L|224:163,1,45,8|4,0:0|0:3,0:0:0:0:
194,70,177532,2,0,L|238:74,1,45,4|4,0:3|0:3,0:0:0:0:
371,135,177708,1,2,0:3:0:0:
374,179,177796,1,4,0:3:0:0:
360,222,177884,2,0,P|341:246|323:258,1,45,4|2,0:3|0:3,0:0:0:0:
159,262,178061,1,8,0:0:0:0:
159,262,178149,1,0,0:0:0:0:
159,262,178237,6,0,L|114:258,1,45,4|0,0:3|0:0,0:0:0:0:
224,163,178414,2,0,L|179:159,1,45,2|0,0:3|0:0,0:0:0:0:
289,64,178590,2,0,L|244:60,1,45,4|0,0:3|0:0,0:0:0:0:
299,273,178767,6,0,B|362:254|382:193|382:193|369:133,1,180,8|2,0:0|0:3,0:0:0:0:
289,64,179296,1,4,0:3:0:0:
289,64,179384,1,2,0:3:0:0:
289,64,179473,1,8,0:0:0:0:
451,64,179649,1,8,0:0:0:0:
272,174,179826,1,2,0:3:0:0:
370,134,180002,1,4,0:3:0:0:
159,262,180179,6,0,L|67:253,1,90,8|0,0:0|0:0,0:0:0:0:
174,164,180532,1,2,0:3:0:0:
322,281,180708,1,4,0:3:0:0:
290,278,180796,1,2,0:3:0:0:
259,275,180884,1,8,0:0:0:0:
370,134,181061,1,8,0:0:0:0:
143,64,181237,2,0,P|166:62|188:65,1,45,2|0,0:3|0:0,0:0:0:0:
174,164,181414,2,0,P|148:166|127:163,1,45,4|4,0:3|0:3,0:0:0:0:
289,64,181590,6,0,B|286:110|262:133|262:133|319:175|318:237,1,180,10|2,0:0|0:3,0:0:0:0:
174,164,182120,1,4,0:3:0:0:
174,164,182208,1,2,0:3:0:0:
174,164,182296,1,8,0:0:0:0:
159,262,182473,1,8,0:0:0:0:
51,101,182649,1,2,0:3:0:0:
36,199,182826,1,4,0:3:0:0:
239,317,183002,5,8,0:0:0:0:
304,243,183179,1,4,0:3:0:0:
151,358,183355,1,2,0:3:0:0:
174,164,183532,1,4,0:3:0:0:
174,164,183620,1,2,0:3:0:0:
174,164,183708,1,8,0:0:0:0:
159,262,183884,1,8,0:0:0:0:
336,337,184061,1,2,0:3:0:0:
159,262,184237,2,0,L|215:263,1,45,4|0,0:3|0:0,0:0:0:0:
402,263,184414,5,10,0:3:0:0:
471,98,184590,1,4,0:3:0:0:
289,64,184767,1,4,0:3:0:0:
402,263,184943,5,2,0:3:0:0:
380,81,185120,1,4,0:3:0:0:
198,47,185296,1,4,0:3:0:0:
402,263,185473,5,2,0:3:0:0:
174,164,185649,1,4,0:3:0:0:
380,81,185826,5,10,0:3:0:0:
311,246,186002,1,8,0:0:0:0:
289,64,186179,1,8,0:0:0:0:
84,84,186355,5,2,0:3:0:0:
198,47,186532,1,8,0:0:0:0:
162,222,186708,1,8,0:0:0:0:
402,263,186884,6,0,P|378:316|351:269,1,135,2|0,0:3|0:0,0:0:0:0:
402,263,187237,6,0,L|222:278,1,180,12|2,0:0|0:3,0:0:0:0:
371,175,187767,1,4,0:3:0:0:
371,175,187855,1,2,0:3:0:0:
371,175,187943,1,8,0:0:0:0:
289,64,188120,1,8,0:0:0:0:
471,98,188296,1,2,0:3:0:0:
198,47,188473,6,0,P|200:94|225:134,1,90,10|0,0:0|0:0,0:0:0:0:
289,64,188826,1,4,0:3:0:0:
153,196,189002,1,2,0:3:0:0:
107,30,189179,1,4,0:3:0:0:
107,30,189267,1,2,0:3:0:0:
107,30,189355,1,8,0:0:0:0:
39,96,189532,5,8,0:0:0:0:
198,47,189708,1,2,0:3:0:0:
153,196,189884,1,4,0:3:0:0:
380,81,190061,6,0,L|289:72,1,90,12|4,0:0|0:3,0:0:0:0:
437,181,190414,1,2,0:3:0:0:
441,11,190590,1,4,0:3:0:0:
441,11,190679,1,2,0:3:0:0:
441,11,190767,1,8,0:0:0:0:
496,92,190943,1,8,0:0:0:0:
322,181,191120,1,2,0:3:0:0:
107,30,191296,6,0,P|109:77|134:117,1,90,10|0,0:0|0:0,0:0:0:0:
198,47,191649,1,4,0:3:0:0:
153,196,191826,1,2,0:3:0:0:
322,181,192002,1,4,0:3:0:0:
322,181,192090,1,2,0:3:0:0:
322,181,192179,1,8,0:0:0:0:
242,240,192355,1,8,0:0:0:0:
290,72,192532,1,2,0:3:0:0:
153,196,192708,1,4,0:3:0:0:
380,81,192884,6,0,L|289:72,1,90,12|4,0:0|0:3,0:0:0:0:
242,240,193237,1,2,0:3:0:0:
198,47,193414,1,4,0:3:0:0:
198,47,193502,1,2,0:3:0:0:
198,47,193590,1,8,0:0:0:0:
130,113,193767,1,8,0:0:0:0:
242,240,193943,1,2,0:3:0:0:
50,91,194120,6,0,P|52:138|77:178,1,90,10|0,0:0|0:0,0:0:0:0:
133,272,194473,1,8,0:0:0:0:
222,139,194649,1,2,0:3:0:0:
215,350,194826,1,4,0:3:0:0:
215,350,194914,1,2,0:3:0:0:
215,350,195002,1,8,0:0:0:0:
242,240,195179,1,8,0:0:0:0:
51,350,195355,1,2,0:3:0:0:
51,350,195708,6,0,L|44:259,2,90,12|0|0,0:0|0:0|0:0,0:0:0:0:
133,272,196237,1,8,0:0:0:0:
323,318,196414,1,2,0:3:0:0:
242,240,196590,1,4,0:3:0:0:
319,172,196767,1,4,0:3:0:0:
42,123,196943,6,0,L|222:139,1,180,8|2,0:0|0:3,0:0:0:0:
319,172,197473,1,4,0:3:0:0:
397,105,197649,1,8,0:0:0:0:
404,240,197826,1,2,0:3:0:0:
300,72,198002,5,8,0:0:0:0:
242,240,198179,1,2,0:3:0:0:
404,240,198355,1,4,0:3:0:0:
199,54,198532,6,0,P|200:98|221:138,1,90,12|0,0:0|0:0,0:0:0:0:
319,172,198884,1,2,0:3:0:0:
98,36,199061,1,4,0:3:0:0:
163,324,199237,1,2,0:3:0:0:
179,283,199326,1,2,0:3:0:0:
177,238,199414,1,2,0:3:0:0:
157,199,199502,1,2,0:3:0:0:
123,172,199590,1,8,0:0:0:0:
404,240,199767,6,0,L|316:214,1,90,12|0,0:0|0:0,0:0:0:0:
123,172,200120,6,0,L|172:186,1,45,2|0,0:3|0:0,0:0:0:0:
491,277,200296,1,10,0:0:0:0:
215,338,206649,5,4,0:3:0:0:
215,338,207002,2,0,P|290:301|317:230,1,161.999995056153,10|8,0:0|0:0,0:0:0:0:
102,118,207708,2,0,P|132:191|203:224,1,161.999995056153,8|8,0:0|0:0,0:0:0:0:
372,28,208414,2,0,P|298:58|265:129,1,161.999995056153,8|8,0:0|0:0,0:0:0:0:
215,338,209120,5,8,0:0:0:0:
215,338,209473,6,0,L|114:346,1,101.250003862381,8|0,0:0|0:0,0:0:0:0:
70,349,209826,5,10,0:0:0:0:
86,233,210002,1,2,0:3:0:0:
102,118,210179,1,8,0:0:0:0:
215,338,210355,5,10,0:0:0:0:
264,129,210532,1,2,0:3:0:0:
403,299,210708,1,2,0:3:0:0:
214,221,210884,1,2,0:3:0:0:
485,148,211061,5,12,0:0:0:0:
308,271,211237,1,0,0:0:0:0:
485,244,211414,1,2,0:3:0:0:
501,196,211502,1,2,0:3:0:0:
485,148,211590,1,2,0:3:0:0:
170,226,211767,6,0,L|213:222,1,45,12|0,0:0|0:0,0:0:0:0:
297,126,211943,2,0,L|253:129,1,45
86,221,212120,6,0,P|89:243|97:264,1,45,2|2,0:3|0:3,0:0:0:0:
378,130,212296,2,0,P|377:108|369:87,1,45,2|2,0:3|0:3,0:0:0:0:
173,325,212473,6,0,L|268:317,1,90,8|8,0:0|0:0,0:0:0:0:
294,27,213002,6,0,P|180:33|199:145,1,233.999989288331,12|8,0:1|0:1,0:0:0:0:
262,317,213532,1,4,0:3:0:0:
296,269,213620,1,2,0:3:0:0:
297,212,213708,1,2,0:3:0:0:
46,200,213884,6,0,P|80:99|181:129,1,233.999989288331,12|4,0:3|0:3,0:0:0:0:
262,317,214414,1,8,0:1:0:0:
477,154,214590,1,4,0:3:0:0:
493,209,214679,1,2,0:3:0:0:
475,264,214767,1,8,0:0:0:0:
378,130,214943,1,8,0:0:0:0:
262,317,215120,6,0,L|321:312,1,58.4999973220826,2|0,0:3|0:0,0:0:0:0:
475,264,215296,2,0,L|416:269,1,58.4999973220826,4|4,0:3|0:3,0:0:0:0:
91,345,215473,6,0,P|130:305|129:236,1,116.999994644165,12|0,0:0|0:0,0:0:0:0:
241,81,215826,1,8,0:1:0:0:
70,126,216002,1,4,0:3:0:0:
125,110,216090,1,2,0:3:0:0:
180,128,216179,1,8,0:0:0:0:
262,317,216355,1,4,0:3:0:0:
302,34,216532,1,2,0:3:0:0:
48,246,216708,6,0,P|50:303|90:344,1,116.999994644165,12|0,0:0|0:0,0:0:0:0:
369,374,217061,1,2,0:3:0:0:
398,324,217149,1,2,0:3:0:0:
396,266,217237,1,2,0:3:0:0:
363,219,217326,1,2,0:3:0:0:
306,211,217414,6,0,L|150:224,1,153.000002918243,8|8,0:0|0:0,0:0:0:0:
154,166,217943,6,0,P|149:198|155:228,1,58.4999973220826,2|2,0:3|0:3,0:0:0:0:
166,375,218120,2,0,P|171:343|165:313,1,58.4999973220826,2|2,0:3|0:3,0:0:0:0:
167,72,218296,6,0,L|286:61,1,116.999994644165,10|4,0:0|0:3,0:0:0:0:
137,74,218649,5,8,0:0:0:0:
153,223,218826,1,4,0:3:0:0:
108,76,219002,5,8,0:0:0:0:
182,221,219179,1,4,0:3:0:0:
79,78,219355,5,8,0:0:0:0:
211,223,219532,1,4,0:3:0:0:
50,80,219708,5,8,0:0:0:0:
240,225,219884,1,4,0:3:0:0:
21,82,220061,5,8,0:0:0:0:
5,137,220149,1,4,0:3:0:0:
23,192,220237,1,4,0:3:0:0:
271,337,220414,1,8,0:0:0:0:
287,282,220502,1,4,0:3:0:0:
269,227,220590,1,4,0:3:0:0:
137,74,220767,1,2,0:3:0:0:
137,74,220943,1,4,0:3:0:0:
425,223,221120,6,0,P|396:230|367:232,1,58.4999973220826,8|0,0:1|0:0,0:0:0:0:
268,227,221296,2,0,P|275:200|286:176,1,53.9999983520508,8|0,0:0|0:0,0:0:0:0:
345,94,221473,1,4,0:3:0:0:
284,310,221649,6,0,P|251:307|225:298,1,53.9999983520508,8|0,0:1|0:0,0:0:0:0:
174,213,221826,2,0,P|181:186|192:162,1,53.9999983520508,8|0,0:0|0:0,0:0:0:0:
345,94,222002,1,4,0:3:0:0:
62,249,222179,6,0,P|69:222|80:198,1,53.9999983520508,8|0,0:1|0:0,0:0:0:0:
345,94,222355,1,12,0:3:0:0:
345,94,223590,1,4,0:3:0:0:
345,94,223943,6,0,L|161:110,1,180,12|8,0:3|0:1,0:0:0:0:
51,127,224473,1,4,0:3:0:0:
51,127,224561,1,4,0:3:0:0:
51,127,224649,1,8,0:0:0:0:
107,301,224826,1,4,0:3:0:0:
123,259,224914,1,4,0:3:0:0:
122,215,225002,1,2,0:3:0:0:
414,214,225179,6,0,L|234:197,1,180,10|4,0:0|0:3,0:0:0:0:
345,94,225708,1,2,0:3:0:0:
123,140,225884,1,4,0:3:0:0:
123,140,225973,1,2,0:3:0:0:
123,140,226061,1,8,0:0:0:0:
231,85,226237,1,8,0:0:0:0:
130,265,226414,1,8,0:1:0:0:
29,85,226590,1,4,0:3:0:0:
211,306,226767,6,0,L|390:289,1,180,12|8,0:0|0:1,0:0:0:0:
503,279,227296,1,4,0:3:0:0:
418,101,227473,1,2,0:3:0:0:
416,123,227561,1,2,0:3:0:0:
419,146,227649,1,4,0:3:0:0:
426,167,227737,1,4,0:3:0:0:
438,187,227826,1,8,0:1:0:0:
231,85,228002,6,0,L|411:102,1,180,10|8,0:0|0:0,0:0:0:0:
326,209,228532,1,2,0:3:0:0:
123,140,228708,1,4,0:3:0:0:
123,140,228796,1,4,0:3:0:0:
123,140,228884,1,2,0:3:0:0:
211,306,229061,1,4,0:3:0:0:
211,306,229149,1,4,0:3:0:0:
211,306,229237,1,8,0:1:0:0:
35,306,229414,2,0,L|-17:307,1,45,4|2,0:3|0:3,0:0:0:0:
211,306,229590,6,0,P|271:253|225:175,1,180,12|8,0:1|0:1,0:0:0:0:
122,52,230120,1,4,0:3:0:0:
114,96,230208,1,2,0:3:0:0:
123,140,230296,1,8,0:0:0:0:
221,79,230473,1,4,0:3:0:0:
149,234,230649,1,8,0:1:0:0:
294,7,230826,6,0,P|323:83|273:168,1,180,10|8,0:0|0:0,0:0:0:0:
149,234,231355,1,2,0:3:0:0:
221,79,231532,1,4,0:3:0:0:
221,79,231620,1,2,0:3:0:0:
221,79,231708,1,8,0:0:0:0:
123,140,231884,1,4,0:3:0:0:
278,164,232061,1,8,0:1:0:0:
189,46,232237,2,0,P|206:61|221:79,1,45,4|4,0:3|0:3,0:0:0:0:
254,274,232414,6,0,P|331:262|386:175,1,180,12|2,0:0|0:3,0:0:0:0:
347,80,232943,1,4,0:3:0:0:
491,170,233120,1,8,0:1:0:0:
460,60,233296,1,4,0:3:0:0:
448,268,233473,1,2,0:3:0:0:
167,97,233649,6,0,L|346:80,1,180,10|8,0:0|0:0,0:0:0:0:
254,274,234179,1,2,0:3:0:0:
246,230,234267,1,4,0:3:0:0:
255,186,234355,1,4,0:3:0:0:
448,268,234532,5,2,0:3:0:0:
425,269,234620,1,8,0:0:0:0:
403,271,234708,1,4,0:3:0:0:
380,273,234796,1,8,0:0:0:0:
358,275,234884,1,8,0:1:0:0:
109,292,235061,1,8,0:0:0:0:
154,288,235149,1,4,0:3:0:0:
199,285,235237,1,12,0:0:0:0:
87,175,235414,6,0,L|135:194,1,45,4|0,0:3|0:0,0:0:0:0:
358,275,235590,1,8,0:1:0:0:
366,231,235679,1,4,0:3:0:0:
359,187,235767,2,0,P|348:143|322:106,1,90,10|0,0:0|0:0,0:0:0:0:
37,100,236120,6,0,L|91:102,1,45,4|4,0:3|0:3,0:0:0:0:
173,192,236296,2,0,L|129:191,1,45,4|4,0:3|0:3,0:0:0:0:
183,105,236473,2,0,L|228:107,1,45,4|4,0:3|0:3,0:0:0:0:
475,115,236649,1,12,0:0:0:0:
333,260,236826,5,2,0:3:0:0:
316,246,236914,1,2,0:3:0:0:
301,228,237002,1,8,0:1:0:0:
291,208,237090,1,2,0:3:0:0:
286,186,237179,2,0,P|296:143|322:106,1,90,10|0,0:0|0:0,0:0:0:0:
448,268,237532,1,2,0:3:0:0:
403,49,237708,1,2,0:3:0:0:
403,49,237884,1,8,0:0:0:0:
170,331,238061,6,0,P|199:327|234:313,1,53.9999983520508,8|0,0:1|0:0,0:0:0:0:
333,260,238237,2,0,P|355:245|372:223,1,53.9999983520508,8|0,0:0|0:0,0:0:0:0:
373,224,238414,1,4,0:3:0:0:
225,35,238590,6,0,L|276:43,1,53.9999983520508,8|0,0:1|0:0,0:0:0:0:
509,80,238767,2,0,L|456:71,1,53.9999983520508,8|0,0:0|0:0,0:0:0:0:
225,35,238943,1,4,0:3:0:0:
356,307,239120,6,0,P|347:280|332:258,1,53.9999983520508,8|0,0:1|0:0,0:0:0:0:
225,35,239296,1,12,0:3:0:0:
256,192,239384,12,0,245826,0:0:0:0:
