osu file format v14

[General]
AudioFilename: ED.mp3
AudioLeadIn: 2000
PreviewTime: 43959
Countdown: 0
SampleSet: Soft
StackLeniency: 0.7
Mode: 0
LetterboxInBreaks: 0
WidescreenStoryboard: 0

[Editor]
DistanceSpacing: 2
BeatDivisor: 4
GridSize: 4
TimelineZoom: 2.799999

[Metadata]
Title:Harmonized Clover
TitleUnicode:ハーモナイズ・クローバー
Artist:Maon Kurosaki
ArtistUnicode:黒崎真音
Creator:Karen
Version:Insane
Source:がっこうぐらし!
Tags:Gakkou Gurashi! ending tv size kawaiwkyik rizia Mackenzie wcx19911123 IamKwaN
BeatmapID:751936
BeatmapSetID:339907

[Difficulty]
HPDrainRate:6
CircleSize:4
OverallDifficulty:7
ApproachRate:8.3
SliderMultiplier:2.1
SliderTickRate:1

[Events]
//Background and Video events
0,0,"bgg.jpg",0,0
Video,-609,"Video.avi"
//Break Periods
//Storyboard Layer 0 (Background)
//Storyboard Layer 1 (Fail)
//Storyboard Layer 2 (Pass)
//Storyboard Layer 3 (Foreground)
//Storyboard Sound Samples

[TimingPoints]
1079,652.173913043478,4,2,1,50,1,0
21949,-90.9090909090909,4,2,1,60,0,0
34014,-90.9090909090909,4,2,1,40,0,0
34992,-90.9090909090909,4,2,1,60,0,0
40210,-90.9090909090909,4,2,1,65,0,0
45426,-83.3333333333333,4,2,1,75,0,1
81948,-117.647058823529,4,2,1,75,0,1
84557,-100,4,2,1,50,0,0
87166,-100,4,2,1,5,0,0

[Colours]
Combo1 : 208,104,0
Combo2 : 105,105,105
Combo3 : 210,0,105
Combo4 : 255,68,68

[HitObjects]
216,232,427,5,8,0:3:0:0:
313,270,590,1,8,0:3:0:0:
412,308,753,1,8,0:3:0:0:
457,127,1079,6,0,P|403:102|337:106,1,105,4|0,0:0|0:0,0:0:0:0:
216,232,1731,2,0,L|229:122,1,105,8|0,0:1|0:0,0:0:0:0:
208,24,2220,1,0,0:0:0:0:
113,70,2384,2,0,P|31:77|-27:61,1,105
208,24,3036,2,0,L|358:28,1,105,8|0,0:1|0:0,0:0:0:0:
406,73,3525,1,0,0:0:0:0:
453,166,3688,6,0,P|395:172|332:145,1,105
142,139,4340,2,0,L|130:277,1,105,8|0,0:1|0:0,0:0:0:0:
78,333,4829,1,0,0:0:0:0:
216,272,4992,1,0,0:0:0:0:
78,333,5155,1,8,0:1:0:0:
236,244,5318,1,0,0:0:0:0:
30,239,5644,1,8,0:1:0:0:
184,331,5970,2,0,L|146:376,1,52.5
236,244,6297,6,0,P|277:286|281:354,1,105
144,204,6786,1,0,0:0:0:0:
290,152,6949,2,0,P|344:138|433:170,1,105,8|0,0:1|0:0,0:0:0:0:
469,216,7438,1,0,0:0:0:0:
473,319,7601,2,0,B|420:314|382:269,1,105
468,111,8253,2,0,L|469:228,1,105,8|0,0:1|0:0,0:0:0:0:
290,152,8905,5,0,0:0:0:0:
398,2,9231,1,0,0:0:0:0:
236,40,9557,2,0,P|184:56|122:40,1,105,8|0,0:1|0:0,0:0:0:0:
30,30,10047,1,0,0:0:0:0:
11,135,10210,2,0,L|14:222,1,52.5,0|8,0:0|0:1,0:0:0:0:
111,264,10536,2,0,L|108:136,1,105,0|8,0:0|0:1,0:0:0:0:
307,91,11188,2,0,L|374:81,1,52.5
445,23,11514,6,0,P|464:75|427:161,1,105
320,274,12166,2,0,P|301:222|338:136,1,105,8|0,0:1|0:0,0:0:0:0:
419,270,12655,1,0,0:0:0:0:
378,366,12818,2,0,L|231:366,1,105
101,299,13470,1,8,0:1:0:0:
201,146,13797,1,0,0:0:0:0:
110,92,13960,1,0,0:0:0:0:
108,194,14123,6,0,L|98:335,1,105
229,241,14775,1,8,0:1:0:0:
110,92,15101,1,0,0:0:0:0:
207,43,15264,1,0,0:0:0:0:
201,146,15427,1,0,0:0:0:0:
110,92,15590,1,8,0:1:0:0:
298,102,15753,1,0,0:0:0:0:
108,194,16079,1,8,0:1:0:0:
291,205,16405,1,0,0:0:0:0:
291,205,16568,1,0,0:0:0:0:
291,205,16731,6,0,P|356:185|407:129,1,105
422,63,17220,1,0,0:0:0:0:
477,200,17384,2,0,P|435:248|372:277,1,105,8|0,0:1|0:0,0:0:0:0:
291,205,17873,1,0,0:0:0:0:
307,305,18036,1,0,0:0:0:0:
393,364,18199,1,8,0:1:0:0:
495,343,18362,1,0,0:0:0:0:
307,305,18688,2,0,L|162:308,1,105,8|0,0:1|0:0,0:0:0:0:
101,275,19177,1,0,0:0:0:0:
101,275,19340,6,0,P|83:331|9:369,1,105
102,156,19992,2,0,P|152:166|206:249,1,105,8|0,0:1|0:0,0:0:0:0:
4,214,20644,2,0,P|-7:189|-6:132,2,52.5,8|8|0,0:3|0:1|0:0,0:0:0:0:
149,61,21297,1,8,0:1:0:0:
102,156,21460,1,8,0:1:0:0:
44,68,21623,2,0,L|2:18,1,52.5,8|0,0:3|0:0,0:0:0:0:
149,61,21949,6,0,P|191:91|206:177,1,115.50000352478,4|0,0:0|0:0,0:0:0:0:
44,68,22601,1,8,0:1:0:0:
273,97,22927,1,0,0:0:0:0:
273,97,23090,2,0,L|381:95,1,57.7500017623902
429,36,23416,1,8,0:1:0:0:
435,151,23579,2,0,B|434:205|432:235|432:235|461:272,2,115.50000352478,0|8|0,0:0|0:1|0:0,0:0:0:0:
409,378,24557,5,0,0:0:0:0:
283,183,24884,1,0,0:0:0:0:
495,273,25210,2,0,L|365:273,1,115.50000352478,8|0,0:1|0:0,0:0:0:0:
296,353,25699,1,0,0:0:0:0:
409,378,25862,2,0,L|489:377,2,57.7500017623902,0|8|0,0:0|0:1|0:0,0:0:0:0:
184,323,26514,1,8,0:1:0:0:
370,186,26840,1,0,0:0:0:0:
142,224,27166,6,0,P|83:234|8:199,2,115.50000352478,0|0|8,0:0|0:0|0:1,0:0:0:0:
370,186,28144,1,0,0:0:0:0:
370,186,28307,1,0,0:0:0:0:
370,186,28470,2,0,L|393:46,1,115.50000352478
157,43,29123,1,8,0:1:0:0:
161,267,29449,1,0,0:0:0:0:
241,180,29612,1,0,0:0:0:0:
212,63,29775,6,0,L|145:39,1,57.7500017623902,0|8,0:0|0:1,0:0:0:0:
241,180,30101,2,0,P|297:147|333:70,1,115.50000352478,0|8,0:0|0:1,0:0:0:0:
94,131,30753,1,0,0:0:0:0:
94,131,30916,1,0,0:0:0:0:
94,131,31079,2,0,L|101:287,1,115.50000352478
23,333,31568,1,0,0:0:0:0:
174,338,31731,1,8,0:1:0:0:
99,246,31894,1,8,0:1:0:0:
10,365,32057,1,8,0:3:0:0:
214,231,32384,5,2,0:0:0:0:
214,231,33036,1,2,0:0:0:0:
214,231,33688,1,2,0:0:0:0:
446,237,34014,2,0,L|442:199,3,38.5000011749268,0|0|0|2,0:0|0:0|0:0|0:0,0:0:0:0:
462,12,34666,1,0,0:0:0:0:
261,82,34992,5,2,0:0:0:0:
261,82,35644,1,2,0:0:0:0:
261,82,36297,1,2,0:0:0:0:
489,126,37601,6,0,L|346:120,1,115.50000352478,4|4,0:0|0:3,0:0:0:0:
261,82,38090,1,0,0:0:0:0:
361,24,38253,2,0,L|509:29,1,115.50000352478,2|0,0:0|0:0,0:0:0:0:
415,250,38905,1,4,3:3:0:0:
415,250,39068,1,4,0:3:0:0:
415,250,39231,2,0,L|306:248,1,57.7500017623902,8|0,0:3|0:0,0:0:0:0:
459,359,39557,2,0,P|511:318|530:218,1,115.50000352478,4|0,3:0|0:0,0:0:0:0:
415,250,40047,1,0,0:0:0:0:
309,357,40210,6,0,L|153:355,1,115.50000352478,4|0,0:0|0:0,0:0:0:0:
82,153,40862,1,8,0:1:0:0:
311,159,41188,1,8,0:1:0:0:
145,60,41514,2,0,P|54:44|0:72,1,115.50000352478,8|8,0:1|0:1,0:0:0:0:
82,153,42003,1,0,0:0:0:0:
196,168,42166,2,0,L|352:156,1,115.50000352478,8|8,0:1|0:1,0:0:0:0:
362,55,42655,1,0,0:0:0:0:
428,201,42818,5,4,0:0:0:0:
428,201,43797,1,0,0:0:0:0:
213,114,44123,6,0,L|206:43,1,57.7500017623902,8|0,0:1|0:0,0:0:0:0:
315,96,44449,2,0,L|320:153,1,57.7500017623902,8|0,0:1|0:0,0:0:0:0:
215,190,44775,2,0,L|133:197,1,57.7500017623902,8|0,0:0|0:0,0:0:0:0:
96,293,45101,2,0,L|180:284,1,57.7500017623902,8|0,0:0|0:0,0:0:0:0:
295,288,45427,6,0,P|355:298|418:259,2,125.999996154785,4|0|8,0:0|0:0|0:0,0:0:0:0:
215,190,46242,1,0,0:0:0:0:
338,214,46405,2,0,L|370:367,1,125.999996154785,0|2,0:0|0:0,0:0:0:0:
497,123,47057,1,0,0:0:0:0:
251,79,47384,2,0,P|181:75|124:120,1,125.999996154785,8|0,0:0|0:0,0:0:0:0:
84,220,47873,1,0,0:0:0:0:
2,124,48036,6,0,L|27:-10,1,125.999996154785,2|0,0:0|0:0,0:0:0:0:
215,190,48688,1,8,0:0:0:0:
20,350,49014,1,0,0:0:0:0:
144,330,49177,1,0,0:0:0:0:
84,220,49340,2,0,L|-16:220,1,62.9999980773926,2|8,0:0|0:0,0:0:0:0:
129,123,49666,2,0,P|176:90|281:93,1,125.999996154785,0|8,0:0|0:0,0:0:0:0:
474,180,50318,1,0,0:0:0:0:
424,64,50481,1,0,0:0:0:0:
351,166,50644,6,0,L|357:322,1,125.999996154785,2|0,0:0|0:0,0:0:0:0:
111,356,51297,2,0,L|106:230,1,125.999996154785,8|0,0:0|0:0,0:0:0:0:
215,167,51786,1,0,0:0:0:0:
235,287,51949,2,0,P|290:305|371:282,1,125.999996154785,2|0,0:0|0:0,0:0:0:0:
474,69,52601,2,0,L|305:64,1,125.999996154785,8|0,0:0|0:0,0:0:0:0:
232,14,53090,1,0,0:0:0:0:
215,167,53253,6,0,L|372:173,1,125.999996154785,2|0,0:0|0:0,0:0:0:0:
455,301,53905,1,8,0:0:0:0:
244,285,54231,1,0,0:0:0:0:
135,348,54394,1,0,0:0:0:0:
30,277,54557,2,0,L|26:366,2,62.9999980773926,2|8|0,0:0|0:0|0:0,0:0:0:0:
40,150,55047,1,0,0:0:0:0:
138,229,55210,2,0,P|167:262|257:283,1,125.999996154785,8|0,0:0|0:0,0:0:0:0:
340,204,55699,1,0,0:0:0:0:
165,144,55862,6,0,L|30:150,1,125.999996154785,4|0,0:0|0:0,0:0:0:0:
260,29,56514,1,8,0:0:0:0:
462,179,56840,1,0,0:0:0:0:
340,204,57003,1,0,0:0:0:0:
378,84,57166,1,2,0:0:0:0:
298,323,57492,1,0,0:0:0:0:
462,179,57818,2,0,P|500:116|498:49,1,125.999996154785,8|0,0:0|0:0,0:0:0:0:
378,84,58307,1,0,0:0:0:0:
340,204,58470,6,0,P|369:262|449:299,1,125.999996154785,2|0,0:0|0:0,0:0:0:0:
378,84,59123,1,8,0:0:0:0:
196,258,59449,1,0,0:0:0:0:
194,132,59612,1,0,0:0:0:0:
88,200,59775,2,0,L|7:190,1,62.9999980773926,2|8,0:0|0:0,0:0:0:0:
36,327,60101,2,0,L|125:339,1,62.9999980773926
321,271,60427,2,0,L|186:256,1,125.999996154785,8|0,0:0|0:0,0:0:0:0:
88,200,60916,1,0,0:0:0:0:
16,75,61079,6,0,P|69:60|187:83,1,125.999996154785,2|0,0:0|0:0,0:0:0:0:
355,156,61731,1,8,0:0:0:0:
203,294,62057,1,0,0:0:0:0:
151,178,62220,1,0,0:0:0:0:
241,91,62384,2,0,P|294:32|369:25,1,125.999996154785,2|0,0:0|0:0,0:0:0:0:
355,156,62873,1,0,0:0:0:0:
241,91,63036,2,0,L|59:90,1,125.999996154785,8|0,0:0|0:0,0:0:0:0:
178,336,63688,5,2,0:0:0:0:
355,156,64014,1,0,0:0:0:0:
105,187,64340,1,8,0:0:0:0:
327,304,64666,1,0,3:0:0:0:
327,304,64829,1,0,3:0:0:0:
327,304,64992,6,0,L|411:297,2,62.9999980773926,2|8|0,0:0|0:2|3:0,0:0:0:0:
296,182,65481,1,0,3:0:0:0:
296,182,65563,1,0,3:0:0:0:
296,182,65644,1,8,0:2:0:0:
383,31,65807,1,8,0:2:0:0:
410,169,65970,1,2,0:0:0:0:
290,70,66134,1,0,0:0:0:0:
473,86,66297,6,0,P|516:163|484:239,2,125.999996154785,4|0|8,0:0|0:0|0:0,0:0:0:0:
377,319,67275,1,0,0:0:0:0:
498,352,67438,1,0,0:0:0:0:
385,195,67601,2,0,P|313:210|265:284,1,125.999996154785,2|0,0:0|0:0,0:0:0:0:
53,359,68253,1,8,0:0:0:0:
20,109,68579,1,0,0:0:0:0:
102,204,68742,1,0,0:0:0:0:
192,115,68905,6,0,L|302:133,2,62.9999980773926,2|8|0,0:0|0:0|0:0,0:0:0:0:
7,286,69557,1,8,0:0:0:0:
245,370,69884,1,0,0:0:0:0:
216,247,70047,1,0,0:0:0:0:
124,332,70210,2,0,L|285:382,1,125.999996154785,2|0,0:0|0:0,0:0:0:0:
425,194,70862,1,8,0:0:0:0:
192,115,71188,1,0,0:0:0:0:
288,34,71351,1,0,0:0:0:0:
309,158,71514,6,0,L|317:316,1,125.999996154785,2|0,0:0|0:0,0:0:0:0:
511,124,72166,1,8,0:0:0:0:
288,34,72492,1,0,0:0:0:0:
192,115,72655,1,0,0:0:0:0:
309,158,72818,2,0,P|374:189|446:191,1,125.999996154785,2|0,0:0|0:0,0:0:0:0:
192,115,73470,2,0,L|34:111,1,125.999996154785,8|0,0:0|0:0,0:0:0:0:
5,222,73960,1,0,0:0:0:0:
20,347,74123,6,0,B|41:363|41:363|88:349|159:364,1,125.999996154785,2|0,0:0|0:0,0:0:0:0:
367,300,74775,2,0,B|345:283|345:283|299:298|227:282,1,125.999996154785,8|0,0:0|0:0,0:0:0:0:
286,166,75264,1,0,0:0:0:0:
410,146,75427,1,2,0:0:0:0:
464,32,75590,1,8,0:0:0:0:
410,146,75753,2,0,L|463:294,1,125.999996154785,0|8,0:0|0:0,0:0:0:0:
333,42,76405,1,0,0:0:0:0:
207,46,76568,1,0,0:0:0:0:
138,154,76731,6,0,P|83:80|89:9,1,125.999996154785,4|0,0:0|0:0,0:0:0:0:
333,42,77384,1,8,0:0:0:0:
342,293,77710,1,0,0:0:0:0:
237,222,77873,1,0,0:0:0:0:
199,342,78036,2,0,L|54:352,1,125.999996154785,2|0,0:0|0:0,0:0:0:0:
22,103,78688,1,8,0:0:0:0:
273,99,79014,1,0,0:0:0:0:
237,222,79177,1,0,0:0:0:0:
361,227,79340,6,0,P|331:304|227:346,1,188.999994232178,4|0,0:0|0:0,0:0:0:0:
114,341,79992,2,0,P|144:264|248:222,1,188.999994232178,4|0,0:0|0:0,0:0:0:0:
362,227,80644,2,0,P|331:144|224:104,1,188.999994232178,4|8,0:0|0:1,0:0:0:0:
118,116,81297,1,8,0:1:0:0:
193,217,81460,1,8,0:1:0:0:
173,23,81623,1,4,0:3:0:0:
338,90,81949,6,0,P|271:80|212:119,2,133.875002553463,4|0|0,0:0|0:0|0:0,0:0:0:0:
300,211,83253,2,0,B|315:257|315:257|366:206|451:232,1,178.500003404617,4|2,0:0|0:0,0:0:0:0:
395,337,84231,1,4,3:3:0:0:
395,337,84394,1,0,0:0:0:0:
395,337,84557,1,4,0:0:0:0:
256,192,84720,12,0,87166,0:0:0:0:
