osu file format v14

[General]
AudioFilename: audio.mp3
AudioLeadIn: 0
PreviewTime: 54491
Countdown: 0
SampleSet: Soft
StackLeniency: 0.7
Mode: 1
LetterboxInBreaks: 0
WidescreenStoryboard: 0

[Editor]
DistanceSpacing: 0.7
BeatDivisor: 4
GridSize: 16
TimelineZoom: 1

[Metadata]
Title:Harmonize Clover
TitleUnicode:ハーモナイズ・クローバー
Artist:Maon Kurosaki
ArtistUnicode:黒崎真音
Creator:n1doking
Version:Delusion
Source:がっこうぐらし!
Tags:gakkou gurashi! ending
BeatmapID:997421
BeatmapSetID:465961

[Difficulty]
HPDrainRate:6
CircleSize:2
OverallDifficulty:6
ApproachRate:5
SliderMultiplier:1.4
SliderTickRate:1

[Events]
//Background and Video events
0,0,"funnypicturename.jpg",0,50
//Break Periods
//Storyboard Layer 0 (Background)
//Storyboard Layer 1 (Fail)
//Storyboard Layer 2 (Pass)
//Storyboard Layer 3 (Foreground)
//Storyboard Sound Samples

[TimingPoints]
1176,652.173913043478,4,2,0,60,1,0
10958,-100,4,2,0,70,0,0
42711,-100,4,2,0,60,0,0
48132,-97.0873786407767,4,2,0,70,0,0
49436,-94.3396226415094,4,2,0,70,0,0
50741,-91.743119266055,4,2,0,75,0,0
51393,-86.2068965517241,4,2,0,75,0,0
52045,-85.4700854700855,4,2,0,75,0,0
52697,-84.7457627118644,4,2,0,75,0,0
53023,-84.0336134453781,4,2,0,75,0,0
53349,-83.3333333333333,4,2,0,75,0,0
54654,-80,4,2,0,75,0,0
55958,-76.9230769230769,4,2,0,80,0,1
90523,-80,4,2,0,80,0,1
91175,-83.3333333333333,4,2,0,80,0,1
92480,-85.4700854700855,4,2,0,75,0,1
92969,-87.719298245614,4,2,0,75,0,1
93458,-90.0900900900901,4,2,0,75,0,1
93784,-91.743119266055,4,2,0,70,0,1
94436,-100,4,2,0,70,0,1
95089,-100,4,2,0,70,0,0
136828,-100,4,2,0,60,0,0
142045,-97.0873786407767,4,2,0,70,0,0
143349,-94.3396226415094,4,2,0,70,0,0
144654,-91.743119266055,4,2,0,75,0,0
145306,-86.2068965517241,4,2,0,75,0,0
145632,-85.4700854700855,4,2,0,75,0,0
145958,-84.7457627118644,4,2,0,75,0,0
146284,-84.0336134453781,4,2,0,75,0,0
146610,-83.3333333333333,4,2,0,75,0,0
146936,-82.6446280991736,4,2,0,75,0,0
147262,-80,4,2,0,75,0,0
149871,-76.9230769230769,4,2,0,80,0,1
183784,-80,4,2,0,80,0,1
184436,-83.3333333333333,4,2,0,80,0,1
185089,-86.9565217391304,4,2,0,75,0,1
189002,-86.9565217391304,4,2,0,75,0,0
235958,-100,4,2,0,60,0,0
254219,-98.0392156862745,4,2,0,70,0,0
254871,-96.1538461538461,4,2,0,70,0,0
255197,-94.3396226415094,4,2,0,70,0,0
255523,-92.5925925925926,4,2,0,70,0,0
255849,-90.9090909090909,4,2,0,70,0,0
256012,-90.0900900900901,4,2,0,70,0,0
256175,-89.2857142857143,4,2,0,70,0,0
256339,-88.4955752212389,4,2,0,70,0,0
256502,-87.719298245614,4,2,0,70,0,0
256828,-86.2068965517241,4,2,0,75,0,0
257154,-84.7457627118644,4,2,0,75,0,0
257480,-83.3333333333333,4,2,0,75,0,0
257643,-82.6446280991736,4,2,0,75,0,0
257806,-81.9672131147541,4,2,0,75,0,0
258132,-80.6451612903226,4,2,0,75,0,0
258295,-80,4,2,0,75,0,0
258458,-79.3650793650794,4,2,0,75,0,0
258621,-78.7401574803149,4,2,0,75,0,0
258784,-78.125,4,2,0,75,0,0
258947,-77.5193798449612,4,2,0,75,0,0
259110,-76.9230769230769,4,2,0,75,0,0
259436,-76.9230769230769,4,2,0,80,0,1
304436,-80,4,2,0,80,0,1
305089,-83.3333333333333,4,2,0,80,0,1
309002,652.173913043478,4,2,0,80,1,9
309018,652.173913043478,4,2,0,70,1,0
309018,-83.3333333333333,4,2,0,70,0,0

[HitObjects]
264,192,1176,5,8,0:0:0:0:
256,192,1828,1,8,0:0:0:0:
256,192,2480,1,8,0:0:0:0:
256,192,3132,1,8,0:0:0:0:
256,192,3784,1,0,0:0:0:0:
256,192,4436,1,0,0:0:0:0:
256,192,5089,1,0,0:0:0:0:
256,192,5741,1,0,0:0:0:0:
256,192,6393,1,8,0:0:0:0:
256,192,6719,1,0,0:0:0:0:
256,192,7045,1,8,0:0:0:0:
256,192,7208,1,8,0:0:0:0:
256,192,7371,1,0,0:0:0:0:
256,192,7697,1,8,0:0:0:0:
256,192,8023,1,0,0:0:0:0:
256,192,8349,1,8,0:0:0:0:
256,192,8512,1,8,0:0:0:0:
256,192,8675,1,0,0:0:0:0:
256,192,9002,1,0,0:0:0:0:
256,192,9328,1,8,0:0:0:0:
256,192,9654,1,0,0:0:0:0:
256,192,9817,1,0,0:0:0:0:
256,192,9980,1,8,0:0:0:0:
256,192,10306,1,0,0:0:0:0:
256,192,10632,1,0,0:0:0:0:
256,192,10958,1,8,0:0:0:0:
264,192,11121,1,0,0:0:0:0:
256,192,11284,1,0,0:0:0:0:
264,192,11610,1,4,0:0:0:0:
256,192,11936,1,0,0:0:0:0:
256,192,12262,1,8,0:0:0:0:
256,192,12589,1,0,0:0:0:0:
256,192,12752,1,8,0:0:0:0:
256,192,12915,1,0,0:0:0:0:
256,192,13241,1,0,0:0:0:0:
256,192,13567,1,8,0:0:0:0:
256,192,13893,1,8,0:0:0:0:
256,192,14056,1,8,0:0:0:0:
272,192,14219,1,0,0:0:0:0:
256,192,14545,1,0,0:0:0:0:
256,192,14871,1,8,0:0:0:0:
256,192,15197,1,0,0:0:0:0:
256,192,15360,1,0,0:0:0:0:
256,192,15686,1,8,0:0:0:0:
256,192,15849,1,0,0:0:0:0:
256,192,16175,1,8,0:0:0:0:
256,192,16502,1,8,0:0:0:0:
256,192,16665,1,0,0:0:0:0:
256,192,16828,1,8,0:0:0:0:
247,191,17154,1,0,0:0:0:0:
247,191,17317,1,0,0:0:0:0:
247,191,17480,1,8,0:0:0:0:
244,191,17806,1,0,0:0:0:0:
247,191,17969,1,8,0:0:0:0:
247,191,18458,1,0,0:0:0:0:
244,191,18784,1,8,0:0:0:0:
247,191,19110,1,8,0:0:0:0:
247,191,19273,1,0,0:0:0:0:
247,191,19436,1,0,0:0:0:0:
244,191,19762,1,0,0:0:0:0:
247,191,20089,1,8,0:0:0:0:
247,191,20415,1,0,0:0:0:0:
244,191,20578,1,0,0:0:0:0:
247,191,20904,1,8,0:0:0:0:
247,191,21067,1,0,0:0:0:0:
247,191,21393,1,8,0:0:0:0:
247,191,21719,1,8,0:0:0:0:
247,191,22045,1,0,0:0:0:0:
247,191,22371,1,0,0:0:0:0:
247,191,22697,1,8,0:0:0:0:
247,191,23023,1,0,0:0:0:0:
247,191,23186,1,8,0:0:0:0:
247,191,23349,1,0,0:0:0:0:
247,191,23675,1,0,0:0:0:0:
247,191,24002,1,8,0:0:0:0:
247,191,24328,1,8,0:0:0:0:
247,191,24491,1,8,0:0:0:0:
272,192,24654,1,0,0:0:0:0:
247,191,24980,1,0,0:0:0:0:
247,191,25306,1,8,0:0:0:0:
247,191,25632,1,8,0:0:0:0:
247,191,25795,1,0,0:0:0:0:
247,191,26121,1,8,0:0:0:0:
247,191,26284,1,0,0:0:0:0:
247,191,26610,1,8,0:0:0:0:
247,191,26936,1,8,0:0:0:0:
247,191,27099,1,0,0:0:0:0:
247,191,27262,1,8,0:0:0:0:
253,195,27589,1,0,0:0:0:0:
253,195,27915,1,8,0:0:0:0:
253,195,28241,1,0,0:0:0:0:
253,195,28404,1,8,0:0:0:0:
253,195,28893,1,0,0:0:0:0:
253,195,29219,1,8,0:0:0:0:
253,195,29545,1,0,0:0:0:0:
253,195,29708,1,8,0:0:0:0:
253,195,29871,1,8,0:0:0:0:
253,195,30197,1,0,0:0:0:0:
253,195,30523,1,0,0:0:0:0:
253,195,30849,1,8,0:0:0:0:
253,195,31175,1,8,0:0:0:0:
253,195,31502,1,0,0:0:0:0:
253,195,31828,1,8,0:0:0:0:
253,195,31991,1,8,0:0:0:0:
253,195,32154,1,0,0:0:0:0:
253,195,32480,1,12,0:0:0:0:
253,195,32806,1,0,0:0:0:0:
253,195,33132,1,8,0:0:0:0:
253,195,33458,1,8,0:0:0:0:
253,195,33621,1,8,0:0:0:0:
253,195,33784,1,0,0:0:0:0:
253,195,34110,1,8,0:0:0:0:
253,195,34436,1,8,0:0:0:0:
253,195,34762,1,0,0:0:0:0:
260,192,35089,1,8,0:0:0:0:
260,192,35741,1,8,0:0:0:0:
260,192,36067,1,0,0:0:0:0:
260,192,36230,1,8,0:0:0:0:
260,192,36393,1,0,0:0:0:0:
260,192,36556,1,8,0:0:0:0:
260,192,36719,1,0,0:0:0:0:
260,192,37045,1,8,0:0:0:0:
260,192,37697,1,0,0:0:0:0:
260,192,38023,1,0,0:0:0:0:
260,192,38349,1,8,0:0:0:0:
260,192,38675,1,8,0:0:0:0:
260,192,38839,1,8,0:0:0:0:
260,192,39002,1,0,0:0:0:0:
260,192,39328,1,8,0:0:0:0:
260,192,39654,1,8,0:0:0:0:
260,192,39980,1,0,0:0:0:0:
260,192,40306,1,8,0:0:0:0:
260,192,40958,1,0,0:0:0:0:
260,192,41284,1,0,0:0:0:0:
260,192,41447,1,8,0:0:0:0:
269,194,41773,1,0,0:0:0:0:
269,192,41936,1,8,0:0:0:0:
269,192,42099,1,8,0:0:0:0:
269,192,42262,1,8,0:0:0:0:
269,192,42425,1,0,0:0:0:0:
269,194,42589,1,0,0:0:0:0:
259,195,42915,1,0,0:0:0:0:
259,195,43567,1,8,0:0:0:0:
259,195,44219,1,0,0:0:0:0:
259,195,44545,1,0,0:0:0:0:
259,195,44654,1,0,0:0:0:0:
259,195,44762,1,8,0:0:0:0:
259,195,44871,1,8,0:0:0:0:
259,195,45523,1,0,0:0:0:0:
259,195,46175,1,8,0:0:0:0:
259,195,46828,1,0,0:0:0:0:
259,195,47154,1,8,0:0:0:0:
259,195,47262,1,8,0:0:0:0:
259,195,47371,1,8,0:0:0:0:
259,195,47480,1,8,0:0:0:0:
259,195,47806,1,0,0:0:0:0:
259,195,48132,1,12,0:0:0:0:
259,195,48621,1,0,0:0:0:0:
259,195,49110,1,0,0:0:0:0:
259,195,49436,1,12,0:0:0:0:
259,195,49762,1,0,0:0:0:0:
259,195,50089,1,0,0:0:0:0:
259,195,50252,1,0,0:0:0:0:
259,195,50415,1,8,0:0:0:0:
256,208,50741,1,6,0:0:0:0:
259,195,51393,1,4,0:0:0:0:
259,195,51719,1,0,0:0:0:0:
259,195,52045,1,4,0:0:0:0:
259,195,52371,1,4,0:0:0:0:
259,195,52697,1,4,0:0:0:0:
259,195,53023,1,4,0:0:0:0:
259,195,53349,1,12,0:0:0:0:
255,190,54654,1,8,0:0:0:0:
255,190,54980,1,0,0:0:0:0:
255,190,55143,1,8,0:0:0:0:
255,190,55469,1,0,0:0:0:0:
255,190,55632,1,8,0:0:0:0:
255,190,55958,1,4,0:0:0:0:
264,197,56284,1,0,0:0:0:0:
264,197,56610,1,8,0:0:0:0:
264,197,56936,1,8,0:0:0:0:
264,197,57099,1,8,0:0:0:0:
264,197,57262,1,8,0:0:0:0:
264,197,57589,1,0,0:0:0:0:
264,197,57915,1,8,0:0:0:0:
264,197,58241,1,0,0:0:0:0:
264,197,58404,1,8,0:0:0:0:
264,197,58567,1,0,0:0:0:0:
264,197,58893,1,0,0:0:0:0:
264,197,59219,1,8,0:0:0:0:
264,197,59545,1,0,0:0:0:0:
264,197,59708,1,0,0:0:0:0:
264,197,59871,1,8,0:0:0:0:
264,197,60197,1,0,0:0:0:0:
264,197,60523,1,8,0:0:0:0:
264,197,60849,1,0,0:0:0:0:
264,197,61012,1,8,0:0:0:0:
264,197,61175,1,8,0:0:0:0:
264,197,61502,1,0,0:0:0:0:
264,197,61828,1,8,0:0:0:0:
264,197,62154,1,8,0:0:0:0:
264,197,62317,1,0,0:0:0:0:
264,197,62480,1,8,0:0:0:0:
264,197,62806,1,8,0:0:0:0:
264,197,63132,1,0,0:0:0:0:
264,197,63458,1,8,0:0:0:0:
264,197,63784,1,8,0:0:0:0:
264,197,64436,1,8,0:0:0:0:
264,197,64762,1,0,0:0:0:0:
264,197,64925,1,0,0:0:0:0:
264,197,65089,1,8,0:0:0:0:
264,197,65415,1,0,0:0:0:0:
264,197,65741,1,8,0:0:0:0:
264,197,65904,1,0,0:0:0:0:
264,197,66067,1,0,0:0:0:0:
264,197,66393,1,12,0:0:0:0:
254,192,67045,1,8,0:0:0:0:
253,192,67371,1,0,0:0:0:0:
254,192,67534,1,0,0:0:0:0:
254,192,67697,1,8,0:0:0:0:
254,192,68023,1,8,0:0:0:0:
253,192,68349,1,0,0:0:0:0:
254,192,68675,1,8,0:0:0:0:
254,192,69002,1,0,0:0:0:0:
254,192,69654,1,8,0:0:0:0:
254,192,69980,1,0,0:0:0:0:
253,192,70143,1,8,0:0:0:0:
253,192,70306,1,0,0:0:0:0:
254,192,70632,1,0,0:0:0:0:
254,192,70958,1,8,0:0:0:0:
253,192,71284,1,0,0:0:0:0:
254,192,71610,1,8,0:0:0:0:
254,192,71936,1,0,0:0:0:0:
253,192,72262,1,8,0:0:0:0:
254,192,72589,1,0,0:0:0:0:
254,192,72752,1,0,0:0:0:0:
254,192,72915,1,8,0:0:0:0:
253,192,73241,1,0,0:0:0:0:
254,192,73404,1,8,0:0:0:0:
254,192,73567,1,8,0:0:0:0:
254,192,73893,1,8,0:0:0:0:
253,192,74219,1,8,0:0:0:0:
254,192,74545,1,0,0:0:0:0:
254,192,74871,1,12,0:0:0:0:
253,192,75197,1,0,0:0:0:0:
254,192,75360,1,0,0:0:0:0:
254,192,75523,1,0,0:0:0:0:
254,192,75686,1,8,0:0:0:0:
261,183,76012,1,8,0:0:0:0:
262,189,76094,1,8,0:0:0:0:
262,189,76175,1,0,0:0:0:0:
262,183,76339,1,0,0:0:0:0:
263,190,76502,1,8,0:0:0:0:
261,183,76828,1,4,0:0:0:0:
263,190,77480,1,8,0:0:0:0:
261,183,77806,1,8,0:0:0:0:
263,190,77969,1,0,0:0:0:0:
262,189,78132,1,8,0:0:0:0:
263,190,78458,1,0,0:0:0:0:
261,183,78784,1,8,0:0:0:0:
262,189,79110,1,0,0:0:0:0:
263,190,79436,1,8,0:0:0:0:
261,183,79599,1,0,0:0:0:0:
261,183,79762,1,0,0:0:0:0:
262,189,80089,1,8,0:0:0:0:
263,190,80415,1,0,0:0:0:0:
265,192,80578,1,0,0:0:0:0:
261,183,80741,1,8,0:0:0:0:
262,189,81067,1,0,0:0:0:0:
263,190,81393,1,8,0:0:0:0:
261,183,81719,1,8,0:0:0:0:
262,189,81882,1,8,0:0:0:0:
262,189,82045,1,0,0:0:0:0:
263,190,82371,1,0,0:0:0:0:
261,183,82697,1,8,0:0:0:0:
262,189,83023,1,0,0:0:0:0:
263,190,83349,1,8,0:0:0:0:
261,183,83675,1,8,0:0:0:0:
262,189,84002,1,8,0:0:0:0:
263,190,84328,1,0,0:0:0:0:
261,183,84654,1,8,0:0:0:0:
263,190,85306,1,8,0:0:0:0:
261,183,85632,1,0,0:0:0:0:
262,189,85795,1,8,0:0:0:0:
262,189,85958,1,0,0:0:0:0:
263,190,86284,1,0,0:0:0:0:
261,183,86610,1,8,0:0:0:0:
262,189,86936,1,0,0:0:0:0:
263,190,87262,1,4,0:0:0:0:
262,189,87915,1,8,0:0:0:0:
263,190,88241,1,0,0:0:0:0:
261,183,88404,1,8,0:0:0:0:
261,183,88567,1,8,0:0:0:0:
262,189,88893,1,0,0:0:0:0:
263,190,89219,1,8,0:0:0:0:
261,183,89545,1,0,0:0:0:0:
262,189,89871,1,12,0:0:0:0:
261,183,90523,1,4,0:0:0:0:
263,190,91175,1,4,0:0:0:0:
263,190,91665,1,0,0:0:0:0:
263,190,91828,1,8,0:0:0:0:
263,190,91991,1,8,0:0:0:0:
263,190,92154,1,0,0:0:0:0:
263,190,92480,1,4,0:0:0:0:
263,190,92969,1,8,0:0:0:0:
263,190,93458,1,0,0:0:0:0:
263,190,93784,1,4,0:0:0:0:
263,190,94436,1,8,0:0:0:0:
263,190,94762,1,0,0:0:0:0:
263,190,94925,1,0,0:0:0:0:
9,256,95089,1,12,0:0:0:0:
257,196,95415,1,0,0:0:0:0:
252,194,95741,2,0,B|257:99|257:96|257:103|258:100,1,69.99999833107
257,196,96393,1,0,0:0:0:0:
257,196,96556,1,0,0:0:0:0:
257,196,96719,1,0,0:0:0:0:
257,196,97045,2,0,L|259:94,1,69.99999833107
257,196,97697,1,0,0:0:0:0:
257,196,97860,1,0,0:0:0:0:
257,196,98023,1,0,0:0:0:0:
257,196,98349,2,0,L|257:112,1,69.99999833107
257,196,99002,1,0,0:0:0:0:
257,196,99165,1,0,0:0:0:0:
24,251,99328,1,0,0:0:0:0:
257,196,99491,1,0,0:0:0:0:
257,196,99654,1,0,0:0:0:0:
257,196,99980,1,0,0:0:0:0:
257,196,100306,1,0,0:0:0:0:
257,196,100469,1,0,0:0:0:0:
257,196,100632,1,0,0:0:0:0:
257,196,100958,1,8,0:0:0:0:
257,196,101040,1,0,0:0:0:0:
257,196,101121,1,0,0:0:0:0:
257,196,101203,1,0,0:0:0:0:
257,196,101284,1,0,0:0:0:0:
257,196,101447,1,0,0:0:0:0:
257,196,101610,1,0,0:0:0:0:
257,196,101773,1,0,0:0:0:0:
257,196,101936,1,0,0:0:0:0:
257,196,102262,1,8,0:0:0:0:
257,196,102344,1,0,0:0:0:0:
257,196,102425,1,0,0:0:0:0:
257,196,102507,1,0,0:0:0:0:
257,196,102589,1,8,0:0:0:0:
257,196,102752,1,0,0:0:0:0:
257,196,102915,1,8,0:0:0:0:
257,196,103078,1,0,0:0:0:0:
257,196,103241,1,0,0:0:0:0:
257,196,103567,1,8,0:0:0:0:
257,196,103648,1,0,0:0:0:0:
257,196,103730,1,0,0:0:0:0:
257,196,103811,1,0,0:0:0:0:
257,196,103893,1,0,0:0:0:0:
257,196,104056,1,0,0:0:0:0:
257,196,104219,1,8,0:0:0:0:
257,196,104545,1,0,0:0:0:0:
257,196,104708,1,0,0:0:0:0:
257,196,104871,1,8,0:0:0:0:
257,196,105034,1,0,0:0:0:0:
257,196,105197,1,0,0:0:0:0:
257,196,105523,1,4,0:0:0:0:
257,196,105849,1,0,0:0:0:0:
257,196,106175,1,8,0:0:0:0:
257,196,106502,1,0,0:0:0:0:
257,196,106665,1,8,0:0:0:0:
257,196,106828,1,0,0:0:0:0:
257,196,107154,1,0,0:0:0:0:
257,196,107480,1,8,0:0:0:0:
257,196,107806,1,8,0:0:0:0:
257,196,107969,1,8,0:0:0:0:
257,196,108132,1,0,0:0:0:0:
257,196,108458,1,0,0:0:0:0:
257,196,108784,1,8,0:0:0:0:
257,196,109110,1,0,0:0:0:0:
257,196,109273,1,0,0:0:0:0:
257,196,109436,1,8,0:0:0:0:
257,196,109599,1,8,0:0:0:0:
257,196,109762,1,0,0:0:0:0:
256,208,110089,1,8,0:0:0:0:
257,196,110415,1,0,0:0:0:0:
257,196,110578,1,0,0:0:0:0:
257,196,110741,1,8,0:0:0:0:
257,196,111067,1,8,0:0:0:0:
257,196,111230,1,0,0:0:0:0:
257,196,111393,1,8,0:0:0:0:
257,196,111719,1,8,0:0:0:0:
264,204,112045,1,0,0:0:0:0:
257,196,112371,1,0,0:0:0:0:
257,196,112697,1,8,0:0:0:0:
257,196,113023,1,8,0:0:0:0:
257,196,113186,1,0,0:0:0:0:
257,196,113349,1,0,0:0:0:0:
257,196,113675,1,0,0:0:0:0:
257,196,114002,1,8,0:0:0:0:
257,196,114328,1,0,0:0:0:0:
257,196,114654,1,8,0:0:0:0:
257,196,114817,1,8,0:0:0:0:
257,196,114980,1,0,0:0:0:0:
257,196,115306,1,0,0:0:0:0:
257,196,115632,1,8,0:0:0:0:
257,196,115958,1,0,0:0:0:0:
257,196,116284,1,0,0:0:0:0:
257,196,116610,1,8,0:0:0:0:
257,196,116936,1,8,0:0:0:0:
257,196,117099,1,8,0:0:0:0:
257,196,117262,1,0,0:0:0:0:
257,196,117589,1,0,0:0:0:0:
257,196,117915,1,8,0:0:0:0:
257,196,118241,1,8,0:0:0:0:
257,196,118404,1,8,0:0:0:0:
257,196,118567,1,0,0:0:0:0:
257,196,118730,1,0,0:0:0:0:
257,196,118893,1,0,0:0:0:0:
257,196,119219,1,8,0:0:0:0:
257,196,119545,1,8,0:0:0:0:
247,192,119871,1,0,0:0:0:0:
257,196,120034,1,8,0:0:0:0:
257,196,120197,1,0,0:0:0:0:
257,196,120523,1,8,0:0:0:0:
257,196,120849,1,8,0:0:0:0:
257,196,121012,1,0,0:0:0:0:
257,196,121175,1,8,0:0:0:0:
257,196,121502,1,8,0:0:0:0:
257,196,121665,1,0,0:0:0:0:
257,196,121828,1,8,0:0:0:0:
257,196,122154,1,0,0:0:0:0:
257,196,122317,1,8,0:0:0:0:
257,196,122806,1,0,0:0:0:0:
257,196,123132,1,0,0:0:0:0:
257,196,123458,1,0,0:0:0:0:
257,196,123621,1,8,0:0:0:0:
257,196,123784,1,8,0:0:0:0:
257,196,124110,1,0,0:0:0:0:
257,196,124436,1,8,0:0:0:0:
264,194,124762,1,8,0:0:0:0:
264,194,125089,1,8,0:0:0:0:
264,194,125252,1,0,0:0:0:0:
264,194,125415,1,0,0:0:0:0:
264,194,125659,1,0,0:0:0:0:
264,194,125741,1,8,0:0:0:0:
264,194,125904,1,8,0:0:0:0:
264,194,126067,1,0,0:0:0:0:
264,194,126393,1,12,0:0:0:0:
264,194,126719,1,0,0:0:0:0:
264,194,127045,1,8,0:0:0:0:
264,194,127371,1,8,0:0:0:0:
264,194,127534,1,8,0:0:0:0:
264,194,127697,1,0,0:0:0:0:
272,192,127860,1,8,0:0:0:0:
264,194,128023,1,8,0:0:0:0:
264,194,128349,1,8,0:0:0:0:
264,194,128675,1,0,0:0:0:0:
264,194,129002,1,0,0:0:0:0:
264,194,129654,1,8,0:0:0:0:
264,194,129980,1,0,0:0:0:0:
264,194,130143,1,8,0:0:0:0:
264,194,130306,1,0,0:0:0:0:
264,194,130469,1,0,0:0:0:0:
264,194,130632,1,8,0:0:0:0:
264,194,130958,1,8,0:0:0:0:
264,194,131284,1,0,0:0:0:0:
264,194,131610,1,0,0:0:0:0:
264,194,131936,1,0,0:0:0:0:
264,194,132262,1,8,0:0:0:0:
264,194,132589,1,8,0:0:0:0:
264,194,132752,1,0,0:0:0:0:
264,194,132915,1,0,0:0:0:0:
264,194,133241,1,8,0:0:0:0:
264,194,133567,1,8,0:0:0:0:
264,194,133893,1,0,0:0:0:0:
264,194,134219,1,8,0:0:0:0:
264,194,134382,1,0,0:0:0:0:
264,194,134545,1,0,0:0:0:0:
264,194,134871,1,8,0:0:0:0:
264,194,135197,1,0,0:0:0:0:
264,194,135360,1,8,0:0:0:0:
264,194,135523,1,8,0:0:0:0:
264,194,135686,1,0,0:0:0:0:
264,194,135849,1,8,0:0:0:0:
264,194,136012,1,0,0:0:0:0:
264,194,136175,1,8,0:0:0:0:
264,194,136339,1,8,0:0:0:0:
264,194,136502,1,0,0:0:0:0:
264,194,136828,1,0,0:0:0:0:
264,194,137480,1,8,0:0:0:0:
264,194,138132,1,0,0:0:0:0:
264,194,138458,1,0,0:0:0:0:
264,194,138567,1,0,0:0:0:0:
264,194,138675,1,8,0:0:0:0:
264,194,138784,1,8,0:0:0:0:
268,189,139436,1,0,0:0:0:0:
268,189,140089,1,8,0:0:0:0:
268,189,140741,1,0,0:0:0:0:
268,189,141067,1,8,0:0:0:0:
268,189,141230,1,8,0:0:0:0:
268,189,141311,1,8,0:0:0:0:
268,189,141393,1,0,0:0:0:0:
268,189,141556,1,0,0:0:0:0:
268,189,141719,1,0,0:0:0:0:
268,189,142045,1,4,0:0:0:0:
268,189,142371,1,0,0:0:0:0:
268,189,142534,1,8,0:0:0:0:
288,208,142697,1,8,0:0:0:0:
268,189,142860,1,0,0:0:0:0:
268,189,143023,1,8,0:0:0:0:
268,189,143349,1,4,0:0:0:0:
268,189,143675,1,0,0:0:0:0:
268,189,143839,1,8,0:0:0:0:
268,189,144002,1,8,0:0:0:0:
268,189,144165,1,8,0:0:0:0:
268,189,144328,1,0,0:0:0:0:
263,190,144654,1,12,0:0:0:0:
256,191,145306,1,4,0:0:0:0:
263,190,145632,1,0,0:0:0:0:
256,191,145958,1,4,0:0:0:0:
256,191,146284,1,4,0:0:0:0:
256,191,146610,1,4,0:0:0:0:
256,191,146936,1,4,0:0:0:0:
256,191,147262,1,12,0:0:0:0:
256,191,148241,1,0,0:0:0:0:
256,191,148567,1,8,0:0:0:0:
256,191,148730,1,0,0:0:0:0:
256,191,148893,1,0,0:0:0:0:
256,191,149056,1,8,0:0:0:0:
256,191,149382,1,0,0:0:0:0:
256,191,149545,1,8,0:0:0:0:
256,191,149871,1,4,0:0:0:0:
256,191,150197,1,0,0:0:0:0:
256,191,150523,1,8,0:0:0:0:
256,191,150849,1,8,0:0:0:0:
256,191,151012,1,8,0:0:0:0:
256,191,151175,1,0,0:0:0:0:
256,191,151502,1,0,0:0:0:0:
256,191,151828,1,8,0:0:0:0:
256,191,152154,1,0,0:0:0:0:
256,191,152317,1,8,0:0:0:0:
256,191,152480,1,0,0:0:0:0:
256,191,152806,1,0,0:0:0:0:
256,191,153132,1,8,0:0:0:0:
256,191,153458,1,0,0:0:0:0:
256,191,153621,1,0,0:0:0:0:
256,191,153784,1,8,0:0:0:0:
256,191,154110,1,0,0:0:0:0:
256,191,154436,1,8,0:0:0:0:
256,191,154762,1,8,0:0:0:0:
256,191,154925,1,8,0:0:0:0:
256,191,155089,1,0,0:0:0:0:
256,191,155415,1,0,0:0:0:0:
256,191,155741,1,8,0:0:0:0:
256,191,156067,1,8,0:0:0:0:
256,191,156230,1,8,0:0:0:0:
256,191,156393,1,0,0:0:0:0:
256,191,156556,1,8,0:0:0:0:
256,191,156719,1,0,0:0:0:0:
256,191,157045,1,8,0:0:0:0:
256,191,157371,1,0,0:0:0:0:
256,191,157697,1,8,0:0:0:0:
256,191,157860,1,0,0:0:0:0:
256,191,158023,1,0,0:0:0:0:
256,191,158349,1,8,0:0:0:0:
256,191,158675,1,0,0:0:0:0:
256,191,158839,1,8,0:0:0:0:
256,191,159002,1,8,0:0:0:0:
256,192,159165,1,8,0:0:0:0:
256,191,159328,1,0,0:0:0:0:
256,191,159654,1,8,0:0:0:0:
256,192,159817,1,8,0:0:0:0:
256,191,159980,1,0,0:0:0:0:
256,191,160306,1,12,0:0:0:0:
256,191,160958,1,8,0:0:0:0:
256,191,161284,1,0,0:0:0:0:
256,191,161447,1,8,0:0:0:0:
256,191,161610,1,8,0:0:0:0:
243,197,161773,1,0,0:0:0:0:
256,191,161936,1,8,0:0:0:0:
256,191,162262,1,0,0:0:0:0:
256,191,162589,1,8,0:0:0:0:
256,191,162915,1,0,0:0:0:0:
256,191,163567,1,8,0:0:0:0:
256,191,163893,1,0,0:0:0:0:
256,191,164056,1,8,0:0:0:0:
256,191,164219,1,0,0:0:0:0:
256,191,164382,1,0,0:0:0:0:
256,191,164545,1,8,0:0:0:0:
256,191,164871,1,0,0:0:0:0:
256,191,165197,1,8,0:0:0:0:
256,191,165523,1,0,0:0:0:0:
256,191,165849,1,0,0:0:0:0:
256,191,166175,1,8,0:0:0:0:
256,191,166502,1,0,0:0:0:0:
256,191,166828,1,8,0:0:0:0:
256,191,166991,1,0,0:0:0:0:
272,192,167154,1,0,0:0:0:0:
256,191,167317,1,8,0:0:0:0:
256,191,167480,1,0,0:0:0:0:
256,191,167806,1,8,0:0:0:0:
256,191,167969,1,0,0:0:0:0:
256,191,168132,1,8,0:0:0:0:
256,191,168458,1,0,0:0:0:0:
256,191,168784,1,12,0:0:0:0:
256,191,169110,1,0,0:0:0:0:
256,191,169273,1,0,0:0:0:0:
256,191,169436,1,0,0:0:0:0:
256,191,169599,1,8,0:0:0:0:
256,191,169925,1,8,0:0:0:0:
256,191,170007,1,8,0:0:0:0:
256,191,170089,1,0,0:0:0:0:
256,191,170252,1,0,0:0:0:0:
256,191,170415,1,8,0:0:0:0:
256,191,170741,1,12,0:0:0:0:
256,191,171067,1,0,0:0:0:0:
256,191,171393,1,8,0:0:0:0:
256,191,171719,1,8,0:0:0:0:
256,191,171882,1,0,0:0:0:0:
256,191,172045,1,0,0:0:0:0:
256,191,172371,1,8,0:0:0:0:
256,191,172697,1,0,0:0:0:0:
256,191,173023,1,0,0:0:0:0:
256,191,173186,1,8,0:0:0:0:
256,191,173349,1,8,0:0:0:0:
256,191,173675,1,0,0:0:0:0:
256,191,174002,1,8,0:0:0:0:
256,191,174328,1,0,0:0:0:0:
256,191,174491,1,0,0:0:0:0:
256,191,174654,1,8,0:0:0:0:
256,191,174817,1,8,0:0:0:0:
256,191,174980,1,0,0:0:0:0:
256,191,175306,1,8,0:0:0:0:
256,191,175632,1,0,0:0:0:0:
256,191,175795,1,8,0:0:0:0:
256,191,175958,1,8,0:0:0:0:
256,191,176284,1,0,0:0:0:0:
256,191,176610,1,0,0:0:0:0:
256,191,176936,1,8,0:0:0:0:
256,191,177262,1,8,0:0:0:0:
256,208,177425,1,8,0:0:0:0:
256,191,177589,1,8,0:0:0:0:
256,191,177915,1,8,0:0:0:0:
256,191,178241,1,0,0:0:0:0:
256,191,178567,1,8,0:0:0:0:
256,191,178893,1,0,0:0:0:0:
256,191,179219,1,8,0:0:0:0:
256,191,179545,1,0,0:0:0:0:
256,191,179708,1,8,0:0:0:0:
256,191,179871,1,0,0:0:0:0:
256,191,180034,1,8,0:0:0:0:
256,191,180197,1,0,0:0:0:0:
256,191,180523,1,8,0:0:0:0:
256,191,180849,1,0,0:0:0:0:
256,191,181175,1,4,0:0:0:0:
256,191,181828,1,8,0:0:0:0:
256,191,182154,1,0,0:0:0:0:
256,191,182317,1,8,0:0:0:0:
256,191,182480,1,0,0:0:0:0:
256,191,182806,1,8,0:0:0:0:
256,191,183132,1,8,0:0:0:0:
256,191,183458,1,0,0:0:0:0:
256,191,183784,1,12,0:0:0:0:
256,191,184436,1,4,0:0:0:0:
256,191,185089,1,4,0:0:0:0:
256,191,185578,1,0,0:0:0:0:
256,191,185741,1,8,0:0:0:0:
256,191,185904,1,8,0:0:0:0:
256,191,186067,1,0,0:0:0:0:
256,191,186393,1,12,0:0:0:0:
256,191,186882,1,8,0:0:0:0:
256,191,187371,1,0,0:0:0:0:
256,191,187697,1,4,0:0:0:0:
256,191,188023,1,0,0:0:0:0:
256,191,188349,1,8,0:0:0:0:
256,191,188675,1,0,0:0:0:0:
256,191,188839,1,8,0:0:0:0:
256,191,189002,1,4,0:0:0:0:
256,191,189328,1,0,0:0:0:0:
256,191,189654,1,8,0:0:0:0:
256,191,189980,1,8,0:0:0:0:
256,176,190143,1,8,0:0:0:0:
256,191,190306,1,0,0:0:0:0:
256,176,190469,1,0,0:0:0:0:
256,191,190632,1,8,0:0:0:0:
256,191,190958,1,0,0:0:0:0:
256,191,191121,1,0,0:0:0:0:
256,191,191284,1,8,0:0:0:0:
256,191,191610,1,8,0:0:0:0:
256,191,191773,1,0,0:0:0:0:
256,191,191936,1,0,0:0:0:0:
256,191,192099,1,8,0:0:0:0:
256,191,192262,1,8,0:0:0:0:
256,191,192589,1,8,0:0:0:0:
256,191,192915,1,0,0:0:0:0:
256,191,193078,1,0,0:0:0:0:
256,191,193241,1,8,0:0:0:0:
256,191,193567,1,0,0:0:0:0:
256,191,193730,1,8,0:0:0:0:
256,191,193893,1,8,0:0:0:0:
256,191,194219,1,8,0:0:0:0:
256,191,194545,1,0,0:0:0:0:
256,191,194708,1,8,0:0:0:0:
256,191,194871,1,0,0:0:0:0:
256,191,195197,1,8,0:0:0:0:
256,191,195360,1,0,0:0:0:0:
256,191,195523,1,0,0:0:0:0:
256,191,195686,1,0,0:0:0:0:
256,191,195849,1,8,0:0:0:0:
256,191,196175,1,0,0:0:0:0:
256,191,196502,1,0,0:0:0:0:
256,191,196665,1,8,0:0:0:0:
256,191,196828,1,0,0:0:0:0:
256,191,197154,1,8,0:0:0:0:
256,191,197317,1,8,0:0:0:0:
256,191,197643,1,0,0:0:0:0:
256,191,197806,1,8,0:0:0:0:
256,191,198132,1,0,0:0:0:0:
256,191,198295,1,8,0:0:0:0:
256,191,198458,1,0,0:0:0:0:
256,191,198621,1,8,0:0:0:0:
256,191,198784,1,8,0:0:0:0:
256,191,198947,1,0,0:0:0:0:
256,191,199110,1,8,0:0:0:0:
256,191,199436,1,4,0:0:0:0:
256,191,199762,1,8,0:0:0:0:
256,191,200089,1,8,0:0:0:0:
256,191,200252,1,0,0:0:0:0:
256,191,200415,1,8,0:0:0:0:
256,191,200578,1,8,0:0:0:0:
256,191,200741,1,0,0:0:0:0:
256,191,200904,1,0,0:0:0:0:
256,191,201067,1,8,0:0:0:0:
256,191,201393,1,8,0:0:0:0:
256,191,201556,1,8,0:0:0:0:
256,191,201719,1,0,0:0:0:0:
256,191,201882,1,0,0:0:0:0:
256,191,202045,1,0,0:0:0:0:
256,191,202371,1,0,0:0:0:0:
256,191,202697,1,8,0:0:0:0:
256,191,203023,1,8,0:0:0:0:
256,191,203186,1,0,0:0:0:0:
256,191,203512,1,0,0:0:0:0:
256,191,203675,1,8,0:0:0:0:
256,192,204002,1,8,0:0:0:0:
256,192,204165,1,0,0:0:0:0:
256,191,204328,1,0,0:0:0:0:
256,191,204491,1,0,0:0:0:0:
256,191,204654,1,0,0:0:0:0:
256,191,204980,1,0,0:0:0:0:
256,191,205306,1,8,0:0:0:0:
256,191,205469,1,0,0:0:0:0:
256,191,205632,1,0,0:0:0:0:
256,191,205795,1,0,0:0:0:0:
256,191,205958,1,8,0:0:0:0:
256,191,206121,1,0,0:0:0:0:
256,191,206284,1,0,0:0:0:0:
256,191,206447,1,8,0:0:0:0:
256,191,206610,1,8,0:0:0:0:
256,191,206773,1,0,0:0:0:0:
256,191,206936,1,8,0:0:0:0:
256,191,207099,1,8,0:0:0:0:
256,191,207262,1,0,0:0:0:0:
256,191,207589,1,8,0:0:0:0:
256,191,207915,1,4,0:0:0:0:
256,191,208241,1,8,0:0:0:0:
256,191,208567,1,0,0:0:0:0:
256,191,208730,1,8,0:0:0:0:
256,191,208893,1,8,0:0:0:0:
256,191,209056,1,0,0:0:0:0:
256,191,209219,1,8,0:0:0:0:
256,191,209382,1,0,0:0:0:0:
256,191,209545,1,0,0:0:0:0:
256,191,209871,1,4,0:0:0:0:
256,191,210360,1,0,0:0:0:0:
256,191,210849,1,8,0:0:0:0:
256,191,211175,1,8,0:0:0:0:
256,191,211665,1,0,0:0:0:0:
256,191,212154,1,0,0:0:0:0:
256,191,212480,1,4,0:0:0:0:
256,191,212969,1,0,0:0:0:0:
256,191,213458,1,8,0:0:0:0:
256,191,213784,1,8,0:0:0:0:
256,191,214273,1,0,0:0:0:0:
256,191,214762,1,0,0:0:0:0:
256,191,215089,1,4,0:0:0:0:
256,191,215578,1,0,0:0:0:0:
256,191,216067,1,8,0:0:0:0:
256,191,216393,1,8,0:0:0:0:
256,191,216882,1,0,0:0:0:0:
256,191,217371,1,0,0:0:0:0:
256,191,217697,1,12,0:0:0:0:
256,191,218349,1,0,0:0:0:0:
256,191,219002,1,8,0:0:0:0:
256,191,219654,1,0,0:0:0:0:
256,191,219980,1,8,0:0:0:0:
256,191,220306,1,12,0:0:0:0:
256,191,220632,1,8,0:0:0:0:
256,191,220795,1,0,0:0:0:0:
256,191,220958,1,8,0:0:0:0:
256,191,221040,1,0,0:0:0:0:
256,191,221121,1,0,0:0:0:0:
256,191,221203,1,0,0:0:0:0:
256,191,221284,1,8,0:0:0:0:
256,191,221610,1,0,0:0:0:0:
256,191,221773,1,0,0:0:0:0:
256,191,221936,1,0,0:0:0:0:
256,191,222262,1,8,0:0:0:0:
256,191,222344,1,0,0:0:0:0:
256,191,222425,1,0,0:0:0:0:
256,191,222507,1,0,0:0:0:0:
256,191,222589,1,8,0:0:0:0:
256,191,222915,1,8,0:0:0:0:
256,191,223241,1,0,0:0:0:0:
256,191,223404,1,0,0:0:0:0:
256,191,223567,1,8,0:0:0:0:
256,191,223648,1,0,0:0:0:0:
256,191,223730,1,0,0:0:0:0:
256,191,223811,1,0,0:0:0:0:
256,191,223893,1,0,0:0:0:0:
256,191,224056,1,0,0:0:0:0:
256,191,224219,1,0,0:0:0:0:
256,191,224545,1,0,0:0:0:0:
256,191,224627,1,0,0:0:0:0:
256,191,224708,1,0,0:0:0:0:
256,191,224790,1,0,0:0:0:0:
256,191,224871,1,0,0:0:0:0:
256,191,225034,1,0,0:0:0:0:
256,191,225197,1,0,0:0:0:0:
256,191,225523,1,12,0:0:0:0:
256,191,225849,1,0,0:0:0:0:
256,191,226175,1,8,0:0:0:0:
256,191,226502,1,0,0:0:0:0:
256,191,226665,1,0,0:0:0:0:
256,191,226828,1,8,0:0:0:0:
256,191,227154,1,0,0:0:0:0:
256,191,227317,1,8,0:0:0:0:
256,191,227480,1,8,0:0:0:0:
256,191,227806,1,8,0:0:0:0:
256,191,228132,1,0,0:0:0:0:
256,191,228458,1,0,0:0:0:0:
256,191,228621,1,0,0:0:0:0:
256,191,228784,1,8,0:0:0:0:
256,191,229110,1,0,0:0:0:0:
256,191,229436,1,8,0:0:0:0:
256,191,229762,1,8,0:0:0:0:
256,191,229925,1,8,0:0:0:0:
256,191,230089,1,8,0:0:0:0:
256,191,230252,1,0,0:0:0:0:
256,191,230415,1,0,0:0:0:0:
256,191,230741,1,12,0:0:0:0:
256,191,231393,1,4,0:0:0:0:
256,191,231719,1,0,0:0:0:0:
256,191,232045,1,4,0:0:0:0:
256,191,232371,1,4,0:0:0:0:
256,191,232697,1,4,0:0:0:0:
256,191,233023,1,4,0:0:0:0:
256,191,233349,1,12,0:0:0:0:
256,191,235958,1,0,0:0:0:0:
256,191,236610,1,8,0:0:0:0:
256,191,237099,1,0,0:0:0:0:
256,191,237262,1,0,0:0:0:0:
256,191,237589,1,0,0:0:0:0:
256,191,237915,1,8,0:0:0:0:
256,191,238241,1,0,0:0:0:0:
256,191,238567,1,0,0:0:0:0:
256,191,239219,1,8,0:0:0:0:
256,191,239708,1,0,0:0:0:0:
256,191,239871,1,0,0:0:0:0:
256,191,240197,1,0,0:0:0:0:
256,191,240523,1,8,0:0:0:0:
256,191,240849,1,0,0:0:0:0:
256,191,241012,1,8,0:0:0:0:
272,176,241175,1,0,0:0:0:0:
256,191,241828,1,8,0:0:0:0:
256,191,242154,1,0,0:0:0:0:
256,191,242317,1,0,0:0:0:0:
256,191,242480,1,0,0:0:0:0:
256,191,242806,1,0,0:0:0:0:
256,191,243132,1,8,0:0:0:0:
256,191,243458,1,0,0:0:0:0:
256,191,243784,1,0,0:0:0:0:
256,191,244436,1,8,0:0:0:0:
256,191,244762,1,0,0:0:0:0:
256,191,244925,1,0,0:0:0:0:
256,191,245089,1,0,0:0:0:0:
256,191,245415,1,0,0:0:0:0:
256,191,245741,1,8,0:0:0:0:
256,191,245904,1,8,0:0:0:0:
256,191,246067,1,8,0:0:0:0:
256,191,246230,1,0,0:0:0:0:
256,191,246393,1,8,0:0:0:0:
256,191,247045,1,8,0:0:0:0:
256,191,247371,1,0,0:0:0:0:
256,191,247534,1,0,0:0:0:0:
256,191,247697,1,8,0:0:0:0:
256,191,248023,1,0,0:0:0:0:
256,191,248349,1,8,0:0:0:0:
256,191,248675,1,0,0:0:0:0:
256,191,249002,1,8,0:0:0:0:
256,191,249654,1,8,0:0:0:0:
256,191,249980,1,0,0:0:0:0:
256,191,250143,1,8,0:0:0:0:
256,191,250306,1,8,0:0:0:0:
256,191,250632,1,0,0:0:0:0:
256,191,250958,1,8,0:0:0:0:
256,191,251284,1,0,0:0:0:0:
256,191,251610,1,12,0:0:0:0:
256,191,251936,1,0,0:0:0:0:
256,191,252425,1,0,0:0:0:0:
256,191,252589,1,0,0:0:0:0:
256,191,252915,1,8,0:0:0:0:
272,192,253078,1,0,0:0:0:0:
256,191,253404,1,8,0:0:0:0:
272,192,253567,1,0,0:0:0:0:
256,191,253893,1,0,0:0:0:0:
256,191,254219,1,12,0:0:0:0:
256,191,254871,1,4,0:0:0:0:
256,191,255197,1,0,0:0:0:0:
256,191,255523,1,4,0:0:0:0:
256,191,255849,1,0,0:0:0:0:
256,191,256012,1,0,0:0:0:0:
256,191,256175,1,8,0:0:0:0:
256,191,256339,1,8,0:0:0:0:
256,191,256502,1,8,0:0:0:0:
256,191,256828,1,12,0:0:0:0:
256,191,257154,1,0,0:0:0:0:
256,191,257480,1,0,0:0:0:0:
256,191,257643,1,0,0:0:0:0:
256,191,257806,1,0,0:0:0:0:
256,191,258132,1,8,0:0:0:0:
256,191,258295,1,0,0:0:0:0:
256,191,258458,1,8,0:0:0:0:
256,191,258621,1,8,0:0:0:0:
256,191,258784,1,0,0:0:0:0:
256,191,258947,1,0,0:0:0:0:
256,191,259110,1,8,0:0:0:0:
256,191,259436,1,12,0:0:0:0:
256,191,259762,1,0,0:0:0:0:
256,191,260089,1,8,0:0:0:0:
256,191,260415,1,8,0:0:0:0:
256,191,260578,1,0,0:0:0:0:
256,191,260741,1,0,0:0:0:0:
256,191,260904,1,8,0:0:0:0:
256,191,261067,1,0,0:0:0:0:
256,191,261393,1,8,0:0:0:0:
256,191,261719,1,0,0:0:0:0:
256,191,261882,1,8,0:0:0:0:
256,191,262045,1,8,0:0:0:0:
256,191,262371,1,0,0:0:0:0:
256,191,262534,1,8,0:0:0:0:
256,191,262697,1,8,0:0:0:0:
256,191,263023,1,8,0:0:0:0:
256,191,263186,1,0,0:0:0:0:
256,191,263349,1,8,0:0:0:0:
240,192,263512,1,8,0:0:0:0:
256,191,263675,1,0,0:0:0:0:
256,191,264002,1,8,0:0:0:0:
256,191,264328,1,0,0:0:0:0:
256,191,264491,1,8,0:0:0:0:
256,191,264654,1,8,0:0:0:0:
256,191,264980,1,0,0:0:0:0:
256,191,265306,1,8,0:0:0:0:
256,191,265632,1,8,0:0:0:0:
256,191,265795,1,0,0:0:0:0:
256,191,265958,1,8,0:0:0:0:
272,208,266121,1,8,0:0:0:0:
256,191,266284,1,0,0:0:0:0:
256,191,266610,1,0,0:0:0:0:
240,192,266936,1,8,0:0:0:0:
256,191,267099,1,0,0:0:0:0:
256,191,267262,1,8,0:0:0:0:
256,191,267589,1,0,0:0:0:0:
256,191,267915,1,8,0:0:0:0:
256,191,268241,1,0,0:0:0:0:
256,191,268404,1,0,0:0:0:0:
256,191,268567,1,8,0:0:0:0:
256,191,268893,1,0,0:0:0:0:
256,191,269056,1,0,0:0:0:0:
256,191,269219,1,8,0:0:0:0:
256,191,269382,1,0,0:0:0:0:
256,191,269545,1,8,0:0:0:0:
256,191,269708,1,8,0:0:0:0:
256,191,269871,1,4,0:0:0:0:
256,191,270197,1,0,0:0:0:0:
256,191,270523,1,8,0:0:0:0:
256,191,270849,1,8,0:0:0:0:
256,191,271012,1,0,0:0:0:0:
256,191,271175,1,0,0:0:0:0:
240,208,271339,1,8,0:0:0:0:
256,191,271502,1,0,0:0:0:0:
256,191,271828,1,8,0:0:0:0:
256,191,272154,1,8,0:0:0:0:
256,191,272480,1,0,0:0:0:0:
256,191,272806,1,0,0:0:0:0:
256,191,273132,1,8,0:0:0:0:
256,191,273458,1,8,0:0:0:0:
256,191,273621,1,8,0:0:0:0:
256,191,273784,1,0,0:0:0:0:
256,191,273947,1,0,0:0:0:0:
256,191,274110,1,0,0:0:0:0:
256,191,274436,1,8,0:0:0:0:
256,191,274762,1,8,0:0:0:0:
256,191,274925,1,0,0:0:0:0:
256,191,275089,1,8,0:0:0:0:
256,191,275252,1,0,0:0:0:0:
256,191,275415,1,0,0:0:0:0:
256,191,275741,1,8,0:0:0:0:
256,191,276230,1,0,0:0:0:0:
256,191,276393,1,8,0:0:0:0:
256,191,276719,1,0,0:0:0:0:
256,191,276882,1,8,0:0:0:0:
256,191,277045,1,0,0:0:0:0:
256,191,277208,1,8,0:0:0:0:
256,191,277371,1,8,0:0:0:0:
256,191,277697,1,12,0:0:0:0:
256,191,278023,1,0,0:0:0:0:
256,191,278186,1,12,0:0:0:0:
256,191,278512,1,0,0:0:0:0:
256,191,278675,1,12,0:0:0:0:
256,191,279002,1,0,0:0:0:0:
256,191,279165,1,8,0:0:0:0:
256,191,279491,1,8,0:0:0:0:
256,191,279572,1,8,0:0:0:0:
256,191,279654,1,0,0:0:0:0:
256,191,279817,1,0,0:0:0:0:
256,191,279980,1,8,0:0:0:0:
256,191,280143,1,8,0:0:0:0:
256,191,280306,1,4,0:0:0:0:
256,191,280632,1,0,0:0:0:0:
256,191,280958,1,8,0:0:0:0:
256,191,281284,1,0,0:0:0:0:
256,191,281447,1,0,0:0:0:0:
256,191,281610,1,8,0:0:0:0:
256,191,281773,1,8,0:0:0:0:
256,191,281936,1,0,0:0:0:0:
256,191,282262,1,8,0:0:0:0:
256,191,282589,1,8,0:0:0:0:
256,191,282752,1,8,0:0:0:0:
256,191,282915,1,0,0:0:0:0:
256,191,283241,1,0,0:0:0:0:
256,191,283567,1,8,0:0:0:0:
256,191,283893,1,0,0:0:0:0:
256,191,284219,1,8,0:0:0:0:
256,191,284382,1,8,0:0:0:0:
256,191,284545,1,0,0:0:0:0:
256,191,284871,1,8,0:0:0:0:
256,208,285034,1,0,0:0:0:0:
256,191,285197,1,8,0:0:0:0:
256,191,285360,1,8,0:0:0:0:
256,191,285523,1,0,0:0:0:0:
256,191,285849,1,0,0:0:0:0:
256,191,286175,1,8,0:0:0:0:
256,191,286502,1,0,0:0:0:0:
254,183,286665,1,0,0:0:0:0:
256,191,286828,1,8,0:0:0:0:
254,183,286991,1,8,0:0:0:0:
256,191,287154,1,8,0:0:0:0:
256,191,287480,1,8,0:0:0:0:
256,191,287806,1,0,0:0:0:0:
256,191,288132,1,8,0:0:0:0:
256,191,288295,1,0,0:0:0:0:
256,191,288458,1,0,0:0:0:0:
256,191,288784,1,8,0:0:0:0:
256,191,289110,1,0,0:0:0:0:
256,191,289273,1,0,0:0:0:0:
256,191,289436,1,8,0:0:0:0:
256,192,289599,1,8,0:0:0:0:
256,191,289762,1,0,0:0:0:0:
256,191,290089,1,8,0:0:0:0:
256,191,290415,1,0,0:0:0:0:
256,191,290741,1,4,0:0:0:0:
256,191,291067,1,0,0:0:0:0:
256,191,291393,1,8,0:0:0:0:
256,191,291719,1,0,0:0:0:0:
256,191,291882,1,8,0:0:0:0:
256,191,292045,1,0,0:0:0:0:
256,191,292371,1,8,0:0:0:0:
256,208,292534,1,8,0:0:0:0:
256,191,292697,1,0,0:0:0:0:
256,191,293023,1,0,0:0:0:0:
256,191,293349,1,12,0:0:0:0:
256,191,293675,1,0,0:0:0:0:
256,191,294002,1,12,0:0:0:0:
256,191,294328,1,0,0:0:0:0:
256,191,294654,1,12,0:0:0:0:
256,191,294980,1,0,0:0:0:0:
240,208,295143,1,0,0:0:0:0:
256,191,295306,1,8,0:0:0:0:
256,208,295469,1,8,0:0:0:0:
256,191,295632,1,0,0:0:0:0:
256,191,295958,1,4,0:0:0:0:
256,191,296284,1,0,0:0:0:0:
256,191,296447,1,8,0:0:0:0:
256,191,296610,1,0,0:0:0:0:
256,191,296936,1,0,0:0:0:0:
256,191,297262,1,12,0:0:0:0:
256,191,297589,1,0,0:0:0:0:
256,191,297915,1,8,0:0:0:0:
256,191,298241,1,0,0:0:0:0:
256,191,298404,1,0,0:0:0:0:
256,191,298567,1,12,0:0:0:0:
256,191,298893,1,0,0:0:0:0:
256,191,299219,1,0,0:0:0:0:
256,191,299545,1,8,0:0:0:0:
256,191,299871,1,0,0:0:0:0:
256,191,300034,1,8,0:0:0:0:
256,191,300197,1,0,0:0:0:0:
247,183,300360,1,8,0:0:0:0:
256,191,300523,1,8,0:0:0:0:
256,191,300686,1,0,0:0:0:0:
256,191,300849,1,8,0:0:0:0:
256,191,301012,1,8,0:0:0:0:
256,191,301175,1,4,0:0:0:0:
256,191,301502,1,0,0:0:0:0:
256,191,301828,1,8,0:0:0:0:
256,191,302154,1,0,0:0:0:0:
256,191,302317,1,8,0:0:0:0:
256,191,302480,1,8,0:0:0:0:
256,191,302806,1,0,0:0:0:0:
256,208,302969,1,0,0:0:0:0:
256,191,303132,1,8,0:0:0:0:
256,191,303458,1,0,0:0:0:0:
256,191,303784,1,12,0:0:0:0:
256,191,304436,1,4,0:0:0:0:
256,191,305089,1,4,0:0:0:0:
256,191,305578,1,0,0:0:0:0:
256,191,305741,1,8,0:0:0:0:
256,191,305904,1,8,0:0:0:0:
256,191,306067,1,0,0:0:0:0:
256,191,306393,1,12,0:0:0:0:
256,191,306882,1,8,0:0:0:0:
256,191,307371,1,0,0:0:0:0:
256,191,307697,1,4,0:0:0:0:
256,191,308349,1,0,0:0:0:0:
256,191,308675,1,0,0:0:0:0:
256,191,308839,1,0,0:0:0:0:
256,191,309018,1,12,0:0:0:0:
256,191,309344,1,0,0:0:0:0:
256,191,309670,1,8,0:0:0:0:
256,191,309996,1,0,0:0:0:0:
256,191,310159,1,0,0:0:0:0:
256,191,310322,1,8,0:0:0:0:
256,191,310485,1,0,0:0:0:0:
256,191,310648,1,8,0:0:0:0:
256,191,310974,1,8,0:0:0:0:
256,191,311300,1,0,0:0:0:0:
256,191,311626,1,8,0:0:0:0:
256,191,311952,1,0,0:0:0:0:
256,191,312278,1,8,0:0:0:0:
256,191,312605,1,0,0:0:0:0:
256,191,312768,1,8,0:0:0:0:
256,191,312931,1,0,0:0:0:0:
256,191,313094,1,8,0:0:0:0:
256,191,313257,1,0,0:0:0:0:
256,191,313583,1,8,0:0:0:0:
256,191,313909,1,0,0:0:0:0:
256,191,314235,1,8,0:0:0:0:
256,191,314561,1,0,0:0:0:0:
256,191,314887,1,8,0:0:0:0:
256,191,315213,1,8,0:0:0:0:
256,191,315376,1,0,0:0:0:0:
256,191,315539,1,0,0:0:0:0:
256,191,315702,1,8,0:0:0:0:
256,191,315865,1,8,0:0:0:0:
256,191,316191,1,8,0:0:0:0:
256,191,316518,1,0,0:0:0:0:
256,191,316681,1,0,0:0:0:0:
256,191,316844,1,8,0:0:0:0:
256,191,317170,1,0,0:0:0:0:
256,191,317496,1,8,0:0:0:0:
256,191,317822,1,0,0:0:0:0:
256,191,317985,1,8,0:0:0:0:
256,191,318148,1,0,0:0:0:0:
256,191,318311,1,8,0:0:0:0:
256,191,318474,1,8,0:0:0:0:
256,191,318637,1,0,0:0:0:0:
256,191,318800,1,8,0:0:0:0:
256,191,318963,1,0,0:0:0:0:
256,191,319126,1,8,0:0:0:0:
256,191,319289,1,0,0:0:0:0:
256,191,319452,1,12,0:0:0:0:
256,192,319778,12,0,323202,0:0:0:0:
