osu file format v14

[General]
AudioFilename: audio.mp3
AudioLeadIn: 0
PreviewTime: 47249
Countdown: 1
SampleSet: Soft
StackLeniency: 0.7
Mode: 0
LetterboxInBreaks: 0
WidescreenStoryboard: 1

[Editor]
Bookmarks: 10049,19649,26849,29249,38849,48299,72449,78449
DistanceSpacing: 0.8
BeatDivisor: 4
GridSize: 32
TimelineZoom: 2.599999

[Metadata]
Title:Gravitation (TV Size)
TitleUnicode:Gravitation (TV Size)
Artist:Maon Kurosaki
ArtistUnicode:黒崎真音
Creator:Gcode
Version:Hard
Source:Toaru Majutsu no Index III
Tags:Season 3 OP Opening Index Anime
BeatmapID:1805532
BeatmapSetID:859062

[Difficulty]
HPDrainRate:6
CircleSize:4
OverallDifficulty:6
ApproachRate:8
SliderMultiplier:1.2
SliderTickRate:1

[Events]
//Background and Video events
0,0,"1513540740484.jpg",0,0
//Break Periods
2,72649,77099
//Storyboard Layer 0 (Background)
//Storyboard Layer 1 (Fail)
//Storyboard Layer 2 (Pass)
//Storyboard Layer 3 (Foreground)
//Storyboard Sound Samples

[TimingPoints]
449.27037676841,300,4,2,0,75,1,0
10049,-80,4,2,0,75,0,0
38849,-133.333333333333,4,2,0,75,0,0
43649,-100,4,2,0,75,0,0
47849,-400,4,2,0,75,0,0
47999,-100,4,2,0,75,0,0
48299,-100,4,2,0,75,0,1
72449,-100,4,2,0,50,0,0
78149,-100,4,2,0,60,0,0
78199,-100,4,2,0,65,0,0
78249,-100,4,2,0,70,0,0
78299,-100,4,2,0,75,0,0
78449,-80,4,2,0,75,0,1
88049,-100,4,2,0,75,0,0

[HitObjects]
126,160,449,5,0,3:0:0:0:
126,160,749,2,0,P|115:221|141:278,2,120,0|0|0,1:0|3:0|1:0,0:0:0:0:
181,86,1499,1,0,3:0:0:0:
384,151,1799,1,0,0:0:0:0:
384,151,1949,1,0,1:0:0:0:
245,283,2249,5,0,1:0:0:0:
245,283,2324,1,0,3:0:0:0:
245,283,2399,2,0,P|225:259|210:226,1,60,0|0,3:0|1:0,0:0:0:0:
193,147,2699,1,0,0:0:0:0:
374,75,2999,5,0,0:0:0:0:
374,75,3149,2,0,P|401:128|395:187,1,120,0|0,1:0|0:0,0:0:0:0:
317,146,3599,1,0,3:0:0:0:
260,75,3749,1,0,1:0:0:0:
230,161,3899,2,0,P|170:166|118:138,1,120,0|0,3:0|3:0,0:0:0:0:
63,65,4349,1,0,1:0:0:0:
138,278,4649,5,0,1:0:0:0:
138,278,4724,1,0,3:0:0:0:
138,278,4799,2,0,P|165:281|198:273,1,60,0|0,0:0|1:0,0:0:0:0:
267,207,5099,6,0,P|287:152|320:100,1,120,0|0,3:0|3:0,0:0:0:0:
400,49,5549,2,0,L|409:175,1,120,0|0,1:0|0:0,0:0:0:0:
416,262,5999,1,0,0:0:0:0:
416,262,6149,1,0,1:0:0:0:
337,320,6299,2,0,B|289:295|220:308,1,120
128,335,6749,2,0,P|101:285|110:204,1,120,0|0,1:0|1:0,0:0:0:0:
139,137,7199,1,0,0:0:0:0:
211,74,7349,1,0,1:0:0:0:
309,74,7499,6,0,P|311:136|300:193,1,120
249,272,7949,2,0,P|222:262|196:241,1,60,0|0,1:0|0:0,0:0:0:0:
84,159,8249,2,0,P|112:142|147:136,1,60,0|0,1:0|0:0,0:0:0:0:
273,104,8549,2,0,P|265:137|244:163,1,60,0|0,1:0|0:0,0:0:0:0:
249,157,9449,6,0,L|246:141,12,15
233,67,10049,6,0,P|271:60|311:61,1,75,4|0,0:1|0:0,0:0:0:0:
401,79,10349,1,0,1:0:0:0:
439,168,10499,1,0,0:0:0:0:
415,258,10649,2,0,P|378:251|341:221,1,75
255,185,10949,2,0,P|279:155|321:135,1,75,0|0,1:0|0:0,0:0:0:0:
402,121,11249,6,0,P|430:194|409:265,1,150,2|0,0:0|0:0,0:0:0:0:
300,277,11699,2,0,P|281:205|309:137,1,150,2|2,0:0|0:0,0:0:0:0:
383,78,12149,1,0,1:0:0:0:
411,260,12449,6,0,P|335:252|283:203,1,150,0|0,0:0|1:0,0:0:0:0:
239,122,12899,1,0,0:0:0:0:
292,48,13049,2,0,L|371:44,1,75
449,105,13349,2,0,P|413:118|369:119,1,75,0|0,1:0|0:0,0:0:0:0:
239,122,13649,6,0,P|230:198|258:264,1,150,2|0,0:0|0:0,0:0:0:0:
350,345,14099,2,0,P|274:354|208:326,1,150,2|2,0:0|0:0,0:0:0:0:
126,275,14549,1,0,1:0:0:0:
58,126,14849,6,0,L|209:142,1,150,0|0,0:0|1:0,0:0:0:0:
300,153,15299,1,0,0:0:0:0:
392,163,15449,2,0,P|405:130|402:91,1,75
349,18,15749,1,0,1:0:0:0:
349,18,15899,1,0,0:0:0:0:
224,65,16049,6,0,P|202:134|224:209,1,150,2|0,0:0|0:0,0:0:0:0:
301,156,16499,2,0,P|323:225|301:300,1,150,2|2,0:0|0:0,0:0:0:0:
212,287,16949,1,0,1:0:0:0:
99,233,17249,5,0,0:0:0:0:
128,141,17399,2,0,L|89:124,2,37.5,0|0|0,3:0|3:0|1:0,0:0:0:0:
214,171,17699,1,0,0:0:0:0:
303,206,17849,2,0,P|325:175|326:131,1,75,0|0,1:0|0:0,0:0:0:0:
238,103,18149,2,0,P|216:134|215:178,1,75,0|0,1:0|1:0,0:0:0:0:
229,261,18449,5,2,0:0:0:0:
229,261,18599,2,0,L|386:266,2,150,0|2|2,0:0|0:0|0:0,0:0:0:0:
96,235,19499,5,0,3:0:0:0:
96,235,19649,2,0,P|145:199|140:116,1,150,0|0,3:0|0:0,0:0:0:0:
33,42,20099,2,0,P|23:113|77:160,1,150,0|0,3:0|3:0,0:0:0:0:
170,177,20549,1,0,0:0:0:0:
257,146,20699,1,0,0:0:0:0:
275,71,20849,2,0,P|324:107|319:190,1,150,0|0,3:0|0:0,0:0:0:0:
212,264,21299,2,0,P|202:192|256:145,1,150,0|0,3:0|3:0,0:0:0:0:
348,121,21749,1,0,0:0:0:0:
434,158,21899,1,0,0:0:0:0:
454,249,22049,6,0,L|291:260,1,150,0|0,3:0|0:0,0:0:0:0:
207,259,22499,2,0,L|57:248,1,150,0|0,3:0|0:0,0:0:0:0:
12,169,22949,2,0,P|1:137|2:95,1,75,0|0,3:0|0:0,0:0:0:0:
25,9,23249,1,0,0:0:0:0:
113,30,23399,2,0,P|130:100|114:179,1,150,0|0,3:0|3:0,0:0:0:0:
47,322,23999,1,0,3:0:0:0:
282,300,24299,5,0,0:0:0:0:
282,300,24449,2,0,P|366:296|409:234,1,150,0|0,3:0|3:0,0:0:0:0:
399,153,24899,1,0,0:0:0:0:
320,86,25049,2,0,P|296:155|333:228,1,150,0|0,3:0|3:0,0:0:0:0:
405,248,25499,1,0,3:0:0:0:
481,195,25649,2,0,L|453:40,1,150,0|0,3:0|0:0,0:0:0:0:
378,100,26099,2,0,L|404:247,1,150,0|0,3:0|0:0,0:0:0:0:
422,340,26549,1,0,3:0:0:0:
232,298,26849,6,0,L|136:290,2,75,0|0|0,3:0|0:0|3:0,0:0:0:0:
326,307,27299,2,0,P|355:247|337:164,1,150,0|0,0:0|3:0,0:0:0:0:
284,93,27749,1,0,0:0:0:0:
120,127,28049,6,0,L|81:215,2,75,0|0|0,3:0|0:0|3:0,0:0:0:0:
154,39,28499,2,0,P|220:41|285:96,1,150,0|0,0:0|3:0,0:0:0:0:
319,180,28949,1,0,0:0:0:0:
194,328,29249,6,0,P|159:285|151:191,1,150,0|0,3:0|3:0,0:0:0:0:
193,109,29699,2,0,P|201:72|201:31,2,75,0|0|0,0:0|3:0|0:0,0:0:0:0:
133,182,30149,1,0,3:0:0:0:
133,182,30299,1,0,0:0:0:0:
181,261,30449,2,0,P|245:296|317:282,1,150,0|0,3:0|0:0,0:0:0:0:
378,214,30899,2,0,L|415:68,2,150,0|0|0,3:0|3:0|3:0,0:0:0:0:
341,308,31649,6,0,P|271:288|198:308,1,150,0|0,3:0|0:0,0:0:0:0:
113,352,32099,2,0,P|78:345|46:321,2,75,0|0|0,0:0|3:0|0:0,0:0:0:0:
206,344,32549,1,0,3:0:0:0:
271,283,32699,1,0,0:0:0:0:
277,194,32849,2,0,P|271:117|314:55,1,150,0|0,3:0|0:0,0:0:0:0:
404,80,33299,2,0,P|410:157|367:219,1,150,0|0,3:0|3:0,0:0:0:0:
202,296,33899,5,0,3:0:0:0:
202,296,34049,2,0,P|170:243|199:141,1,150,0|0,3:0|3:0,0:0:0:0:
270,114,34499,2,0,L|317:52,2,75,0|0|0,3:0|3:0|0:0,0:0:0:0:
214,187,34949,2,0,P|182:201|138:204,1,75,0|0,3:0|3:0,0:0:0:0:
54,176,35249,2,0,L|96:31,1,150,0|0,3:0|0:0,0:0:0:0:
184,60,35699,2,0,L|142:205,1,150,0|0,3:0|3:0,0:0:0:0:
269,304,36449,6,0,P|287:309|304:308,2,37.5,0|0|0,3:0|3:0|3:0,3:0:0:0:
193,248,36749,2,0,L|154:185,1,75,0|0,0:0|3:0,0:0:0:0:
308,69,37199,1,0,0:0:0:0:
308,69,37349,1,0,3:0:0:0:
241,280,37649,6,0,P|223:285|205:284,2,37.5,0|0|0,3:0|3:0|3:0,3:0:0:0:
317,224,37949,2,0,L|356:161,1,75,0|0,0:0|3:0,0:0:0:0:
202,45,38399,1,0,0:0:0:0:
202,45,38549,1,0,3:0:0:0:
387,129,38849,5,4,0:1:0:0:
202,45,39149,1,0,0:0:0:0:
387,129,39449,1,0,3:0:0:0:
187,194,39749,5,0,0:0:0:0:
187,194,39899,2,0,P|196:237|228:268,1,90.0000034332277,2|0,0:0|0:0,0:0:0:0:
320,287,40349,2,0,L|298:199,1,90.0000034332277,2|0,0:0|3:0,0:0:0:0:
272,111,40799,1,0,3:0:0:0:
272,111,40949,1,0,3:0:0:0:
426,50,41249,5,0,0:0:0:0:
386,235,41549,1,0,0:0:0:0:
426,50,41849,1,0,3:0:0:0:
333,69,41999,2,0,P|325:91|327:114,1,45.0000017166138,0|2,0:0|0:0,0:0:0:0:
354,206,42299,2,0,L|447:228,2,90.0000034332277
258,182,43049,1,0,3:0:0:0:
206,108,43199,1,0,0:0:0:0:
253,31,43349,1,0,3:0:0:0:
253,31,43499,1,0,3:0:0:0:
371,74,43649,6,0,L|446:64,2,60,0|0|0,3:0|0:0|0:0,0:0:0:0:
276,82,44099,1,0,0:0:0:0:
217,158,44249,2,0,L|155:166,2,60,0|0|0,3:0|0:0|0:0,0:0:0:0:
308,174,44699,2,0,P|331:224|331:291,1,120,0|0,3:0|0:0,0:0:0:0:
251,343,45149,2,0,P|220:332|172:304,1,60,0|0,3:0|0:0,0:0:0:0:
331,288,45449,2,0,P|361:277|410:249,1,60,0|0,3:0|0:0,0:0:0:0:
231,238,45749,6,0,P|194:198|158:137,1,120,0|0,3:0|3:0,0:0:0:0:
283,99,46199,1,0,3:0:0:0:
283,99,46274,1,0,3:0:0:0:
283,99,46349,2,0,P|278:133|268:169,1,60
231,238,46649,1,0,3:0:0:0:
141,265,46799,1,0,0:0:0:0:
56,229,46949,1,0,0:0:0:0:
25,144,47099,1,4,3:2:0:0:
34,123,47849,6,2,P|34:130|33:141,1,15,0|2,0:0|0:0,0:0:0:0:
126,51,48299,6,0,P|120:108|154:158,1,120,4|0,3:1|3:0,0:0:0:0:
239,196,48749,1,0,1:0:0:0:
334,190,48899,1,0,3:0:0:0:
418,143,49049,2,0,P|427:114|434:72,1,60,0|0,3:0|0:0,0:0:0:0:
352,33,49349,2,0,P|340:62|336:100,1,60,0|0,1:0|0:0,0:0:0:0:
334,190,49649,5,0,3:0:0:0:
364,283,49799,1,0,3:0:0:0:
443,339,49949,2,0,L|512:348,1,60,0|0,1:0|0:0,0:0:0:0:
364,283,50249,2,0,L|299:276,1,60,0|0,3:0|0:0,0:0:0:0:
208,263,50549,6,0,P|160:227|151:146,1,120,0|0,1:0|1:0,0:0:0:0:
169,80,50999,1,0,0:0:0:0:
263,63,51149,2,0,L|383:58,1,120,0|0,1:2|1:0,0:0:0:0:
479,53,51599,2,0,P|497:113|486:173,1,120,0|0,3:2|1:0,0:0:0:0:
380,244,52049,6,2,P|370:254|351:263,2,30,0|0|0,3:0|3:0|3:0,0:0:0:0:
397,153,52349,2,0,P|384:140|370:126,2,30,0|0|0,3:0|3:0|0:0,0:0:0:0:
454,225,52649,2,0,P|475:246|500:262,1,60,0|0,1:0|0:0,0:0:0:0:
512,168,52949,2,0,P|493:144|471:126,1,60,0|0,1:0|0:0,0:0:0:0:
392,74,53249,6,0,L|263:63,1,120,0|0,0:0|1:0,0:0:0:0:
174,54,53699,1,0,0:0:0:0:
76,40,53849,2,0,P|66:67|67:99,1,60
90,188,54149,1,0,1:0:0:0:
170,236,54299,2,0,P|223:265|264:315,1,120
328,245,54749,2,0,P|366:199|419:171,1,120,0|0,1:0|3:0,0:0:0:0:
508,147,55199,1,0,3:0:0:0:
508,147,55349,1,0,1:0:0:0:
269,67,55649,6,0,P|248:127|257:189,1,120,0|0,0:0|1:0,0:0:0:0:
298,265,56099,1,0,0:0:0:0:
377,322,56249,2,0,L|452:314,1,60
298,265,56549,2,0,L|215:279,1,60,0|0,1:0|0:0,0:0:0:0:
143,288,56849,5,2,0:0:0:0:
82,217,56999,1,2,0:0:0:0:
143,288,57149,1,0,1:0:0:0:
258,183,57449,5,2,0:0:0:0:
314,105,57599,1,2,0:0:0:0:
258,183,57749,1,0,1:0:0:0:
321,254,57899,1,0,3:0:0:0:
403,224,58049,6,0,P|423:167|413:109,1,120,4|0,3:1|1:0,0:0:0:0:
363,31,58499,1,0,0:0:0:0:
271,48,58649,2,0,L|137:67,1,120,0|0,0:0|1:0,0:0:0:0:
64,131,59099,2,0,L|198:150,1,120
281,162,59549,2,0,B|347:173|379:223,1,120,0|0,1:0|0:0,0:0:0:0:
407,317,59999,1,0,3:0:0:0:
407,317,60149,1,0,1:0:0:0:
172,259,60449,6,0,P|159:203|182:147,1,120,0|0,0:0|1:0,0:0:0:0:
253,88,60899,1,0,3:0:0:0:
351,75,61049,2,0,L|487:70,2,120,0|0|0,3:0|1:0|0:0,0:0:0:0:
253,88,61799,1,0,0:0:0:0:
182,146,61949,2,0,P|161:210|178:272,1,120,0|0,1:0|1:0,0:0:0:0:
226,338,62399,2,0,P|250:318|271:289,1,60,0|0,0:0|1:0,0:0:0:0:
306,212,62699,1,0,0:0:0:0:
258,134,62849,6,0,P|240:102|243:65,1,60,0|0,1:0|0:0,0:0:0:0:
333,83,63149,2,0,P|365:65|402:68,1,60,0|0,1:0|0:0,0:0:0:0:
381,155,63449,2,0,P|399:187|396:224,1,60,0|0,1:0|0:0,0:0:0:0:
306,212,63749,2,0,P|274:230|237:227,1,60,0|0,1:0|0:0,0:0:0:0:
159,198,64049,6,0,P|99:175|33:174,2,120,0|0|0,1:0|1:0|1:0,0:0:0:0:
239,248,64799,1,0,0:0:0:0:
319,300,64949,2,0,P|349:308|383:306,1,60,0|0,1:0|0:0,0:0:0:0:
472,286,65249,2,0,P|487:231|480:162,1,120,0|0,1:0|1:0,0:0:0:0:
432,88,65699,2,0,P|376:69|315:74,2,120,0|0|0,0:0|1:0|0:0,0:0:0:0:
488,165,66449,6,0,P|496:197|501:231,1,60,0|0,1:0|0:0,1:0:0:0:
422,292,66749,2,0,P|414:265|409:226,1,60,0|0,1:0|0:0,1:0:0:0:
407,142,67049,2,0,P|401:75|366:22,1,120,0|0,1:0|1:0,0:0:0:0:
184,45,67649,6,0,P|163:160|230:257,1,240,0|0,1:0|1:0,0:0:0:0:
322,284,68399,1,0,0:0:0:0:
419,271,68549,2,0,L|469:215,1,60,0|0,0:0|1:0,0:0:0:0:
395,70,68999,1,0,3:0:0:0:
395,70,69149,2,0,P|363:129|373:179,1,120,0|0,1:0|1:0,0:0:0:0:
448,353,69749,1,0,1:0:0:0:
256,192,70049,12,4,72449,0:0:0:0:
263,227,77849,6,0,L|266:243,12,15
279,317,78449,6,0,P|241:324|201:323,1,75,4|0,0:1|0:0,0:0:0:0:
111,305,78749,1,0,1:0:0:0:
73,216,78899,1,0,0:0:0:0:
97,126,79049,2,0,P|134:133|171:163,1,75
257,199,79349,2,0,P|233:229|191:249,1,75,0|0,1:0|0:0,0:0:0:0:
110,263,79649,6,0,P|82:190|103:119,1,150,2|0,0:0|0:0,0:0:0:0:
212,107,80099,2,0,P|231:179|203:247,1,150,2|2,0:0|0:0,0:0:0:0:
129,306,80549,1,0,1:0:0:0:
101,124,80849,6,0,P|177:132|229:181,1,150,0|0,0:0|1:0,0:0:0:0:
273,262,81299,1,0,0:0:0:0:
220,336,81449,2,0,L|141:340,1,75
63,279,81749,2,0,P|99:266|143:265,1,75,0|0,1:0|0:0,0:0:0:0:
273,262,82049,6,0,P|282:186|254:120,1,150,2|0,0:0|0:0,0:0:0:0:
162,39,82499,2,0,P|238:30|304:58,1,150,2|2,0:0|0:0,0:0:0:0:
386,109,82949,1,0,1:0:0:0:
454,258,83249,6,0,L|303:242,1,150,0|0,0:0|1:0,0:0:0:0:
212,231,83699,1,0,0:0:0:0:
120,221,83849,2,0,P|107:254|110:293,1,75
163,366,84149,1,0,1:0:0:0:
163,366,84299,1,0,0:0:0:0:
288,319,84449,6,0,P|310:250|288:175,1,150,2|0,0:0|0:0,0:0:0:0:
211,228,84899,2,0,P|189:159|211:84,1,150,2|2,0:0|0:0,0:0:0:0:
300,97,85349,1,0,1:0:0:0:
413,151,85649,5,0,0:0:0:0:
384,243,85799,2,0,L|423:260,2,37.5,0|0|0,3:0|3:0|1:0,0:0:0:0:
298,213,86099,1,0,0:0:0:0:
209,178,86249,2,0,P|187:209|186:253,1,75,0|0,1:0|0:0,0:0:0:0:
274,281,86549,2,0,P|296:250|297:206,1,75,0|0,1:0|1:0,0:0:0:0:
283,123,86849,5,2,0:0:0:0:
283,123,86999,2,0,L|126:118,2,150,0|2|2,0:0|0:0|0:0,0:0:0:0:
