osu file format v14

[General]
AudioFilename: audio.mp3
AudioLeadIn: 0
PreviewTime: 47820
Countdown: 0
SampleSet: Soft
StackLeniency: 0.7
Mode: 2
LetterboxInBreaks: 0
WidescreenStoryboard: 1

[Editor]
DistanceSpacing: 0.4
BeatDivisor: 4
GridSize: 8
TimelineZoom: 1.7

[Metadata]
Title:Gravitation (TV Size)
TitleUnicode:Gravitation (TV Size)
Artist:Maon Kurosaki
ArtistUnicode:黒崎真音
Creator:-Hex-
Version:Cup
Source:とある魔術の禁書目録Ⅲ
Tags:anime japanese rock jrock j-rock weapon op toaru majutsu no mokuroku index scientific railgun kagaku season three opening a certain magical iii 3 三 san female vocalist biribiri Mochi- Mochi
BeatmapID:4052032
BeatmapSetID:1953907

[Difficulty]
HPDrainRate:2
CircleSize:2.5
OverallDifficulty:6
ApproachRate:6
SliderMultiplier:0.999999999999999
SliderTickRate:1

[Events]
//Background and Video events
0,0,"bggggggggggg.jpg",0,0
//Break Periods
//Storyboard Layer 0 (Background)
//Storyboard Layer 1 (Fail)
//Storyboard Layer 2 (Pass)
//Storyboard Layer 3 (Foreground)
//Storyboard Layer 4 (Overlay)
//Storyboard Sound Samples

[TimingPoints]
495,300,4,2,1,60,1,0
11295,-100,4,2,1,70,0,0
11595,-100,4,2,1,70,0,0
13695,-100,4,2,1,70,0,0
13995,-100,4,2,1,70,0,0
16095,-100,4,2,1,70,0,0
16395,-100,4,2,1,70,0,0
19695,-100,4,1,2,60,0,0
19845,-100,4,2,1,60,0,0
24495,-100,4,1,2,60,0,0
24645,-100,4,2,1,60,0,0
29295,-100,4,1,2,70,0,0
29445,-100,4,2,1,70,0,0
31695,-100,4,1,2,70,0,0
31845,-100,4,2,1,70,0,0
38895,-100,4,2,1,50,0,0
40395,-100,4,3,2,50,0,0
40545,-100,4,2,1,50,0,0
43695,-100,4,1,2,60,0,0
43845,-100,4,2,1,60,0,0
45045,-100,4,2,2,60,0,0
45195,-100,4,2,1,60,0,0
48345,-90.9090909090909,4,2,1,80,0,1
52095,-90.9090909090909,4,2,3,80,0,1
52245,-90.9090909090909,4,2,1,80,0,1
52695,-90.9090909090909,4,2,3,80,0,1
52845,-90.9090909090909,4,2,1,80,0,1
55695,-90.9090909090909,4,2,3,80,0,1
55845,-90.9090909090909,4,2,1,80,0,1
57045,-90.9090909090909,4,2,1,80,0,1
57345,-90.9090909090909,4,2,1,80,0,1
58095,-90.9090909090909,4,1,2,80,0,1
58245,-90.9090909090909,4,2,1,80,0,1
59295,-90.9090909090909,4,2,3,80,0,1
59445,-90.9090909090909,4,2,1,80,0,1
60495,-90.9090909090909,4,2,3,80,0,1
60645,-90.9090909090909,4,2,1,80,0,1
61695,-90.9090909090909,4,2,3,80,0,1
61845,-90.9090909090909,4,2,1,80,0,1
65295,-90.9090909090909,4,1,2,80,0,1
65445,-90.9090909090909,4,2,1,80,0,1
67695,-90.9090909090909,4,1,2,80,0,1
67845,-90.9090909090909,4,2,1,80,0,1
70095,-90.9090909090909,4,1,2,80,0,1
70245,-90.9090909090909,4,2,1,80,0,1
72495,-100,4,2,1,35,0,0
77295,-100,4,2,1,50,0,0
79695,-100,4,2,1,70,0,0
79995,-100,4,2,1,70,0,0
82095,-100,4,2,1,70,0,0
82395,-100,4,2,1,70,0,0
84495,-100,4,2,1,70,0,0
84795,-100,4,2,1,70,0,0
86895,-100,4,2,1,50,0,0

[Colours]
Combo1 : 35,140,231
Combo2 : 194,134,106
Combo3 : 249,138,119
Combo4 : 235,221,50

[HitObjects]
158,258,495,6,0,L|47:235,2,99.9999999999999,0|8|8,1:0|0:2|0:2,0:0:0:0:
258,258,1395,2,0,L|264:193,1,50,8|0,0:2|1:0,0:0:0:0:
161,151,1845,6,0,L|153:83,1,50,0|8,1:0|0:2,0:0:0:0:
255,20,2295,1,8,0:3:0:0:
75,113,2745,6,0,L|64:215,1,99.9999999999999,2|0,1:2|1:0,0:0:0:0:
115,219,3195,2,0,L|236:228,1,99.9999999999999,8|8,0:2|0:2,0:0:0:0:
315,335,3795,2,0,L|320:281,1,50,8|0,0:2|1:0,0:0:0:0:
220,209,4245,6,0,L|164:209,1,50,8|8,0:2|0:2,0:0:0:0:
271,64,4695,1,8,0:3:0:0:
451,55,5145,6,0,L|456:159,1,99.9999999999999,2|0,1:2|1:0,0:0:0:0:
406,188,5595,2,0,L|293:205,1,99.9999999999999,8|8,0:2|0:2,0:0:0:0:
206,339,6195,2,0,L|196:273,1,50,8|0,0:2|1:0,0:0:0:0:
96,223,6645,6,0,L|103:160,1,50,0|8,1:0|0:2,0:0:0:0:
202,60,7095,1,8,0:3:0:0:
22,96,7545,6,0,L|142:96,1,99.9999999999999,2|0,1:2|1:0,0:0:0:0:
174,91,7995,2,0,L|183:200,1,99.9999999999999,8|8,0:2|0:2,0:0:0:0:
282,350,8595,2,0,L|344:340,1,50,8|0,0:2|1:0,0:0:0:0:
150,158,10095,6,0,L|149:271,1,99.9999999999999,12|10,1:1|0:2,0:0:0:0:
250,340,10695,2,0,L|308:343,1,50,2|2,1:2|0:2,0:0:0:0:
480,276,11295,6,0,P|489:230|416:138,1,150,2|2,1:1|0:1,0:0:0:0:
337,147,12045,1,2,0:1:0:0:
157,63,12495,6,0,L|41:48,1,99.9999999999999,2|10,1:2|0:2,0:0:0:0:
159,154,13095,2,0,L|222:159,1,50,2|2,1:2|0:2,0:0:0:0:
29,219,13695,6,0,P|25:251|91:351,1,150,2|2,1:1|0:1,0:0:0:0:
184,346,14445,1,2,0:1:0:0:
365,203,14895,6,0,L|244:186,1,99.9999999999999,4|10,1:1|0:2,0:0:0:0:
168,123,15495,2,0,L|162:71,1,50,2|2,1:2|0:2,0:0:0:0:
342,24,16095,6,0,P|396:47|418:151,1,150,2|2,1:1|0:1,0:0:0:0:
324,258,16845,1,2,0:1:0:0:
146,56,17295,6,0,L|263:43,2,99.9999999999999,0|10|2,1:0|0:3|1:2,0:0:0:0:
95,68,18045,1,2,1:2:0:0:
275,188,18495,6,0,P|284:248|220:303,1,150,2|2,1:1|1:1,0:0:0:0:
121,311,19245,1,2,1:1:0:0:
301,205,19695,6,0,L|420:201,1,99.9999999999999,6|8,1:1|0:2,0:0:0:0:
351,127,20145,2,0,L|238:125,1,99.9999999999999,2|0,0:2|1:0,0:0:0:0:
402,19,20895,6,0,L|410:122,1,99.9999999999999,2|10,1:2|0:2,0:0:0:0:
359,218,21345,2,0,L|470:220,1,99.9999999999999,2|2,0:2|1:2,0:0:0:0:
278,317,22095,6,0,L|160:307,1,99.9999999999999,2|10,1:2|0:2,0:0:0:0:
127,302,22545,2,0,L|247:289,1,99.9999999999999,2|2,0:2|1:2,0:0:0:0:
226,291,22995,1,10,0:2:0:0:
125,50,23295,6,0,P|76:56|10:140,2,150,2|2|8,1:2|1:2|0:2,0:0:0:0:
245,199,24495,6,0,L|352:204,1,99.9999999999999,6|10,1:1|0:2,0:0:0:0:
244,347,25095,2,0,L|123:333,1,99.9999999999999,2|10,0:0|0:2,0:0:0:0:
245,217,25695,6,0,P|271:183|243:125,1,99.9999999999999,2|10,1:2|0:2,0:0:0:0:
154,58,26295,2,0,L|264:51,1,99.9999999999999,0|8,0:0|0:2,0:0:0:0:
374,170,26895,6,0,L|225:252,2,150,4|0|8,1:1|1:0|0:2,0:0:0:0:
274,322,28095,6,0,L|413:398,2,150,0|4|8,1:0|0:3|0:2,0:0:0:0:
155,232,29295,6,0,L|268:219,1,99.9999999999999,6|10,1:1|0:0,0:0:0:0:
357,210,29895,2,0,L|360:99,1,99.9999999999999,2|10,1:2|0:2,0:0:0:0:
239,54,30495,6,0,L|87:124,2,150,2|2|8,1:2|0:0|0:2,0:0:0:0:
359,43,31695,6,0,L|368:157,1,99.9999999999999,6|10,1:1|0:2,0:0:0:0:
268,178,32295,2,0,L|157:199,1,99.9999999999999,2|10,1:2|0:0,0:0:0:0:
289,346,32895,6,0,L|348:355,1,50,2|2,1:2|0:2,0:0:0:0:
237,264,33345,2,0,L|229:155,1,99.9999999999999,2|2,1:2|1:2,0:0:0:0:
410,122,34095,6,0,P|448:97|463:39,1,99.9999999999999,2|10,1:2|0:2,0:0:0:0:
363,45,34695,2,0,L|262:40,1,99.9999999999999,2|10,1:2|0:2,0:0:0:0:
383,175,35295,6,0,L|396:289,1,99.9999999999999,2|10,1:2|0:2,0:0:0:0:
345,281,35745,2,0,L|232:276,1,99.9999999999999,2|2,0:2|1:2,0:0:0:0:
196,276,36195,1,10,0:2:0:0:
76,137,36495,6,0,L|224:58,2,150,4|0|8,1:1|1:0|0:2,0:0:0:0:
175,193,37695,6,0,L|176:300,1,99.9999999999999,8|8,1:3|0:3,0:0:0:0:
276,283,38295,1,0,1:0:0:0:
377,281,38595,1,8,0:0:0:0:
258,58,38895,6,0,L|155:82,2,99.9999999999999,2|0|8,1:2|1:0|0:2,0:0:0:0:
360,88,39795,2,0,L|373:150,1,50,2|2,0:2|1:2,0:0:0:0:
269,180,40245,6,0,L|261:246,1,50,2|6,1:2|0:3,0:0:0:0:
161,341,40695,2,0,L|147:239,1,99.9999999999999,10|2,0:2|1:2,0:0:0:0:
268,180,41295,6,0,L|273:74,1,99.9999999999999,2|2,1:2|1:2,0:0:0:0:
173,61,41895,2,0,L|280:55,1,99.9999999999999,8|0,0:0|3:0,0:0:0:0:
222,130,42345,6,0,L|105:148,2,99.9999999999999,2|2|2,1:2|1:2|1:2,0:0:0:0:
272,119,43095,1,8,0:2:0:0:
373,106,43395,2,0,L|433:115,1,50,8|8,0:2|0:2,0:0:0:0:
355,165,43695,6,0,L|342:269,1,99.9999999999999,6|8,1:1|0:2,0:0:0:0:
242,336,44295,2,0,L|130:334,1,99.9999999999999,10|10,0:2|0:2,0:0:0:0:
192,250,44745,1,2,1:2:0:0:
242,245,44895,6,0,P|267:189|260:139,1,99.9999999999999,10|10,1:2|0:2,0:0:0:0:
143,96,45495,2,0,L|82:87,2,50,10|2|10,0:2|1:2|0:2,0:0:0:0:
256,192,46095,12,6,47145,1:3:0:0:
165,207,48345,6,0,P|118:174|185:98,1,165.0000050354,12|10,1:1|0:2,0:0:0:0:
264,40,49095,2,0,L|398:39,1,110.000003356934,2|8,1:2|0:2,0:0:0:0:
324,110,49545,5,2,0:2:0:0:
173,302,49995,2,0,L|49:264,2,110.000003356934,10|2|10,0:2|1:2|0:2,0:0:0:0:
300,293,50895,6,0,L|433:288,1,110.000003356934,4|10,1:1|0:2,0:0:0:0:
311,208,51495,2,0,L|306:145,1,55.0000016784668,2|2,1:2|1:2,0:0:0:0:
455,43,52095,6,0,L|469:160,1,110.000003356934,8|8,1:2|0:2,0:0:0:0:
370,232,52695,2,0,L|489:239,1,110.000003356934,8|8,1:2|0:2,0:0:0:0:
353,341,53295,6,0,L|225:335,2,110.000003356934,4|10|2,1:1|0:2|1:2,0:0:0:0:
252,247,54195,1,10,0:2:0:0:
127,143,54495,6,0,L|5:136,1,110.000003356934,2|10,1:2|0:2,0:0:0:0:
118,245,55095,2,0,L|240:251,1,110.000003356934,2|10,1:2|0:2,0:0:0:0:
100,347,55695,6,0,P|59:314|44:248,1,110.000003356934,14|10,1:2|0:2,0:0:0:0:
143,154,56295,2,0,L|154:81,1,55.0000016784668,2|2,1:2|1:2,0:0:0:0:
340,30,56895,6,0,L|409:33,1,55.0000016784668,2|2,1:1|1:1,0:0:0:0:
245,221,57495,2,0,L|177:227,1,55.0000016784668,2|2,1:1|1:1,0:0:0:0:
382,347,58095,6,0,P|420:343|476:295,2,110.000003356934,6|10|2,1:1|0:2|1:2,0:0:0:0:
284,337,58995,2,0,L|269:272,1,55.0000016784668,10|2,0:2|0:2,0:0:0:0:
440,124,59595,5,10,0:2:0:0:
330,131,59895,1,2,1:2:0:0:
220,130,60195,1,10,0:2:0:0:
347,300,60495,6,0,L|421:309,1,55.0000016784668,6|2,1:1|0:2,0:0:0:0:
302,199,60945,2,0,L|226:188,1,55.0000016784668,2|2,0:2|1:2,0:0:0:0:
120,56,61395,1,10,0:0:0:0:
70,59,61545,6,0,L|58:193,1,110.000003356934,2|0,0:1|0:0,0:0:0:0:
111,177,61995,2,0,L|236:188,2,110.000003356934,10|0|10,0:2|1:0|0:2,0:0:0:0:
238,299,62895,6,0,P|306:280|369:187,1,165.0000050354,4|2,1:1|0:2,0:0:0:0:
215,102,63795,1,8,0:2:0:0:
341,22,64095,5,2,1:2:0:0:
341,22,64395,2,0,L|474:20,2,110.000003356934,10|2|10,0:2|0:2|0:2,0:0:0:0:
216,18,65295,6,0,P|154:30|62:161,1,220.000006713867,6|2,1:1|0:2,0:0:0:0:
302,347,66495,1,2,1:2:0:0:
302,347,66795,2,0,L|176:333,2,110.000003356934,10|2|10,0:2|0:2|0:2,0:0:0:0:
176,238,67695,6,0,P|98:213|194:57,1,330.000010070801,6|8,1:1|0:2,0:0:0:0:
284,32,68895,5,2,1:2:0:0:
384,27,69195,2,0,L|396:142,1,110.000003356934,10|2,0:2|1:2,0:0:0:0:
268,146,69795,1,10,0:2:0:0:
395,123,70095,6,0,L|402:251,1,110.000003356934,6|8,1:1|0:2,0:0:0:0:
300,215,70695,2,0,L|296:343,1,110.000003356934,8|8,0:0|0:2,0:0:0:0:
170,323,71295,6,0,L|55:307,1,110.000003356934,2|8,1:2|0:2,0:0:0:0:
161,214,71895,2,0,L|170:103,1,110.000003356934,8|8,0:2|0:2,0:0:0:0:
49,63,72495,5,2,2:2:0:0:
256,192,72795,12,0,73395,0:0:0:0:
256,192,74895,12,0,75795,0:0:0:0:
256,192,77295,12,2,78195,0:2:0:0:
238,232,78495,6,0,L|349:224,1,99.9999999999999,12|10,1:1|0:2,0:0:0:0:
238,101,79095,2,0,L|247:169,1,50,2|2,1:2|0:2,0:0:0:0:
63,343,79695,6,0,P|51:293|135:236,1,150,2|2,1:1|0:1,0:0:0:0:
219,225,80445,1,2,0:1:0:0:
398,216,80895,6,0,L|513:212,1,99.9999999999999,2|10,1:2|0:2,0:0:0:0:
398,111,81495,2,0,L|333:110,1,50,2|2,1:2|0:2,0:0:0:0:
163,268,82095,6,0,P|120:238|184:183,1,150,2|2,1:1|0:1,0:0:0:0:
273,181,82845,1,2,0:1:0:0:
93,63,83295,6,0,L|-18:59,1,99.9999999999999,4|10,1:1|0:2,0:0:0:0:
91,180,83895,2,0,L|158:185,1,50,2|2,1:2|0:2,0:0:0:0:
322,176,84495,6,0,P|348:211|313:303,1,150,2|2,1:1|0:1,0:0:0:0:
215,294,85245,1,2,0:1:0:0:
398,348,85695,6,0,L|289:342,2,99.9999999999999,0|10|2,1:0|0:3|1:2,0:0:0:0:
449,350,86445,1,2,1:2:0:0:
267,245,86895,6,0,L|260:85,1,150,2|2,1:2|0:2,0:0:0:0:
160,66,87645,1,2,0:2:0:0:
