osu file format v14

[General]
AudioFilename: audio.mp3
AudioLeadIn: 0
PreviewTime: 44505
Countdown: 0
SampleSet: Soft
StackLeniency: 0.7
Mode: 0
LetterboxInBreaks: 0
WidescreenStoryboard: 0

[Editor]
DistanceSpacing: 0.9
BeatDivisor: 4
GridSize: 4
TimelineZoom: 1

[Metadata]
Title:Afterglow
TitleUnicode:アフターグロウ
Artist:Maon Kurosaki
ArtistUnicode:黒崎真音
Creator:Terton
Version:Easy
Source:がっこうぐらし!
Tags:gakkou gurashi gakkougurashi school live school-live ending ed tv size sakura megumi 佐倉慈 megu-nee gordon123 japanese anime
BeatmapID:2087774
BeatmapSetID:998147

[Difficulty]
HPDrainRate:2
CircleSize:2.5
OverallDifficulty:2
ApproachRate:3.5
SliderMultiplier:2
SliderTickRate:1

[Events]
//Background and Video events
0,0,"bg.jpg",0,0
//Break Periods
//Storyboard Layer 0 (Background)
//Storyboard Layer 1 (Fail)
//Storyboard Layer 2 (Pass)
//Storyboard Layer 3 (Foreground)
//Storyboard Layer 4 (Overlay)
//Storyboard Sound Samples

[TimingPoints]
3896,731.707317073171,4,2,2,50,1,0
12676,-100,4,2,2,55,0,0
15603,-100,4,2,1,60,0,0
27310,-100,4,2,1,55,0,0
37554,-100,4,2,1,55,0,0
41944,-100,4,2,1,60,0,0
44871,-100,4,2,1,70,0,1
56213,-100,4,2,1,70,0,0
56578,-100,4,2,1,70,0,1
74139,-100,4,2,1,60,0,0
85847,-100,4,2,1,50,0,0

[Colours]
Combo1 : 10,98,245
Combo2 : 252,106,255
Combo3 : 146,56,211

[HitObjects]
415,273,3896,5,4,0:0:0:0:
251,347,4627,2,0,P|198:329|134:352,1,100,2|2,0:0|0:0,0:0:0:0:
82,285,5359,2,0,P|50:200|89:103,1,200,4|2,0:0|0:0,0:0:0:0:
269,103,6822,6,0,L|370:91,1,100,4|0,0:0|0:0,0:0:0:0:
449,52,7554,1,2,0:0:0:0:
443,232,8286,1,4,0:0:0:0:
287,323,9017,2,0,P|247:289|189:279,1,100,2|2,0:0|0:0,0:0:0:0:
122,322,9749,6,0,P|121:235|248:200,1,200,4|2,0:0|0:0,0:0:0:0:
383,249,11213,2,0,L|391:43,1,200,4|2,0:0|0:0,0:0:0:0:
256,192,12676,12,6,15603,0:0:0:0:
140,329,17066,6,0,L|347:329,1,200,2|8,0:0|0:0,0:0:0:0:
418,284,18164,1,2,0:0:0:0:
357,217,18530,6,0,L|236:217,1,100,2|0,0:0|0:0,0:0:0:0:
167,212,19261,1,8,0:0:0:0:
247,51,19993,1,2,0:0:0:0:
334,71,20359,1,2,0:0:0:0:
420,44,20725,2,0,L|422:161,1,100,8|2,0:0|0:0,0:0:0:0:
468,220,21456,6,0,P|375:256|276:215,1,200,4|8,0:0|0:0,0:0:0:0:
215,165,22554,1,0,0:0:0:0:
169,242,22920,2,0,L|64:240,1,100,2|2,0:0|0:0,0:0:0:0:
9,172,23652,2,0,P|-1:118|18:63,1,100,8|2,0:0|0:0,0:0:0:0:
91,35,24383,6,0,L|300:35,2,200,4|6|4,0:0|0:0|0:0,0:0:0:0:
118,213,26578,1,2,0:0:0:0:
273,122,27310,6,0,P|314:102|392:105,1,100,6|0,0:0|0:0,0:0:0:0:
453,127,28042,2,0,L|458:238,1,100,8|0,0:0|0:0,0:0:0:0:
442,315,28774,2,0,P|339:281|240:328,1,200,2|8,0:0|0:0,0:0:0:0:
100,222,30237,6,0,P|74:183|71:115,1,100,6|0,0:0|0:0,0:0:0:0:
148,91,30969,2,0,P|174:130|177:198,1,100,8|2,0:0|0:0,0:0:0:0:
179,271,31700,2,0,L|296:303,1,100,2|0,0:0|0:0,0:0:0:0:
356,257,32432,2,0,B|412:174|287:127|360:32,2,200,2|8|2,0:0|0:0|0:0,0:0:0:0:
185,315,34627,5,2,0:0:0:0:
22,237,35359,1,6,0:0:0:0:
202,221,36091,2,0,B|267:202|326:299|326:299|370:201|428:167|461:166|461:166|541:166,1,400,2|6,0:0|0:0,0:0:0:0:
160,160,39017,6,0,P|151:259|265:323,1,200,2|2,0:0|0:0,0:0:0:0:
391,260,40481,2,0,P|400:161|286:97,1,200,2|2,0:0|0:0,0:0:0:0:
211,235,41944,5,2,0:0:0:0:
79,112,42676,1,2,0:0:0:0:
252,62,43408,1,8,1:0:0:0:
252,62,44871,6,0,P|303:84|319:226,1,200,6|8,0:0|0:0,0:0:0:0:
281,291,45969,1,2,0:0:0:0:
195,317,46335,2,0,L|75:321,1,100,2|2,0:0|0:0,0:0:0:0:
63,235,47066,2,0,L|162:231,1,100,8|2,0:0|0:0,0:0:0:0:
237,179,47798,6,0,P|281:64|353:45,1,200,4|8,0:0|0:0,0:0:0:0:
435,57,48896,1,2,0:0:0:0:
413,144,49261,2,0,P|409:194|454:261,1,100,2|2,0:0|0:0,0:0:0:0:
478,313,49993,2,0,P|430:327|382:312,1,100,8|2,0:0|0:0,0:0:0:0:
311,259,50725,6,0,L|110:273,1,200,4|2,0:0|0:0,0:0:0:0:
30,311,51822,1,2,0:0:0:0:
42,221,52188,2,0,P|43:160|20:103,2,100,2|2|8,0:0|0:0|0:0,0:0:0:0:
30,311,53286,1,2,0:0:0:0:
111,272,53652,6,0,P|163:258|216:277,1,100,4|0,0:0|0:0,0:0:0:0:
285,313,54383,2,0,P|337:327|390:308,1,100,8|0,0:0|0:0,0:0:0:0:
454,263,55115,2,0,L|418:54,1,200,2|2,0:0|0:0,0:0:0:0:
298,198,56578,6,0,P|242:162|113:202,1,200,6|8,0:0|0:0,0:0:0:0:
46,245,57676,1,2,0:0:0:0:
35,155,58042,2,0,L|31:45,1,100,2|2,0:0|0:0,0:0:0:0:
116,24,58774,2,0,L|119:123,1,100,8|2,0:0|0:0,0:0:0:0:
201,160,59505,6,0,P|266:114|413:160,1,200,4|8,0:0|0:0,0:0:0:0:
446,190,60603,1,2,0:0:0:0:
434,279,60969,2,0,L|312:301,1,100,2|2,0:0|0:0,0:0:0:0:
257,341,61700,2,0,L|135:319,1,100,8|2,0:0|0:0,0:0:0:0:
102,252,62432,5,4,0:0:0:0:
146,173,62798,2,0,P|165:102|150:49,2,100,0|2|2,0:0|0:0|0:0,0:0:0:0:
102,252,63896,2,0,L|200:269,1,100,2|2,0:0|0:0,0:0:0:0:
274,319,64627,1,8,0:0:0:0:
361,299,64993,1,0,0:0:0:0:
433,352,65359,6,0,P|449:295|421:233,1,100,2|2,0:0|0:0,0:0:0:0:
378,189,66091,2,0,L|275:190,1,100,2|0,0:0|0:0,0:0:0:0:
212,252,66822,1,8,0:0:0:0:
120,252,67188,1,8,0:0:0:0:
120,160,67554,1,8,0:0:0:0:
120,68,67920,1,8,0:0:0:0:
205,95,68286,6,0,P|265:109|335:89,1,100,6|2,0:0|0:0,0:0:0:0:
373,48,69017,2,0,P|433:34|503:54,1,100,8|2,0:0|0:0,0:0:0:0:
464,129,69749,2,0,L|489:259,1,100,2|2,0:0|0:0,0:0:0:0:
405,274,70481,2,0,L|386:175,1,100,8|2,0:0|0:0,0:0:0:0:
368,87,71213,6,0,B|121:111|281:289|30:293,1,400,4|8,0:0|1:0,0:0:0:0:
54,291,74139,6,0,P|116:223|98:103,1,200,6|8,0:0|0:0,0:0:0:0:
174,58,75237,1,2,0:0:0:0:
354,76,75969,2,0,L|462:63,2,100,2|8|2,0:0|0:0|0:0,0:0:0:0:
283,132,77066,6,0,P|243:181|293:321,1,200,6|8,0:0|0:0,0:0:0:0:
349,350,78164,1,2,0:0:0:0:
168,351,78896,2,0,L|60:338,2,100,12|8|2,0:0|0:0|0:0,0:0:0:0:
256,192,79993,12,6,85847,0:0:0:0:
