osu file format v14

[General]
AudioFilename: Gakkou Gurashi! Ending 3.mp3
AudioLeadIn: 0
PreviewTime: 43798
Countdown: 0
SampleSet: Soft
StackLeniency: 0.7
Mode: 0
LetterboxInBreaks: 0
WidescreenStoryboard: 0

[Editor]
DistanceSpacing: 0.8
BeatDivisor: 1
GridSize: 4
TimelineZoom: 1.200003

[Metadata]
Title:Afterglow (TV Size)
TitleUnicode:アフターグロウ (TV Size)
Artist:Maon Kurosaki
ArtistUnicode:黒崎 真音
Creator:Revialink
Version:Easy
Source:がっこうぐらし!
Tags:megu nee school live ending episode 8 refaller Kawaiwkyik Rizia ByBy13
BeatmapID:779862
BeatmapSetID:353187

[Difficulty]
HPDrainRate:2
CircleSize:2
OverallDifficulty:3
ApproachRate:2
SliderMultiplier:1.6
SliderTickRate:2

[Events]
//Background and Video events
Video,0,"Gakkou Gurashi TV Size ED 2.avi"
0,0,"bg.jpg",0,0
//Break Periods
//Storyboard Layer 0 (Background)
//Storyboard Layer 1 (Fail)
//Storyboard Layer 2 (Pass)
//Storyboard Layer 3 (Foreground)
//Storyboard Sound Samples

[TimingPoints]
3555,731.707317073171,4,2,1,40,1,0
4286,-100,4,2,89,40,0,0
13798,-100,4,2,1,45,0,0
14164,-100,4,2,1,50,0,0
14530,-100,4,2,1,55,0,0
14896,-100,4,2,1,60,0,0
15262,-100,4,2,99,75,0,0
16725,-100,4,2,89,55,0,0
26969,-100,4,2,89,30,0,0
37213,-100,4,2,89,60,0,0
38676,-100,4,2,89,60,0,0
39408,-100,4,2,89,65,0,0
40140,-100,4,2,89,70,0,0
40872,-100,4,2,89,80,0,0
41603,-100,4,2,89,85,0,0
42335,-100,4,2,89,90,0,0
43067,-100,4,2,2,100,0,0
44530,-100,4,2,89,80,0,1
54774,-100,4,2,89,80,0,0
56237,-100,4,2,89,80,0,1
66481,-100,4,2,89,80,0,0
67945,-100,4,2,89,80,0,1
72335,-100,4,2,89,80,0,0
73798,-100,4,2,89,60,0,1
85506,-100,4,2,99,60,0,0

[Colours]
Combo1 : 0,128,192
Combo2 : 255,255,128
Combo3 : 255,140,255
Combo4 : 255,128,64

[HitObjects]
328,64,3555,5,2,0:0:0:0:
212,116,4286,1,2,0:0:0:0:
144,224,5018,1,2,0:0:0:0:
244,304,5750,6,0,P|324:296|388:248,1,160,0|2,0:0|0:0,0:0:0:0:
392,120,7213,2,0,P|318:69|230:69,2,160,2|2|0,0:0|0:0|0:0,0:0:0:0:
432,240,9408,1,2,0:0:0:0:
332,320,10140,6,0,P|252:336|148:304,1,160,2|2,0:0|0:0,0:0:0:0:
96,220,11603,1,2,0:0:0:0:
176,120,12335,1,2,0:0:0:0:
256,192,13798,12,4,15262,0:3:0:0:
240,97,16725,5,2,0:0:0:0:
272,152,17091,1,4,0:3:0:0:
224,192,17457,2,0,P|152:232|128:240,2,80,8|4|2,0:0|0:3|0:0,0:0:0:0:
324,112,18920,6,0,P|365:178|440:200,1,160,8|2,0:0|0:0,0:0:0:0:
500,176,20018,1,4,0:3:0:0:
496,112,20384,2,0,P|432:32|344:32,1,160,8|2,0:0|0:0,0:0:0:0:
276,96,21847,6,0,P|260:164|324:244,1,160,8|0,0:0|0:0,0:0:0:0:
372,232,22945,1,4,0:3:0:0:
428,204,23311,1,8,0:0:0:0:
380,72,24042,5,4,0:0:0:0:
320,48,24408,1,4,0:3:0:0:
256,32,24774,2,0,B|208:16|160:48,1,80,2|4,0:0|0:3,0:0:0:0:
120,64,25506,1,0,0:0:0:0:
20,300,26969,5,2,0:0:0:0:
136,248,27701,1,2,0:0:0:0:
264,260,28433,1,2,0:0:0:0:
384,220,29164,1,2,0:0:0:0:
400,100,29896,5,2,0:0:0:0:
276,64,30628,2,0,P|208:48|120:80,1,160,2|2,0:0|0:0,0:0:0:0:
92,200,32091,1,2,0:0:0:0:
220,192,32823,5,2,0:0:0:0:
168,76,33555,2,0,P|248:72|328:108,1,160,2|2,0:0|0:0,0:0:0:0:
412,192,35018,1,2,0:0:0:0:
256,192,35750,12,0,37213,0:0:0:0:
76,64,38676,38,0,P|76:136|92:176,1,80,0|0,0:0|0:0,0:0:0:0:
124,188,39408,2,0,P|194:173|222:189,1,80,2|0,0:1|0:0,0:0:0:0:
228,232,40140,2,0,P|283:230|302:218,1,80,2|8,0:1|0:0,0:0:0:0:
356,184,40872,1,8,0:0:0:0:
372,122,41237,1,8,0:0:0:0:
417,167,41603,5,12,0:0:0:0:
300,220,42335,1,12,0:0:0:0:
248,104,43067,1,12,0:0:0:0:
24,224,44530,6,0,P|40:312|56:320,1,80,4|0,0:0|0:0,0:0:0:0:
88,328,45262,2,0,B|192:332|216:224,1,160,8|2,0:0|0:0,0:0:0:0:
156,128,46725,2,0,P|105:123|20:192,1,160,8|2,0:0|0:0,0:0:0:0:
28,252,47823,6,0,P|84:292|124:300,1,80,0|8,0:0|0:0,0:0:0:0:
156,272,48555,2,0,B|215:229|305:218,1,160,0|0,0:0|0:0,0:0:0:0:
328,280,49652,2,0,B|418:268|477:226,1,160,8|4,0:0|0:0,0:0:0:0:
404,120,51115,5,8,0:0:0:0:
292,180,51847,1,2,0:0:0:0:
192,116,52579,2,0,P|144:96|48:152,1,160,8|4,0:0|0:0,0:0:0:0:
52,204,53676,5,0,0:0:0:0:
92,252,54042,1,8,0:0:0:0:
216,216,54774,1,4,0:0:0:0:
44,28,56237,5,4,0:0:0:0:
172,48,56969,2,0,B|276:104|164:168,1,160,8|2,0:0|0:0,0:0:0:0:
116,200,58067,1,0,0:0:0:0:
144,256,58433,2,0,P|208:280|248:272,1,80,8|0,0:0|0:0,0:0:0:0:
284,280,59164,1,2,0:0:0:0:
409,266,59896,6,0,P|460:240|452:136,1,160,8|0,0:0|0:0,0:0:0:0:
420,96,60994,1,0,0:0:0:0:
360,120,61359,2,0,B|330:132|210:100,1,80,8|0,0:0|0:0,0:0:0:0:
220,92,62091,6,0,P|180:180|232:240,1,160,4|10,0:0|0:0,0:0:0:0:
256,272,63189,1,2,0:0:0:0:
308,308,63555,2,0,P|376:308|444:244,1,160,2|10,0:0|0:0,0:0:0:0:
444,120,65018,6,0,P|388:65|310:61,1,160,2|8,0:0|0:0,0:0:0:0:
352,180,66481,2,0,P|340:272|136:316,1,320,4|4,0:0|0:0,0:0:0:0:
64,224,68676,6,0,B|104:152|48:136|72:56,1,160,8|0,0:0|0:0,0:0:0:0:
124,32,69774,1,0,0:0:0:0:
180,60,70140,2,0,P|236:100|268:116,1,80,8|0,0:0|0:0,0:0:0:0:
308,84,70872,6,0,P|383:63|420:244,1,320,4|8,0:0|0:0,0:0:0:0:
48,64,73798,6,0,P|72:160|120:232,1,160,4|8,0:0|0:0,0:0:0:0:
152,252,74896,1,0,0:0:0:0:
200,212,75262,2,0,P|248:164|324:208,1,160,0|8,0:0|0:0,0:0:0:0:
372,240,76359,1,0,0:0:0:0:
428,208,76725,6,0,B|412:92|320:64,1,160,0|8,0:0|0:0,0:0:0:0:
296,112,77823,1,0,0:0:0:0:
252,156,78189,1,0,0:0:0:0:
200,196,78555,2,0,P|152:228|116:240,2,80,0|8|0,0:0|0:0|0:0,0:0:0:0:
256,192,79652,12,4,85506,0:3:0:0:
