osu file format v14

[General]
AudioFilename: audio.mp3
AudioLeadIn: 0
PreviewTime: -1
Countdown: 1
SampleSet: Soft
StackLeniency: 0.7
Mode: 0
LetterboxInBreaks: 0
WidescreenStoryboard: 1

[Editor]
DistanceSpacing: 1.2
BeatDivisor: 4
GridSize: 8
TimelineZoom: 1

[Metadata]
Title:Corpse Party - Chapter 4 Opening
TitleUnicode:Corpse Party - Chapter 4 Opening
Artist:Mao Hamamoto
ArtistUnicode:Mao Hamamoto
Creator:Eragon0309
Version:Sane
Source:Corpse Party
Tags:Corpse Party
BeatmapID:1278612
BeatmapSetID:601734

[Difficulty]
HPDrainRate:6
CircleSize:3.5
OverallDifficulty:6
ApproachRate:7
SliderMultiplier:1.4
SliderTickRate:1

[Events]
//Background and Video events
0,0,"d.jpg",0,0
//Break Periods
//Storyboard Layer 0 (Background)
//Storyboard Layer 1 (Fail)
//Storyboard Layer 2 (Pass)
//Storyboard Layer 3 (Foreground)
//Storyboard Sound Samples

[TimingPoints]
9560.25409169057,428.540818512963,4,2,1,100,1,0

[HitObjects]
256,192,989,12,0,9453,0:0:0:0:
264,72,9560,6,0,P|328:72|376:128,1,140
424,200,10203,1,0,0:0:0:0:
432,288,10417,2,0,L|264:288,1,140
192,224,11060,1,0,0:0:0:0:
128,144,11274,2,0,P|152:88|248:80,1,140
392,192,12131,6,0,P|376:272|320:304,1,140
248,304,12774,1,0,0:0:0:0:
144,296,12988,2,0,L|144:144,1,140
192,56,13631,1,0,0:0:0:0:
288,80,13845,2,0,P|360:112|400:184,1,140
368,264,14488,1,0,0:0:0:0:
280,320,14702,2,0,P|192:288|184:248,1,140
176,112,15559,6,0,P|256:96|320:112,1,140
368,240,16416,1,8,0:0:0:0:
216,280,17059,1,8,0:0:0:0:
144,152,17702,1,8,0:0:0:0:
280,96,18345,1,8,0:0:0:0:
256,192,18988,1,8,0:0:0:0:
256,192,19416,1,8,0:0:0:0:
272,320,19845,6,0,P|200:304|160:248,1,140
160,152,20488,1,8,0:0:0:0:
320,72,21130,2,0,P|400:136|400:176,1,140
392,264,21773,1,8,0:0:0:0:
256,192,22416,1,0,0:0:0:0:
256,192,22845,1,0,0:0:0:0:
168,144,23273,6,0,P|200:112|304:120,1,140
352,208,24130,1,0,0:0:0:0:
264,304,24559,1,0,0:0:0:0:
152,296,24987,2,0,P|112:208|128:176,1,140
232,128,25844,1,0,0:0:0:0:
352,168,26273,1,0,0:0:0:0:
312,288,26701,5,0,0:0:0:0:
256,288,26916,1,0,0:0:0:0:
200,288,27130,1,0,0:0:0:0:
112,192,27558,6,0,P|160:128|224:96,1,140
344,128,28416,2,0,P|392:200|392:264,1,140
280,288,29273,1,0,0:0:0:0:
184,256,29701,1,0,0:0:0:0:
192,112,30130,5,0,0:0:0:0:
264,112,30344,1,0,0:0:0:0:
336,112,30558,1,0,0:0:0:0:
400,192,30987,6,0,P|368:272|328:312,1,140
216,304,31844,1,0,0:0:0:0:
128,208,32272,1,0,0:0:0:0:
192,104,32701,2,0,P|272:80|336:88,1,140
400,160,33558,6,0,L|400:232,15,70
320,288,36986,6,2,L|248:288,4,70
408,288,38272,1,2,0:0:0:0:
408,192,38701,2,2,L|408:120,2,70
408,288,39558,1,2,0:0:0:0:
208,296,40415,6,2,L|136:296,4,70
256,192,41700,1,2,0:0:0:0:
256,88,42129,2,2,L|256:16,2,70
256,192,42986,1,2,0:0:0:0:
256,280,43843,6,2,L|256:320,2,35
256,192,44700,1,2,0:0:0:0:
256,192,45129,1,2,0:0:0:0:
144,192,45557,6,2,L|72:192,2,70
256,192,46414,1,2,0:0:0:0:
368,192,46843,1,2,0:0:0:0:
392,288,47271,6,0,P|344:304|256:288,1,140
168,248,47914,2,0,P|128:176|128:120,1,140
208,64,48557,2,0,P|280:48|344:72,1,140
392,144,49200,2,0,P|384:240|352:264,1,140
240,272,49843,1,0,0:0:0:0:
208,232,50057,1,0,0:0:0:0:
192,184,50271,1,0,0:0:0:0:
176,136,50485,1,0,0:0:0:0:
256,80,50700,6,0,P|336:72|392:104,1,140
408,192,51342,1,0,0:0:0:0:
376,264,51557,2,0,P|288:312|240:304,1,140
152,232,52414,2,0,P|128:192|160:104,1,140
232,64,53057,1,0,0:0:0:0:
312,64,53271,2,0,P|376:112|368:176,1,140
240,232,54128,6,0,P|168:224|184:168,1,140
232,128,54771,1,0,0:0:0:0:
304,120,54985,2,0,P|392:152|448:192,1,140
344,304,55842,2,0,P|248:296|216:264,1,140
160,224,56485,1,0,0:0:0:0:
144,152,56699,2,0,P|160:96|248:80,1,140
360,112,57556,6,0,P|448:184|448:200,1,140
400,272,58199,1,0,0:0:0:0:
328,312,58413,2,0,P|192:296|168:280,1,140
96,152,59270,2,0,P|184:112|240:104,1,140
312,112,59913,1,0,0:0:0:0:
384,136,60128,2,0,P|456:200|448:256,1,140
368,304,60985,6,0,P|288:320|232:296,1,140
168,248,61627,1,0,0:0:0:0:
136,176,61842,2,0,P|120:96|168:80,1,140
264,72,62699,2,0,P|360:72|392:104,1,140
416,248,63556,2,0,P|360:288|288:280,1,140
256,192,64413,5,0,0:0:0:0:
208,112,64842,2,0,P|152:56|104:104,1,140
112,192,65699,1,0,0:0:0:0:
152,280,66127,2,0,P|240:288|272:256,1,140
288,168,66984,1,0,0:0:0:0:
224,80,67413,1,0,0:0:0:0:
128,80,67841,6,0,L|40:80,2,70
240,104,68698,1,0,0:0:0:0:
304,184,69127,1,0,0:0:0:0:
304,272,69555,2,0,P|368:312|432:280,1,140
432,192,70413,1,0,0:0:0:0:
360,112,70841,1,0,0:0:0:0:
248,104,71270,6,0,P|176:104|160:104,2,70
360,144,72127,1,0,0:0:0:0:
328,264,72555,1,0,0:0:0:0:
208,288,72984,1,0,0:0:0:0:
104,192,73412,1,0,0:0:0:0:
168,112,73841,2,0,P|240:88|312:96,1,140
400,104,74698,6,0,L|480:104,16,70
296,104,78555,6,2,P|256:112|232:136,1,70
192,208,78983,2,2,P|224:248|240:256,1,70
320,248,79412,2,2,P|352:224|344:184,1,70
312,128,79840,2,2,P|256:104|232:120,1,70
176,144,80269,2,2,P|136:192|128:224,1,70
136,288,80698,2,2,P|200:296|224:288,1,70
288,288,81126,2,0,L|360:288,2,70,2|2|2,0:0|0:0|0:0,0:0:0:0:
192,272,81983,6,2,P|136:224|136:216,1,70
144,144,82412,2,2,P|192:96|208:88,1,70
272,80,82840,2,2,P|320:104|352:128,1,70
352,200,83269,2,2,P|336:240|304:256,1,70
232,280,83697,2,2,P|176:264|160:232,1,70
168,160,84126,2,2,P|224:120|248:112,1,70
312,112,84554,2,2,L|384:112,2,70
184,128,85411,6,2,P|152:168|144:200,1,70
176,272,85840,2,2,P|232:280|240:272,1,70
328,256,86269,2,2,P|352:216|352:192,1,70
336,104,86697,2,2,P|304:80|264:88,1,70
184,88,87126,2,2,P|144:112|128:144,1,70
128,224,87554,2,2,P|160:248|200:264,1,70
288,256,87983,1,2,0:0:0:0:
360,256,88197,1,2,0:0:0:0:
432,256,88411,1,4,0:0:0:0:
