osu file format v14

[General]
AudioFilename: audio.mp3
AudioLeadIn: 0
PreviewTime: -1
Countdown: 1
SampleSet: Soft
StackLeniency: 0.7
Mode: 0
LetterboxInBreaks: 0
WidescreenStoryboard: 1

[Editor]
DistanceSpacing: 1.2
BeatDivisor: 4
GridSize: 8
TimelineZoom: 1

[Metadata]
Title:Corpse Party - Chapter 4 Opening
TitleUnicode:Corpse Party - Chapter 4 Opening
Artist:Mao Hamamoto
ArtistUnicode:Mao Hamamoto
Creator:Eragon0309
Version:Death
Source:Corpse Party
Tags:Corpse Party
BeatmapID:1279674
BeatmapSetID:601734

[Difficulty]
HPDrainRate:7
CircleSize:4.5
OverallDifficulty:8
ApproachRate:9.2
SliderMultiplier:1.4
SliderTickRate:1

[Events]
//Background and Video events
0,0,"d.jpg",0,0
//Break Periods
//Storyboard Layer 0 (Background)
//Storyboard Layer 1 (Fail)
//Storyboard Layer 2 (Pass)
//Storyboard Layer 3 (Foreground)
//Storyboard Sound Samples

[TimingPoints]
9560.25409169057,428.540818512963,4,2,1,100,1,0

[HitObjects]
256,192,989,12,0,9453,0:0:0:0:
256,192,9560,5,0,0:0:0:0:
256,192,9774,1,0,0:0:0:0:
112,112,9988,1,0,0:0:0:0:
112,112,10203,1,0,0:0:0:0:
368,136,10417,1,0,0:0:0:0:
368,136,10631,1,0,0:0:0:0:
312,288,10845,1,0,0:0:0:0:
312,288,11060,1,0,0:0:0:0:
112,248,11274,5,0,0:0:0:0:
256,192,11488,1,0,0:0:0:0:
280,184,11702,1,0,0:0:0:0:
232,200,11917,1,0,0:0:0:0:
256,104,12131,5,0,0:0:0:0:
256,104,12345,1,0,0:0:0:0:
376,136,12560,1,0,0:0:0:0:
376,136,12774,1,0,0:0:0:0:
352,272,12988,1,0,0:0:0:0:
352,272,13202,1,0,0:0:0:0:
200,304,13417,1,0,0:0:0:0:
200,304,13631,1,0,0:0:0:0:
96,160,13845,1,0,0:0:0:0:
96,160,14059,1,0,0:0:0:0:
304,64,14274,1,0,0:0:0:0:
304,64,14488,1,0,0:0:0:0:
400,208,14702,5,0,0:0:0:0:
352,304,14917,1,0,0:0:0:0:
320,304,15131,1,0,0:0:0:0:
384,304,15345,1,0,0:0:0:0:
256,192,15559,12,0,16309,0:0:0:0:
96,200,16416,6,0,P|120:96|144:88,1,140
256,272,17059,1,0,0:0:0:0:
384,96,17273,2,0,P|408:160|384:240,1,140
256,88,17916,1,0,0:0:0:0:
176,280,18131,2,0,P|120:200|128:144,1,140
200,48,18988,2,0,P|304:48|328:80,1,140
392,288,19845,6,0,L|392:120,1,140
96,280,20488,2,0,L|96:136,1,140
200,40,21130,2,0,L|360:40,1,140
344,304,21773,2,0,L|184:304,1,140
256,192,22416,5,0,0:0:0:0:
256,192,22845,1,0,0:0:0:0:
256,192,23273,1,0,0:0:0:0:
384,96,23702,5,0,0:0:0:0:
384,96,23916,2,0,L|384:176,1,70
256,192,24344,1,0,0:0:0:0:
72,192,24559,1,0,0:0:0:0:
72,192,24773,2,0,L|72:96,1,70
256,192,25201,1,0,0:0:0:0:
424,312,25416,1,0,0:0:0:0:
424,312,25630,2,0,L|424:232,1,70
256,192,26059,1,0,0:0:0:0:
64,72,26273,1,0,0:0:0:0:
64,72,26487,6,0,L|64:152,3,70
256,192,27344,1,0,0:0:0:0:
448,288,27558,1,0,0:0:0:0:
440,288,27773,2,0,L|352:288,1,70
256,192,28201,1,0,0:0:0:0:
88,272,28416,1,0,0:0:0:0:
88,272,28630,2,0,L|88:184,1,70
256,192,29058,1,0,0:0:0:0:
344,48,29273,1,0,0:0:0:0:
336,48,29487,2,0,L|336:144,1,70
256,192,29915,1,0,0:0:0:0:
256,192,30130,6,0,L|256:272,2,70
256,48,30773,1,0,0:0:0:0:
112,136,30987,1,0,0:0:0:0:
112,136,31201,2,0,L|184:208,1,70
384,304,31630,1,0,0:0:0:0:
400,88,31844,1,0,0:0:0:0:
400,88,32058,2,0,L|336:152,1,70
256,192,32487,1,0,0:0:0:0:
104,320,32701,1,0,0:0:0:0:
104,320,32915,2,0,L|104:240,1,70
256,192,33344,5,0,0:0:0:0:
408,80,33558,1,8,0:0:0:0:
112,296,33772,1,8,0:0:0:0:
336,48,33987,1,8,0:0:0:0:
176,336,34201,1,8,0:0:0:0:
264,40,34415,1,8,0:0:0:0:
248,344,34629,1,8,0:0:0:0:
192,48,34844,1,8,0:0:0:0:
312,336,35058,1,8,0:0:0:0:
128,80,35272,1,8,0:0:0:0:
376,296,35486,1,8,0:0:0:0:
88,136,35701,1,8,0:0:0:0:
424,232,35915,1,8,0:0:0:0:
88,208,36129,1,8,0:0:0:0:
424,160,36344,1,8,0:0:0:0:
112,280,36558,1,8,0:0:0:0:
400,96,36772,1,4,0:0:0:0:
256,192,36986,5,2,0:0:0:0:
256,112,37201,1,2,0:0:0:0:
256,272,37415,1,2,0:0:0:0:
256,48,37629,1,2,0:0:0:0:
256,344,37843,1,2,0:0:0:0:
256,192,38272,5,2,0:0:0:0:
136,192,38701,1,2,0:0:0:0:
256,192,38915,1,2,0:0:0:0:
368,192,39129,1,2,0:0:0:0:
256,48,39558,6,2,L|256:192,1,140
256,192,40415,1,2,0:0:0:0:
256,320,40629,1,2,0:0:0:0:
256,80,40843,1,2,0:0:0:0:
128,192,41058,1,2,0:0:0:0:
368,192,41272,1,2,0:0:0:0:
256,192,41700,5,2,0:0:0:0:
128,312,42129,1,2,0:0:0:0:
368,88,42343,1,2,0:0:0:0:
256,192,42557,1,2,0:0:0:0:
256,320,42986,2,2,L|256:176,1,140
256,192,43843,5,2,0:0:0:0:
256,168,43950,1,2,0:0:0:0:
256,144,44057,2,2,L|256:240,1,70
256,328,44700,1,2,0:0:0:0:
408,192,45129,1,2,0:0:0:0:
256,56,45557,1,2,0:0:0:0:
256,192,45771,1,2,0:0:0:0:
88,192,45986,1,2,0:0:0:0:
256,192,46414,1,2,0:0:0:0:
416,192,46843,1,2,0:0:0:0:
256,192,47271,5,0,0:0:0:0:
256,192,47486,1,0,0:0:0:0:
272,176,47700,1,0,0:0:0:0:
408,80,47914,1,0,0:0:0:0:
408,80,48128,1,0,0:0:0:0:
384,104,48343,1,0,0:0:0:0:
128,288,48557,1,0,0:0:0:0:
128,288,48771,1,0,0:0:0:0:
160,288,48986,1,0,0:0:0:0:
432,296,49200,1,0,0:0:0:0:
432,296,49414,1,0,0:0:0:0:
408,272,49628,1,0,0:0:0:0:
112,96,49843,1,0,0:0:0:0:
112,96,50057,1,0,0:0:0:0:
112,96,50271,2,0,L|176:144,1,70
432,320,50700,6,0,P|432:224|408:192,1,140
288,88,51342,1,0,0:0:0:0:
160,88,51557,2,0,P|104:160|128:272,1,210
256,288,52414,1,0,0:0:0:0:
392,280,52628,1,0,0:0:0:0:
440,200,52842,6,0,P|384:112|344:88,1,140
248,96,53485,1,0,0:0:0:0:
144,176,53699,2,0,P|144:280|240:296,1,210
352,256,54557,1,0,0:0:0:0:
368,136,54771,1,0,0:0:0:0:
272,48,54985,6,0,P|168:96|136:184,1,210
240,320,55842,2,0,P|360:288|368:264,1,140
400,144,56485,1,0,0:0:0:0:
320,56,56699,2,0,P|232:56|152:152,1,210
176,312,57556,2,0,P|264:312|312:288,1,140
400,168,58199,1,0,0:0:0:0:
344,48,58413,1,0,0:0:0:0:
224,72,58628,6,0,P|176:120|176:136,1,70
136,208,59056,1,0,0:0:0:0:
152,304,59270,2,0,P|240:320|344:264,1,210
392,144,60128,1,0,0:0:0:0:
320,80,60342,6,0,P|256:88|248:96,1,70
192,144,60770,2,0,P|160:200|160:224,1,70
184,288,61199,1,0,0:0:0:0:
304,288,61413,2,0,P|384:256|392:144,1,210
288,64,62270,1,0,0:0:0:0:
176,96,62485,1,0,0:0:0:0:
128,232,62699,6,0,P|192:272|272:256,1,140
336,80,63556,2,0,P|264:64|192:80,1,140
112,184,64413,5,0,0:0:0:0:
112,184,64627,1,0,0:0:0:0:
352,272,64842,1,0,0:0:0:0:
352,272,65056,1,0,0:0:0:0:
320,72,65270,1,0,0:0:0:0:
320,72,65484,1,0,0:0:0:0:
152,96,65699,1,0,0:0:0:0:
152,96,65913,1,0,0:0:0:0:
144,288,66127,1,0,0:0:0:0:
144,288,66341,1,0,0:0:0:0:
384,232,66556,1,0,0:0:0:0:
384,232,66770,1,0,0:0:0:0:
272,56,66984,1,0,0:0:0:0:
272,56,67198,1,0,0:0:0:0:
264,240,67413,1,0,0:0:0:0:
264,248,67627,1,0,0:0:0:0:
264,248,67841,6,0,L|264:160,2,70
256,24,68484,2,0,L|256:96,1,70
408,248,68913,1,0,0:0:0:0:
400,248,69127,1,0,0:0:0:0:
256,320,69341,2,0,L|192:248,1,70
120,144,69770,1,0,0:0:0:0:
120,144,69984,1,0,0:0:0:0:
352,80,70198,2,0,L|384:152,1,70
368,296,70627,1,0,0:0:0:0:
368,296,70841,1,0,0:0:0:0:
128,272,71055,1,0,0:0:0:0:
128,272,71270,6,0,L|200:232,2,70
440,64,71912,2,0,L|368:64,1,70
64,328,72341,2,0,L|136:328,1,70
440,144,72770,2,0,L|352:144,1,70
72,56,73198,2,0,L|144:56,1,70
264,192,73627,5,0,0:0:0:0:
264,192,73841,1,0,0:0:0:0:
264,192,74055,1,0,0:0:0:0:
264,192,74269,1,0,0:0:0:0:
264,192,74484,1,0,0:0:0:0:
400,272,74698,5,8,0:0:0:0:
104,88,74912,1,8,0:0:0:0:
344,320,75126,1,8,0:0:0:0:
184,48,75341,1,8,0:0:0:0:
264,336,75555,1,8,0:0:0:0:
272,48,75769,1,8,0:0:0:0:
184,328,75984,1,8,0:0:0:0:
344,64,76198,1,8,0:0:0:0:
128,288,76412,1,8,0:0:0:0:
384,120,76626,1,8,0:0:0:0:
96,224,76841,1,8,0:0:0:0:
400,192,77055,1,8,0:0:0:0:
88,152,77269,1,8,0:0:0:0:
400,264,77483,1,8,0:0:0:0:
96,80,77698,1,8,0:0:0:0:
360,320,77912,1,8,0:0:0:0:
160,48,78126,1,4,0:0:0:0:
448,264,78555,6,2,L|376:264,1,70
80,72,78983,2,2,L|152:72,1,70
416,336,79412,2,2,L|336:336,1,70
96,168,79840,2,2,L|168:168,1,70
448,72,80269,2,2,L|368:72,1,70
112,296,80698,2,2,L|192:296,1,70
256,88,81126,2,2,L|256:16,2,70
104,200,81983,6,2,L|104:280,1,70
416,120,82412,2,2,L|416:24,1,70
224,264,82840,2,2,L|224:168,1,70
336,48,83269,2,2,L|336:128,1,70
80,280,83697,2,2,L|80:200,1,70
440,80,84126,2,2,L|440:160,1,70
256,304,84554,2,2,L|256:224,2,70
256,40,85411,5,2,0:0:0:0:
176,128,85626,1,2,0:0:0:0:
320,184,85840,1,2,0:0:0:0:
168,256,86054,1,2,0:0:0:0:
328,312,86269,1,2,0:0:0:0:
184,352,86483,1,2,0:0:0:0:
336,240,86697,1,2,0:0:0:0:
176,144,86911,1,2,0:0:0:0:
312,80,87126,1,2,0:0:0:0:
200,40,87340,1,2,0:0:0:0:
304,160,87554,1,2,0:0:0:0:
208,240,87768,1,2,0:0:0:0:
312,320,87983,1,2,0:0:0:0:
192,352,88197,1,2,0:0:0:0:
312,192,88411,1,4,0:0:0:0:
