osu file format v14

[General]
AudioFilename: audio.mp3
AudioLeadIn: 0
PreviewTime: 14470
Countdown: 0
SampleSet: Soft
StackLeniency: 0.7
Mode: 3
LetterboxInBreaks: 0
SpecialStyle: 0
WidescreenStoryboard: 1

[Editor]
Bookmarks: 7827,14470,42112,55612,76184,83041,110684,124184,144755,172184,185898,206684
DistanceSpacing: 1
BeatDivisor: 4
GridSize: 32
TimelineZoom: 1.9

[Metadata]
Title:Chocotto no Kotae
TitleUnicode:チョコっとの答え
Artist:Manun-chan (CV: mafumafu)
ArtistUnicode:まぬんちゃん(CV: まふまふ)
Creator:ExNeko
Version:Hard
Source:
Tags:japanese j-pop pop jpop chocolate answer バレンタイン Happy Valentine's 田中秀和 Hidekazu Tanaka MONACA 髭白健 Ken Higehiro 安達貴史 Takashi Adachi 堀崎翔 Sho Horisaki 伊賀拓郎 Takuro Iga 茶々ごま Chacha Sesame MONO-Devoid
BeatmapID:2841932
BeatmapSetID:1374773

[Difficulty]
HPDrainRate:8
CircleSize:4
OverallDifficulty:8
ApproachRate:5
SliderMultiplier:1.4
SliderTickRate:1

[Events]
//Background and Video events
0,0,"bg.jpg",0,0
Video,100,"video.mp4"
//Break Periods
//Storyboard Layer 0 (Background)
//Storyboard Layer 1 (Fail)
//Storyboard Layer 2 (Pass)
//Storyboard Layer 3 (Foreground)
//Storyboard Layer 4 (Overlay)
//Storyboard Sound Samples
Sample,8255,0,"drum-hitclap.wav",35
Sample,9112,0,"drum-hitclap.wav",35
Sample,9970,0,"drum-hitclap.wav",35
Sample,10612,0,"drum-hitclap.wav",35
Sample,10827,0,"drum-hitclap.wav",35
Sample,11684,0,"drum-hitclap.wav",35
Sample,12541,0,"drum-hitclap.wav",35
Sample,13398,0,"drum-hitclap.wav",35
Sample,20898,0,"drum-hitclap.wav",35
Sample,21112,0,"drum-hitclap.wav",35
Sample,27755,0,"drum-hitclap.wav",35
Sample,27970,0,"drum-hitclap.wav",35
Sample,34612,0,"drum-hitclap.wav",35
Sample,34827,0,"drum-hitclap.wav",35
Sample,41470,0,"drum-hitclap.wav",35
Sample,41684,0,"drum-hitclap.wav",35
Sample,48327,0,"drum-hitclap.wav",35
Sample,48541,0,"drum-hitclap.wav",35
Sample,56255,0,"drum-hitclap.wav",35
Sample,57112,0,"drum-hitclap.wav",35
Sample,57970,0,"drum-hitclap.wav",35
Sample,58612,0,"drum-hitclap.wav",35
Sample,58827,0,"drum-hitclap.wav",35
Sample,59684,0,"drum-hitclap.wav",35
Sample,60541,0,"drum-hitclap.wav",35
Sample,61398,0,"drum-hitclap.wav",35
Sample,62041,0,"drum-hitclap.wav",35
Sample,62255,0,"drum-hitclap.wav",35
Sample,63112,0,"drum-hitclap.wav",35
Sample,63970,0,"drum-hitclap.wav",35
Sample,64827,0,"drum-hitclap.wav",35
Sample,65470,0,"drum-hitclap.wav",35
Sample,65684,0,"drum-hitclap.wav",35
Sample,66541,0,"drum-hitclap.wav",35
Sample,67398,0,"drum-hitclap.wav",35
Sample,68255,0,"drum-hitclap.wav",35
Sample,68898,0,"drum-hitclap.wav",35
Sample,69112,0,"drum-hitclap.wav",35
Sample,69970,0,"drum-hitclap.wav",35
Sample,70827,0,"drum-hitclap.wav",35
Sample,71684,0,"drum-hitclap.wav",35
Sample,72327,0,"drum-hitclap.wav",35
Sample,72541,0,"drum-hitclap.wav",35
Sample,76827,0,"drum-hitclap.wav",35
Sample,77684,0,"drum-hitclap.wav",35
Sample,78541,0,"drum-hitclap.wav",35
Sample,79184,0,"drum-hitclap.wav",35
Sample,79398,0,"drum-hitclap.wav",35
Sample,80255,0,"drum-hitclap.wav",35
Sample,81112,0,"drum-hitclap.wav",35
Sample,81970,0,"drum-hitclap.wav",35
Sample,82612,0,"drum-hitclap.wav",35
Sample,82827,0,"drum-hitclap.wav",35
Sample,89470,0,"drum-hitclap.wav",35
Sample,89684,0,"drum-hitclap.wav",35
Sample,96327,0,"drum-hitclap.wav",35
Sample,96541,0,"drum-hitclap.wav",35
Sample,103184,0,"drum-hitclap.wav",35
Sample,106612,0,"drum-hitclap.wav",35
Sample,110041,0,"drum-hitclap.wav",35
Sample,110255,0,"drum-hitclap.wav",35
Sample,116898,0,"drum-hitclap.wav",35
Sample,117112,0,"drum-hitclap.wav",35
Sample,124827,0,"drum-hitclap.wav",35
Sample,125684,0,"drum-hitclap.wav",35
Sample,126541,0,"drum-hitclap.wav",35
Sample,127184,0,"drum-hitclap.wav",35
Sample,127398,0,"drum-hitclap.wav",35
Sample,128255,0,"drum-hitclap.wav",35
Sample,129112,0,"drum-hitclap.wav",35
Sample,129970,0,"drum-hitclap.wav",35
Sample,130612,0,"drum-hitclap.wav",35
Sample,130827,0,"drum-hitclap.wav",35
Sample,131684,0,"drum-hitclap.wav",35
Sample,132541,0,"drum-hitclap.wav",35
Sample,133398,0,"drum-hitclap.wav",35
Sample,134041,0,"drum-hitclap.wav",35
Sample,134255,0,"drum-hitclap.wav",35
Sample,135112,0,"drum-hitclap.wav",35
Sample,135970,0,"drum-hitclap.wav",35
Sample,136827,0,"drum-hitclap.wav",35
Sample,137470,0,"drum-hitclap.wav",35
Sample,137684,0,"drum-hitclap.wav",35
Sample,138541,0,"drum-hitclap.wav",35
Sample,139398,0,"drum-hitclap.wav",35
Sample,140255,0,"drum-hitclap.wav",35
Sample,140898,0,"drum-hitclap.wav",35
Sample,141112,0,"drum-hitclap.wav",35
Sample,145398,0,"drum-hitclap.wav",35
Sample,146255,0,"drum-hitclap.wav",35
Sample,147112,0,"drum-hitclap.wav",35
Sample,147755,0,"drum-hitclap.wav",35
Sample,147970,0,"drum-hitclap.wav",35
Sample,148827,0,"drum-hitclap.wav",35
Sample,149684,0,"drum-hitclap.wav",35
Sample,150541,0,"drum-hitclap.wav",35
Sample,151184,0,"drum-hitclap.wav",35
Sample,151398,0,"drum-hitclap.wav",35
Sample,152255,0,"drum-hitclap.wav",35
Sample,153112,0,"drum-hitclap.wav",35
Sample,153970,0,"drum-hitclap.wav",35
Sample,154612,0,"drum-hitclap.wav",35
Sample,154827,0,"drum-hitclap.wav",35
Sample,155684,0,"drum-hitclap.wav",35
Sample,156541,0,"drum-hitclap.wav",35
Sample,157398,0,"drum-hitclap.wav",35
Sample,158041,0,"drum-hitclap.wav",35
Sample,158255,0,"drum-hitclap.wav",35
Sample,159112,0,"drum-hitclap.wav",35
Sample,159970,0,"drum-hitclap.wav",35
Sample,160827,0,"drum-hitclap.wav",35
Sample,161470,0,"drum-hitclap.wav",35
Sample,161684,0,"drum-hitclap.wav",35
Sample,162541,0,"drum-hitclap.wav",35
Sample,163398,0,"drum-hitclap.wav",35
Sample,164255,0,"drum-hitclap.wav",35
Sample,164898,0,"drum-hitclap.wav",35
Sample,165112,0,"drum-hitclap.wav",35
Sample,165970,0,"drum-hitclap.wav",35
Sample,166827,0,"drum-hitclap.wav",35
Sample,167684,0,"drum-hitclap.wav",35
Sample,168327,0,"drum-hitclap.wav",35
Sample,168541,0,"drum-hitclap.wav",35
Sample,169398,0,"drum-hitclap.wav",35
Sample,170255,0,"drum-hitclap.wav",35
Sample,171112,0,"drum-hitclap.wav",35
Sample,171755,0,"drum-hitclap.wav",35
Sample,171970,0,"drum-hitclap.wav",35
Sample,172827,0,"drum-hitclap.wav",35
Sample,173684,0,"drum-hitclap.wav",35
Sample,174541,0,"drum-hitclap.wav",35
Sample,175184,0,"drum-hitclap.wav",35
Sample,175398,0,"drum-hitclap.wav",35
Sample,176255,0,"drum-hitclap.wav",35
Sample,177112,0,"drum-hitclap.wav",35
Sample,177970,0,"drum-hitclap.wav",35
Sample,178612,0,"drum-hitclap.wav",35
Sample,178827,0,"drum-hitclap.wav",35
Sample,179684,0,"drum-hitclap.wav",35
Sample,180541,0,"drum-hitclap.wav",35
Sample,181398,0,"drum-hitclap.wav",35
Sample,182041,0,"drum-hitclap.wav",35
Sample,182255,0,"drum-hitclap.wav",35
Sample,183112,0,"drum-hitclap.wav",35
Sample,183970,0,"drum-hitclap.wav",35
Sample,184827,0,"drum-hitclap.wav",35
Sample,185470,0,"drum-hitclap.wav",35
Sample,185684,0,"drum-hitclap.wav",35
Sample,186541,0,"drum-hitclap.wav",35
Sample,187398,0,"drum-hitclap.wav",35
Sample,188255,0,"drum-hitclap.wav",35
Sample,188898,0,"drum-hitclap.wav",35
Sample,189112,0,"drum-hitclap.wav",35
Sample,189970,0,"drum-hitclap.wav",35
Sample,190827,0,"drum-hitclap.wav",35
Sample,191684,0,"drum-hitclap.wav",35
Sample,192327,0,"drum-hitclap.wav",35
Sample,192541,0,"drum-hitclap.wav",35
Sample,193398,0,"drum-hitclap.wav",35
Sample,194255,0,"drum-hitclap.wav",35
Sample,195112,0,"drum-hitclap.wav",35
Sample,195755,0,"drum-hitclap.wav",35
Sample,195970,0,"drum-hitclap.wav",35
Sample,196827,0,"drum-hitclap.wav",35
Sample,197684,0,"drum-hitclap.wav",35
Sample,198541,0,"drum-hitclap.wav",35
Sample,199184,0,"drum-hitclap.wav",35
Sample,199398,0,"drum-hitclap.wav",35
Sample,200255,0,"drum-hitclap.wav",35
Sample,201112,0,"drum-hitclap.wav",35
Sample,201970,0,"drum-hitclap.wav",35
Sample,202612,0,"drum-hitclap.wav",35
Sample,202827,0,"drum-hitclap.wav",35
Sample,203684,0,"drum-hitclap.wav",35
Sample,204541,0,"drum-hitclap.wav",35
Sample,205398,0,"drum-hitclap.wav",35
Sample,206041,0,"drum-hitclap.wav",35
Sample,206255,0,"drum-hitclap.wav",35

[TimingPoints]
970,428.571428571429,4,2,1,35,1,0
55612,-66.6666666666667,4,2,1,35,0,1
55720,-200,4,2,1,35,0,1
55827,-100,4,2,1,35,0,1
57327,-66.6666666666667,4,2,1,35,0,1
57434,-200,4,2,1,35,0,1
57541,-100,4,2,1,35,0,1
59041,-66.6666666666667,4,2,1,35,0,1
59148,-200,4,2,1,35,0,1
59255,-100,4,2,1,35,0,1
60755,-66.6666666666667,4,2,1,35,0,1
60862,-200,4,2,1,35,0,1
60970,-100,4,2,1,35,0,1
61612,-66.6666666666667,4,2,1,35,0,1
61720,-200,4,2,1,35,0,1
61827,-100,4,2,1,35,0,1
76184,-100,4,2,1,35,0,0
124184,-66.6666666666667,4,2,1,35,0,1
124291,-200,4,2,1,35,0,1
124398,-100,4,2,1,35,0,1
125898,-66.6666666666667,4,2,1,35,0,1
126005,-200,4,2,1,35,0,1
126112,-100,4,2,1,35,0,1
127612,-66.6666666666667,4,2,1,35,0,1
127720,-200,4,2,1,35,0,1
127827,-100,4,2,1,35,0,1
129327,-66.6666666666667,4,2,1,35,0,1
129434,-200,4,2,1,35,0,1
129541,-100,4,2,1,35,0,1
130184,-66.6666666666667,4,2,1,35,0,1
130291,-200,4,2,1,35,0,1
130398,-100,4,2,1,35,0,1
144755,-100,4,2,1,35,0,0
185898,-66.6666666666667,4,2,1,35,0,1
186005,-200,4,2,1,35,0,1
186112,-100,4,2,1,35,0,1
189327,-66.6666666666667,4,2,1,35,0,1
189434,-200,4,2,1,35,0,1
189541,-100,4,2,1,35,0,1
191041,-66.6666666666667,4,2,1,35,0,1
191148,-200,4,2,1,35,0,1
191255,-100,4,2,1,35,0,1
191898,-66.6666666666667,4,2,1,35,0,1
192005,-200,4,2,1,35,0,1
192112,-100,4,2,1,35,0,1
206684,-111.111111111111,4,2,1,35,0,0
211827,-100,4,2,1,35,0,0

[HitObjects]
192,192,970,128,2,2684:2:0:0:0:
320,192,970,1,4,2:0:0:0:
448,192,970,1,0,0:0:0:0:
64,192,2684,128,0,3541:0:0:0:0:
320,192,2684,1,0,0:0:0:0:
192,192,3541,1,0,0:0:0:0:
448,192,3541,128,0,4398:0:0:0:0:
320,192,3648,1,0,0:0:0:0:
64,192,3755,1,0,0:0:0:0:
320,192,3862,1,0,0:0:0:0:
64,192,3970,1,0,0:0:0:0:
64,192,4398,1,0,0:0:0:0:
192,192,4398,128,0,6112:0:0:0:0:
448,192,4612,1,0,0:0:0:0:
320,192,6112,1,0,0:0:0:0:
448,192,6112,128,0,6970:0:0:0:0:
192,192,6327,1,0,0:0:0:0:
64,192,6970,128,0,7398:0:0:0:0:
320,192,6970,1,0,0:0:0:0:
192,192,7077,1,0,0:0:0:0:
448,192,7184,1,0,0:0:0:0:
192,192,7291,1,0,0:0:0:0:
448,192,7398,128,0,7612:0:0:0:0:
320,192,7612,128,0,7827:0:0:0:0:
64,192,7827,1,2,2:0:0:0:
192,192,7827,1,4,2:0:0:0:
448,192,7827,1,0,0:0:0:0:
320,192,8041,128,0,8148:0:0:0:0:
64,192,8255,128,8,8362:2:0:0:0:
192,192,8255,1,0,0:0:0:0:
448,192,8255,1,0,0:0:0:0:
192,192,8470,128,0,8577:0:0:0:0:
320,192,8684,128,2,8791:2:0:0:0:
448,192,8684,1,0,0:0:0:0:
64,192,8898,1,2,2:0:0:0:
192,192,8898,1,0,0:0:0:0:
64,192,9112,1,8,2:0:0:0:
320,192,9112,128,0,9220:0:0:0:0:
448,192,9112,1,0,0:0:0:0:
192,192,9327,128,0,9434:0:0:0:0:
64,192,9541,128,2,9648:2:0:0:0:
448,192,9541,1,0,0:0:0:0:
192,192,9755,128,2,9862:2:0:0:0:
320,192,9755,1,0,0:0:0:0:
64,192,9970,1,8,2:0:0:0:
320,192,9970,128,0,10077:0:0:0:0:
448,192,9970,1,0,0:0:0:0:
64,192,10184,128,2,10291:2:0:0:0:
192,192,10184,1,0,0:0:0:0:
320,192,10398,1,0,0:0:0:0:
192,192,10612,1,2,2:0:0:0:
448,192,10612,128,0,10720:0:0:0:0:
64,192,10827,1,8,2:0:0:0:
320,192,10827,128,0,10934:0:0:0:0:
448,192,10827,1,0,0:0:0:0:
192,192,11041,128,0,11148:0:0:0:0:
64,192,11255,1,2,2:0:0:0:
320,192,11255,1,4,2:0:0:0:
448,192,11255,128,0,11362:0:0:0:0:
320,192,11470,1,0,0:0:0:0:
64,192,11684,1,8,2:0:0:0:
192,192,11684,128,0,11791:0:0:0:0:
448,192,11684,1,0,0:0:0:0:
320,192,11898,128,0,12005:0:0:0:0:
64,192,12005,1,8,2:0:0:0:
320,192,12112,1,2,2:0:0:0:
448,192,12112,128,0,12220:0:0:0:0:
64,192,12327,1,2,2:0:0:0:
192,192,12327,1,0,0:0:0:0:
192,192,12541,128,8,12648:2:0:0:0:
320,192,12541,1,0,0:0:0:0:
448,192,12541,1,0,0:0:0:0:
448,192,12755,128,2,12862:2:0:0:0:
192,192,12862,1,2,2:0:0:0:
64,192,12970,1,2,2:0:0:0:
320,192,12970,128,4,13077:2:0:0:0:
448,192,12970,1,0,0:0:0:0:
192,192,13184,128,2,13291:2:0:0:0:
320,192,13184,1,0,0:0:0:0:
64,192,13398,128,8,13505:2:0:0:0:
192,192,13398,1,0,0:0:0:0:
448,192,13398,1,0,0:0:0:0:
64,192,13612,1,2,2:0:0:0:
320,192,13612,128,4,13720:2:0:0:0:
448,192,13612,1,0,0:0:0:0:
192,192,13827,1,0,0:0:0:0:
320,192,13934,1,0,0:0:0:0:
64,192,14041,1,8,2:0:0:0:
448,192,14041,1,0,0:0:0:0:
64,192,14255,1,8,2:0:0:0:
448,192,14255,1,0,0:0:0:0:
64,192,14470,1,2,2:0:0:0:
192,192,14470,128,4,14898:2:0:0:0:
320,192,14470,1,0,0:0:0:0:
320,192,14898,1,2,2:0:0:0:
448,192,14898,1,0,0:0:0:0:
64,192,15112,1,8,2:0:0:0:
192,192,15112,1,0,0:0:0:0:
320,192,15112,1,0,0:0:0:0:
192,192,15327,1,0,0:0:0:0:
448,192,15434,1,0,0:0:0:0:
64,192,15541,1,2,2:0:0:0:
320,192,15541,1,0,0:0:0:0:
192,192,15755,1,2,2:0:0:0:
448,192,15755,1,0,0:0:0:0:
64,192,15970,1,8,2:0:0:0:
320,192,15970,1,0,0:0:0:0:
448,192,15970,1,0,0:0:0:0:
64,192,16184,128,2,16612:2:0:0:0:
192,192,16184,1,0,0:0:0:0:
320,192,16612,1,2,2:0:0:0:
448,192,16612,1,0,0:0:0:0:
64,192,16827,1,8,2:0:0:0:
192,192,16827,1,0,0:0:0:0:
320,192,16827,1,0,0:0:0:0:
192,192,17041,1,0,0:0:0:0:
320,192,17148,1,0,0:0:0:0:
64,192,17255,1,2,2:0:0:0:
448,192,17255,1,0,0:0:0:0:
320,192,17470,1,2,2:0:0:0:
448,192,17470,1,0,0:0:0:0:
64,192,17684,1,8,2:0:0:0:
192,192,17684,1,0,0:0:0:0:
320,192,17684,1,0,0:0:0:0:
192,192,17898,1,2,2:0:0:0:
448,192,17898,128,0,18327:0:0:0:0:
64,192,18327,1,2,2:0:0:0:
320,192,18327,1,0,0:0:0:0:
64,192,18541,1,8,2:0:0:0:
192,192,18541,1,0,0:0:0:0:
448,192,18541,1,0,0:0:0:0:
192,192,18755,1,0,0:0:0:0:
320,192,18862,1,8,2:0:0:0:
64,192,18970,1,2,2:0:0:0:
448,192,18970,1,0,0:0:0:0:
320,192,19184,1,2,2:0:0:0:
448,192,19184,1,0,0:0:0:0:
64,192,19398,1,8,2:0:0:0:
192,192,19398,1,0,0:0:0:0:
320,192,19398,1,0,0:0:0:0:
192,192,19612,1,2,2:0:0:0:
448,192,19612,128,0,20041:0:0:0:0:
64,192,20041,1,2,2:0:0:0:
192,192,20041,1,0,0:0:0:0:
64,192,20255,1,8,2:0:0:0:
320,192,20255,1,0,0:0:0:0:
448,192,20255,1,0,0:0:0:0:
448,192,20470,1,0,0:0:0:0:
192,192,20470,1,2,2:0:0:0:
320,192,20684,1,2,2:0:0:0:
192,192,20791,1,0,0:0:0:0:
64,192,20898,1,2,2:0:0:0:
448,192,20898,1,0,0:0:0:0:
64,192,21112,1,8,2:0:0:0:
192,192,21112,1,0,0:0:0:0:
448,192,21112,1,0,0:0:0:0:
192,192,21327,128,2,21755:2:0:0:0:
320,192,21327,1,0,0:0:0:0:
64,192,21755,1,2,2:0:0:0:
448,192,21755,1,0,0:0:0:0:
192,192,21970,1,8,2:0:0:0:
320,192,21970,1,0,0:0:0:0:
448,192,21970,1,0,0:0:0:0:
320,192,22184,1,0,0:0:0:0:
64,192,22291,1,0,0:0:0:0:
192,192,22398,1,2,2:0:0:0:
448,192,22398,1,0,0:0:0:0:
64,192,22612,1,2,2:0:0:0:
320,192,22612,1,0,0:0:0:0:
64,192,22827,1,8,2:0:0:0:
192,192,22827,1,0,0:0:0:0:
448,192,22827,1,0,0:0:0:0:
192,192,23041,128,2,23470:2:0:0:0:
320,192,23041,1,0,0:0:0:0:
64,192,23470,1,2,2:0:0:0:
448,192,23470,1,0,0:0:0:0:
192,192,23684,1,8,2:0:0:0:
320,192,23684,1,0,0:0:0:0:
448,192,23684,1,0,0:0:0:0:
64,192,23898,1,0,0:0:0:0:
192,192,24005,1,0,0:0:0:0:
320,192,24112,1,2,2:0:0:0:
448,192,24112,1,0,0:0:0:0:
64,192,24220,1,0,0:0:0:0:
448,192,24327,1,2,2:0:0:0:
64,192,24541,1,8,2:0:0:0:
192,192,24541,1,0,0:0:0:0:
320,192,24541,1,0,0:0:0:0:
192,192,24755,128,2,25184:2:0:0:0:
448,192,24755,1,0,0:0:0:0:
320,192,25184,1,2,2:0:0:0:
448,192,25184,1,0,0:0:0:0:
64,192,25398,1,8,2:0:0:0:
192,192,25398,1,0,0:0:0:0:
320,192,25398,1,0,0:0:0:0:
64,192,25612,1,0,0:0:0:0:
320,192,25720,1,8,2:0:0:0:
192,192,25827,1,2,2:0:0:0:
448,192,25827,1,0,0:0:0:0:
64,192,25934,1,0,0:0:0:0:
320,192,26041,1,2,2:0:0:0:
192,192,26255,1,8,2:0:0:0:
320,192,26255,1,0,0:0:0:0:
448,192,26255,1,0,0:0:0:0:
64,192,26470,1,2,2:0:0:0:
448,192,26470,128,0,26898:0:0:0:0:
64,192,26898,128,0,27112:0:0:0:0:
192,192,27112,128,0,27327:0:0:0:0:
320,192,27327,128,0,27541:0:0:0:0:
64,192,27541,1,8,2:0:0:0:
192,192,27541,1,0,0:0:0:0:
448,192,27541,1,0,0:0:0:0:
192,192,27755,1,2,2:0:0:0:
320,192,27755,1,0,0:0:0:0:
320,192,27970,1,2,2:0:0:0:
448,192,27970,1,0,0:0:0:0:
64,192,28184,1,2,2:0:0:0:
192,192,28184,128,4,28612:2:0:0:0:
448,192,28184,1,0,0:0:0:0:
64,192,28612,1,2,2:0:0:0:
320,192,28612,1,0,0:0:0:0:
192,192,28827,1,8,2:0:0:0:
320,192,28827,1,0,0:0:0:0:
448,192,28827,1,0,0:0:0:0:
64,192,29041,1,0,0:0:0:0:
192,192,29148,1,8,2:0:0:0:
320,192,29255,1,2,2:0:0:0:
448,192,29255,1,0,0:0:0:0:
192,192,29470,1,2,2:0:0:0:
320,192,29470,1,0,0:0:0:0:
64,192,29684,1,8,2:0:0:0:
192,192,29684,1,0,0:0:0:0:
448,192,29684,1,0,0:0:0:0:
64,192,29898,1,2,2:0:0:0:
320,192,29898,128,0,30327:0:0:0:0:
192,192,30327,1,2,2:0:0:0:
448,192,30327,1,0,0:0:0:0:
64,192,30541,1,8,2:0:0:0:
192,192,30541,1,0,0:0:0:0:
320,192,30541,1,0,0:0:0:0:
448,192,30755,1,0,0:0:0:0:
64,192,30862,1,8,2:0:0:0:
320,192,30970,1,2,2:0:0:0:
448,192,30970,1,0,0:0:0:0:
64,192,31184,1,2,2:0:0:0:
192,192,31184,1,0,0:0:0:0:
192,192,31398,1,8,2:0:0:0:
320,192,31398,1,0,0:0:0:0:
448,192,31398,1,0,0:0:0:0:
64,192,31612,128,2,32041:2:0:0:0:
448,192,31612,1,0,0:0:0:0:
192,192,32041,1,2,2:0:0:0:
448,192,32041,1,0,0:0:0:0:
64,192,32255,1,8,2:0:0:0:
192,192,32255,1,0,0:0:0:0:
320,192,32255,1,0,0:0:0:0:
320,192,32470,1,0,0:0:0:0:
192,192,32577,1,0,0:0:0:0:
64,192,32684,1,2,2:0:0:0:
448,192,32684,1,0,0:0:0:0:
64,192,32898,1,2,2:0:0:0:
192,192,32898,1,0,0:0:0:0:
192,192,33112,1,8,2:0:0:0:
320,192,33112,1,0,0:0:0:0:
448,192,33112,1,0,0:0:0:0:
64,192,33327,128,2,33755:2:0:0:0:
320,192,33327,1,0,0:0:0:0:
192,192,33755,1,2,2:0:0:0:
448,192,33755,1,0,0:0:0:0:
64,192,33970,1,8,2:0:0:0:
320,192,33970,1,0,0:0:0:0:
448,192,33970,1,0,0:0:0:0:
192,192,34184,1,2,2:0:0:0:
320,192,34291,1,0,0:0:0:0:
448,192,34398,1,0,0:0:0:0:
64,192,34505,1,8,2:0:0:0:
320,192,34612,1,2,2:0:0:0:
448,192,34612,1,0,0:0:0:0:
64,192,34827,1,8,2:0:0:0:
192,192,34827,1,0,0:0:0:0:
320,192,34934,1,8,2:0:0:0:
64,192,35041,128,2,35470:2:0:0:0:
448,192,35041,1,4,2:0:0:0:
320,192,35470,1,2,2:0:0:0:
448,192,35470,1,0,0:0:0:0:
64,192,35684,1,8,2:0:0:0:
192,192,35684,1,0,0:0:0:0:
320,192,35684,1,0,0:0:0:0:
192,192,35898,1,0,0:0:0:0:
448,192,36005,1,8,2:0:0:0:
64,192,36112,1,2,2:0:0:0:
320,192,36112,1,0,0:0:0:0:
192,192,36327,1,2,2:0:0:0:
320,192,36327,1,0,0:0:0:0:
64,192,36541,1,8,2:0:0:0:
192,192,36541,1,0,0:0:0:0:
448,192,36541,1,0,0:0:0:0:
64,192,36755,1,2,2:0:0:0:
320,192,36755,128,0,37184:0:0:0:0:
64,192,37184,1,2,2:0:0:0:
448,192,37184,1,0,0:0:0:0:
64,192,37398,1,8,2:0:0:0:
192,192,37398,1,0,0:0:0:0:
320,192,37398,1,0,0:0:0:0:
192,192,37612,1,0,0:0:0:0:
320,192,37720,1,8,2:0:0:0:
64,192,37827,1,2,2:0:0:0:
448,192,37827,1,0,0:0:0:0:
64,192,38041,1,2,2:0:0:0:
320,192,38041,1,0,0:0:0:0:
64,192,38255,1,8,2:0:0:0:
192,192,38255,1,0,0:0:0:0:
448,192,38255,1,0,0:0:0:0:
192,192,38470,1,2,2:0:0:0:
320,192,38470,1,4,2:0:0:0:
448,192,38470,128,0,38898:0:0:0:0:
192,192,38898,128,2,39005:2:0:0:0:
320,192,38898,1,0,0:0:0:0:
64,192,39112,1,8,2:0:0:0:
320,192,39112,128,0,39220:0:0:0:0:
448,192,39112,1,0,0:0:0:0:
448,192,39327,128,0,39434:0:0:0:0:
64,192,39541,128,2,39648:2:0:0:0:
320,192,39541,1,0,0:0:0:0:
192,192,39755,128,2,39862:2:0:0:0:
448,192,39755,1,0,0:0:0:0:
64,192,39970,1,8,2:0:0:0:
320,192,39970,128,0,40077:0:0:0:0:
448,192,39970,1,0,0:0:0:0:
64,192,40184,1,2,2:0:0:0:
192,192,40184,1,4,2:0:0:0:
448,192,40184,128,0,40291:0:0:0:0:
192,192,40612,1,2,2:0:0:0:
448,192,40612,128,0,40720:0:0:0:0:
64,192,40827,1,8,2:0:0:0:
320,192,40827,1,0,0:0:0:0:
448,192,40827,1,0,0:0:0:0:
64,192,41041,128,2,41148:2:0:0:0:
192,192,41041,1,0,0:0:0:0:
192,192,41255,1,8,2:0:0:0:
320,192,41255,1,0,0:0:0:0:
448,192,41255,1,0,0:0:0:0:
320,192,41470,1,0,0:0:0:0:
448,192,41470,1,0,0:0:0:0:
64,192,41470,128,2,41577:2:0:0:0:
64,192,41684,1,8,2:0:0:0:
320,192,41684,1,0,0:0:0:0:
448,192,41684,1,0,0:0:0:0:
192,192,41791,1,2,2:0:0:0:
320,192,41898,1,2,2:0:0:0:
64,192,42112,1,8,2:0:0:0:
192,192,42112,1,4,2:0:0:0:
448,192,42112,1,0,0:0:0:0:
64,192,42327,1,8,2:0:0:0:
192,192,42327,1,0,0:0:0:0:
448,192,42327,1,0,0:0:0:0:
320,192,42541,1,2,2:0:0:0:
448,192,42541,1,0,0:0:0:0:
192,192,42755,1,0,0:0:0:0:
64,192,42970,1,2,2:0:0:0:
448,192,42970,1,0,0:0:0:0:
320,192,43291,1,0,0:0:0:0:
192,192,43398,1,2,2:0:0:0:
448,192,43398,1,0,0:0:0:0:
64,192,43612,1,0,0:0:0:0:
192,192,43827,1,8,2:0:0:0:
320,192,43827,1,0,0:0:0:0:
448,192,43827,1,0,0:0:0:0:
192,192,44041,1,8,2:0:0:0:
320,192,44041,1,0,0:0:0:0:
448,192,44041,1,0,0:0:0:0:
64,192,44255,1,2,2:0:0:0:
448,192,44255,1,0,0:0:0:0:
320,192,44470,1,0,0:0:0:0:
64,192,44684,1,2,2:0:0:0:
192,192,44684,1,0,0:0:0:0:
448,192,44791,1,0,0:0:0:0:
192,192,44898,1,0,0:0:0:0:
320,192,45005,1,0,0:0:0:0:
64,192,45112,1,2,2:0:0:0:
448,192,45112,1,0,0:0:0:0:
192,192,45327,1,0,0:0:0:0:
64,192,45541,1,2,2:0:0:0:
320,192,45541,1,4,2:0:0:0:
448,192,45541,128,0,45970:0:0:0:0:
320,192,45970,1,8,2:0:0:0:
192,192,45970,1,0,0:0:0:0:
64,192,46077,1,8,2:0:0:0:
320,192,46184,1,8,2:0:0:0:
192,192,46291,1,8,2:0:0:0:
64,192,46398,1,2,2:0:0:0:
320,192,46398,128,4,46827:2:0:0:0:
448,192,46398,1,0,0:0:0:0:
192,192,46827,1,2,2:0:0:0:
64,192,46827,1,0,0:0:0:0:
448,192,46934,1,2,2:0:0:0:
192,192,47041,1,2,2:0:0:0:
320,192,47148,1,2,2:0:0:0:
64,192,47255,1,2,2:0:0:0:
192,192,47255,128,4,47684:2:0:0:0:
448,192,47255,1,0,0:0:0:0:
64,192,47684,1,2,2:0:0:0:
448,192,47684,1,0,0:0:0:0:
320,192,47791,1,2,2:0:0:0:
64,192,47898,1,2,2:0:0:0:
320,192,48005,1,2,2:0:0:0:
64,192,48112,128,2,48541:2:0:0:0:
192,192,48112,1,4,2:0:0:0:
448,192,48112,128,0,48220:0:0:0:0:
320,192,48327,128,0,48434:0:0:0:0:
192,192,48541,128,2,48648:2:0:0:0:
448,192,48541,1,0,0:0:0:0:
64,192,48755,128,0,48862:0:0:0:0:
64,192,48970,1,8,2:0:0:0:
320,192,48970,1,4,2:0:0:0:
448,192,48970,1,0,0:0:0:0:
192,192,49184,1,0,0:0:0:0:
320,192,49291,1,0,0:0:0:0:
64,192,49398,1,8,2:0:0:0:
448,192,49398,1,0,0:0:0:0:
320,192,49612,1,0,0:0:0:0:
192,192,49720,1,8,2:0:0:0:
64,192,49827,1,8,2:0:0:0:
448,192,49827,1,0,0:0:0:0:
64,192,50041,1,0,0:0:0:0:
192,192,50148,1,8,2:0:0:0:
320,192,50255,1,8,2:0:0:0:
448,192,50255,1,0,0:0:0:0:
192,192,50470,1,0,0:0:0:0:
320,192,50577,1,8,2:0:0:0:
192,192,50684,1,8,2:0:0:0:
448,192,50684,1,0,0:0:0:0:
320,192,50898,1,0,0:0:0:0:
192,192,51005,1,8,2:0:0:0:
64,192,51112,1,8,2:0:0:0:
320,192,51112,1,0,0:0:0:0:
192,192,51327,1,0,0:0:0:0:
320,192,51434,1,8,2:0:0:0:
192,192,51541,1,8,2:0:0:0:
448,192,51541,1,0,0:0:0:0:
448,192,51755,1,8,2:0:0:0:
320,192,51862,1,8,2:0:0:0:
64,192,51970,1,8,2:0:0:0:
192,192,51970,1,0,0:0:0:0:
320,192,52077,1,8,2:0:0:0:
64,192,52184,1,8,2:0:0:0:
192,192,52291,1,8,2:0:0:0:
320,192,52398,1,2,2:0:0:0:
448,192,52398,1,0,0:0:0:0:
64,192,52612,1,8,2:0:0:0:
192,192,52612,1,0,0:0:0:0:
448,192,52612,1,0,0:0:0:0:
64,192,52827,1,8,2:0:0:0:
192,192,52827,1,0,0:0:0:0:
448,192,52827,1,0,0:0:0:0:
192,192,53041,1,2,2:0:0:0:
320,192,53041,1,0,0:0:0:0:
192,192,53255,1,2,2:0:0:0:
320,192,53255,1,0,0:0:0:0:
64,192,53470,1,8,2:0:0:0:
320,192,53470,1,0,0:0:0:0:
448,192,53470,1,0,0:0:0:0:
64,192,53684,1,8,2:0:0:0:
448,192,53684,1,0,0:0:0:0:
64,192,53898,128,2,54327:2:0:0:0:
192,192,53898,1,4,2:0:0:0:
320,192,53898,1,0,0:0:0:0:
192,192,54327,1,8,2:0:0:0:
320,192,54327,1,0,0:0:0:0:
448,192,54327,1,0,0:0:0:0:
64,192,54541,1,8,2:0:0:0:
192,192,54541,1,0,0:0:0:0:
448,192,54541,128,0,54755:0:0:0:0:
64,192,54755,128,2,54862:2:0:0:0:
192,192,54862,128,0,54970:0:0:0:0:
320,192,54970,128,2,55077:2:0:0:0:
448,192,55077,128,8,55184:2:0:0:0:
64,192,55184,128,8,55291:2:0:0:0:
192,192,55291,128,0,55398:0:0:0:0:
320,192,55398,128,8,55505:2:0:0:0:
448,192,55505,128,0,55612:0:0:0:0:
64,192,55612,1,2,2:0:0:0:
192,192,55612,1,4,2:0:0:0:
320,192,55612,1,0,0:0:0:0:
64,192,56041,1,2,2:0:0:0:
192,192,56041,1,0,0:0:0:0:
192,192,56255,1,8,2:0:0:0:
320,192,56255,1,0,0:0:0:0:
448,192,56255,1,0,0:0:0:0:
320,192,56470,1,0,0:0:0:0:
64,192,56577,1,8,2:0:0:0:
320,192,56684,1,2,2:0:0:0:
192,192,56791,1,0,0:0:0:0:
64,192,56898,1,2,2:0:0:0:
448,192,56898,1,0,0:0:0:0:
64,192,57112,1,8,2:0:0:0:
192,192,57112,1,0,0:0:0:0:
320,192,57112,1,0,0:0:0:0:
192,192,57327,1,2,2:0:0:0:
320,192,57327,1,4,2:0:0:0:
448,192,57327,1,0,0:0:0:0:
192,192,57755,1,2,2:0:0:0:
320,192,57755,1,0,0:0:0:0:
64,192,57970,1,8,2:0:0:0:
192,192,57970,1,0,0:0:0:0:
448,192,57970,1,0,0:0:0:0:
64,192,58184,1,0,0:0:0:0:
320,192,58291,1,0,0:0:0:0:
64,192,58398,1,2,2:0:0:0:
192,192,58505,1,8,2:0:0:0:
320,192,58612,1,2,2:0:0:0:
448,192,58612,1,0,0:0:0:0:
64,192,58827,1,8,2:0:0:0:
192,192,58827,1,0,0:0:0:0:
448,192,58827,1,0,0:0:0:0:
64,192,59041,1,2,2:0:0:0:
192,192,59041,1,4,2:0:0:0:
320,192,59041,1,0,0:0:0:0:
320,192,59470,1,2,2:0:0:0:
448,192,59470,1,0,0:0:0:0:
64,192,59684,1,8,2:0:0:0:
192,192,59684,1,0,0:0:0:0:
320,192,59684,1,0,0:0:0:0:
64,192,59898,1,0,0:0:0:0:
192,192,60005,1,8,2:0:0:0:
320,192,60112,1,2,2:0:0:0:
192,192,60220,1,8,2:0:0:0:
64,192,60327,1,2,2:0:0:0:
320,192,60327,1,0,0:0:0:0:
64,192,60541,1,8,2:0:0:0:
192,192,60541,1,0,0:0:0:0:
448,192,60541,1,0,0:0:0:0:
192,192,60755,1,2,2:0:0:0:
320,192,60755,1,4,2:0:0:0:
448,192,60755,128,0,61184:0:0:0:0:
64,192,61184,1,2,2:0:0:0:
192,192,61184,1,0,0:0:0:0:
192,192,61398,1,8,2:0:0:0:
320,192,61398,1,0,0:0:0:0:
448,192,61398,1,0,0:0:0:0:
64,192,61612,128,2,62041:2:0:0:0:
320,192,61612,1,4,2:0:0:0:
448,192,61612,1,0,0:0:0:0:
192,192,62041,1,8,2:0:0:0:
320,192,62041,1,0,0:0:0:0:
64,192,62255,1,8,2:0:0:0:
320,192,62255,1,0,0:0:0:0:
448,192,62255,1,0,0:0:0:0:
192,192,62362,1,2,2:0:0:0:
448,192,62470,1,2,2:0:0:0:
64,192,62684,1,2,2:0:0:0:
192,192,62684,1,4,2:0:0:0:
320,192,62684,128,0,62898:0:0:0:0:
192,192,62898,128,0,63112:0:0:0:0:
64,192,63112,1,8,2:0:0:0:
320,192,63112,1,0,0:0:0:0:
448,192,63112,1,0,0:0:0:0:
192,192,63327,128,0,63434:0:0:0:0:
64,192,63541,1,2,2:0:0:0:
320,192,63541,128,0,63648:0:0:0:0:
192,192,63755,1,2,2:0:0:0:
448,192,63755,128,0,63862:0:0:0:0:
64,192,63970,1,8,2:0:0:0:
320,192,63970,128,0,64077:0:0:0:0:
448,192,63970,1,0,0:0:0:0:
192,192,64184,128,0,64291:0:0:0:0:
192,192,64398,1,2,2:0:0:0:
448,192,64398,128,0,64505:0:0:0:0:
64,192,64612,1,2,2:0:0:0:
320,192,64612,128,0,64720:0:0:0:0:
192,192,64827,128,8,64934:2:0:0:0:
320,192,64827,1,0,0:0:0:0:
448,192,64827,1,0,0:0:0:0:
64,192,65041,128,0,65148:0:0:0:0:
320,192,65148,1,0,0:0:0:0:
192,192,65255,128,2,65684:2:0:0:0:
448,192,65255,1,0,0:0:0:0:
320,192,65470,1,2,2:0:0:0:
448,192,65470,1,0,0:0:0:0:
64,192,65684,1,8,2:0:0:0:
320,192,65684,1,0,0:0:0:0:
448,192,65684,1,0,0:0:0:0:
64,192,65898,128,0,66327:0:0:0:0:
192,192,66112,1,2,2:0:0:0:
448,192,66112,1,4,2:0:0:0:
320,192,66327,1,2,2:0:0:0:
448,192,66327,128,0,66434:0:0:0:0:
64,192,66541,1,8,2:0:0:0:
192,192,66541,1,0,0:0:0:0:
320,192,66541,128,0,66648:0:0:0:0:
192,192,66755,128,0,66862:0:0:0:0:
320,192,66862,1,0,0:0:0:0:
64,192,66970,128,2,67077:2:0:0:0:
448,192,66970,1,0,0:0:0:0:
192,192,67184,128,2,67291:2:0:0:0:
320,192,67184,1,0,0:0:0:0:
64,192,67398,1,8,2:0:0:0:
320,192,67398,128,0,67505:0:0:0:0:
448,192,67398,1,0,0:0:0:0:
448,192,67612,128,0,68041:0:0:0:0:
64,192,67827,1,2,2:0:0:0:
320,192,67827,1,4,2:0:0:0:
64,192,68041,128,2,68148:2:0:0:0:
192,192,68041,1,0,0:0:0:0:
192,192,68255,128,8,68362:2:0:0:0:
320,192,68255,1,0,0:0:0:0:
448,192,68255,1,0,0:0:0:0:
64,192,68470,128,2,68684:2:0:0:0:
320,192,68470,1,4,2:0:0:0:
448,192,68470,1,0,0:0:0:0:
320,192,68898,128,2,69005:2:0:0:0:
448,192,68898,1,0,0:0:0:0:
64,192,69112,1,8,2:0:0:0:
192,192,69112,128,0,69220:0:0:0:0:
448,192,69112,1,0,0:0:0:0:
320,192,69220,1,2,2:0:0:0:
64,192,69327,128,2,69434:2:0:0:0:
192,192,69541,1,2,2:0:0:0:
320,192,69541,128,4,69970:2:0:0:0:
448,192,69541,1,0,0:0:0:0:
64,192,69755,1,0,0:0:0:0:
64,192,69970,1,8,2:0:0:0:
192,192,69970,128,0,70077:0:0:0:0:
448,192,69970,1,0,0:0:0:0:
192,192,70184,1,2,2:0:0:0:
320,192,70184,128,0,70291:0:0:0:0:
64,192,70398,1,2,2:0:0:0:
448,192,70398,128,0,70827:0:0:0:0:
320,192,70612,1,0,0:0:0:0:
64,192,70827,1,8,2:0:0:0:
192,192,70827,1,0,0:0:0:0:
320,192,70827,128,0,70934:0:0:0:0:
192,192,71041,128,0,71148:0:0:0:0:
64,192,71255,128,2,71362:2:0:0:0:
448,192,71255,1,0,0:0:0:0:
192,192,71470,128,0,71577:0:0:0:0:
64,192,71684,1,8,2:0:0:0:
320,192,71684,128,0,71791:0:0:0:0:
448,192,71684,1,0,0:0:0:0:
192,192,71898,1,2,2:0:0:0:
448,192,71898,128,0,72327:0:0:0:0:
64,192,72112,1,2,2:0:0:0:
320,192,72112,1,0,0:0:0:0:
64,192,72327,1,0,0:0:0:0:
192,192,72327,1,0,0:0:0:0:
320,192,72327,128,0,72434:0:0:0:0:
192,192,72541,128,8,72648:2:0:0:0:
320,192,72541,1,0,0:0:0:0:
448,192,72541,1,0,0:0:0:0:
64,192,72755,128,0,72862:0:0:0:0:
64,192,72970,1,2,2:0:0:0:
192,192,72970,128,4,73077:2:0:0:0:
448,192,72970,1,0,0:0:0:0:
320,192,73184,128,0,73398:0:0:0:0:
448,192,73612,128,0,73720:0:0:0:0:
64,192,73827,1,8,2:0:0:0:
192,192,73827,128,4,74148:2:0:0:0:
320,192,73827,1,0,0:0:0:0:
64,192,74148,1,2,2:0:0:0:
320,192,74255,128,2,74362:2:0:0:0:
448,192,74255,1,0,0:0:0:0:
192,192,74470,1,2,2:0:0:0:
448,192,74470,128,0,75541:0:0:0:0:
64,192,74898,1,8,2:0:0:0:
192,192,74898,1,0,0:0:0:0:
64,192,75112,1,8,2:0:0:0:
192,192,75112,1,0,0:0:0:0:
64,192,75327,1,8,2:0:0:0:
192,192,75327,1,0,0:0:0:0:
64,192,75541,1,8,2:0:0:0:
192,192,75541,1,4,2:0:0:0:
320,192,75541,1,0,0:0:0:0:
64,192,75755,128,2,75862:2:0:0:0:
192,192,75862,128,2,75970:2:0:0:0:
320,192,75970,128,2,76077:2:0:0:0:
448,192,76077,128,0,76184:0:0:0:0:
64,192,76184,128,2,76612:2:0:0:0:
192,192,76184,1,4,2:0:0:0:
320,192,76184,1,0,0:0:0:0:
192,192,76612,128,2,76827:2:0:0:0:
448,192,76612,1,0,0:0:0:0:
64,192,76827,1,8,2:0:0:0:
320,192,76827,128,0,77041:0:0:0:0:
64,192,77041,1,0,0:0:0:0:
192,192,77148,1,8,2:0:0:0:
320,192,77255,1,2,2:0:0:0:
448,192,77362,1,8,2:0:0:0:
64,192,77470,1,2,2:0:0:0:
192,192,77470,1,0,0:0:0:0:
320,192,77684,1,8,2:0:0:0:
448,192,77684,1,0,0:0:0:0:
64,192,77898,1,2,2:0:0:0:
192,192,77898,128,4,78327:2:0:0:0:
320,192,77898,1,0,0:0:0:0:
64,192,78327,128,2,78541:2:0:0:0:
320,192,78327,1,0,0:0:0:0:
192,192,78541,128,8,78755:2:0:0:0:
448,192,78541,1,0,0:0:0:0:
320,192,78755,1,8,2:0:0:0:
448,192,78755,1,0,0:0:0:0:
64,192,78862,1,8,2:0:0:0:
192,192,78970,1,2,2:0:0:0:
320,192,79077,1,8,2:0:0:0:
64,192,79184,1,2,2:0:0:0:
320,192,79291,1,2,2:0:0:0:
192,192,79398,1,2,2:0:0:0:
448,192,79505,1,2,2:0:0:0:
64,192,79612,1,2,2:0:0:0:
192,192,79612,1,4,2:0:0:0:
320,192,79612,128,0,80041:0:0:0:0:
192,192,80041,128,2,80255:2:0:0:0:
448,192,80041,1,0,0:0:0:0:
64,192,80255,128,8,80470:2:0:0:0:
320,192,80255,1,0,0:0:0:0:
192,192,80470,128,8,80684:2:0:0:0:
448,192,80470,1,4,2:0:0:0:
64,192,80684,1,2,2:0:0:0:
320,192,80684,128,0,80898:0:0:0:0:
448,192,80898,1,2,2:0:0:0:
64,192,81005,1,0,0:0:0:0:
192,192,81112,1,8,2:0:0:0:
320,192,81220,1,8,2:0:0:0:
64,192,81327,1,2,2:0:0:0:
192,192,81327,1,0,0:0:0:0:
448,192,81327,128,0,81755:0:0:0:0:
64,192,81648,1,8,2:0:0:0:
192,192,81755,1,8,2:0:0:0:
320,192,81862,1,8,2:0:0:0:
64,192,81970,1,8,2:0:0:0:
448,192,81970,1,0,0:0:0:0:
192,192,82077,1,2,2:0:0:0:
320,192,82184,1,2,2:0:0:0:
192,192,82291,1,2,2:0:0:0:
64,192,82398,1,8,2:0:0:0:
320,192,82398,1,0,0:0:0:0:
448,192,82398,1,0,0:0:0:0:
64,192,82612,1,8,2:0:0:0:
320,192,82612,1,0,0:0:0:0:
448,192,82612,1,0,0:0:0:0:
64,192,82827,1,0,0:0:0:0:
192,192,82827,1,0,0:0:0:0:
192,192,83041,1,2,2:0:0:0:
320,192,83041,128,4,83470:2:0:0:0:
448,192,83041,1,0,0:0:0:0:
64,192,83470,1,2,2:0:0:0:
192,192,83470,1,0,0:0:0:0:
64,192,83684,1,8,2:0:0:0:
320,192,83684,1,0,0:0:0:0:
448,192,83684,1,0,0:0:0:0:
320,192,83898,1,0,0:0:0:0:
192,192,84005,1,8,2:0:0:0:
64,192,84112,1,2,2:0:0:0:
448,192,84112,1,0,0:0:0:0:
192,192,84327,1,2,2:0:0:0:
320,192,84327,1,0,0:0:0:0:
64,192,84541,1,8,2:0:0:0:
192,192,84541,1,0,0:0:0:0:
448,192,84541,1,0,0:0:0:0:
320,192,84755,1,2,2:0:0:0:
448,192,84755,128,0,85184:0:0:0:0:
64,192,85184,1,2,2:0:0:0:
192,192,85184,1,0,0:0:0:0:
192,192,85398,1,8,2:0:0:0:
320,192,85398,1,0,0:0:0:0:
448,192,85398,1,0,0:0:0:0:
64,192,85612,1,0,0:0:0:0:
320,192,85720,1,0,0:0:0:0:
192,192,85827,1,2,2:0:0:0:
448,192,85827,1,0,0:0:0:0:
320,192,86041,1,2,2:0:0:0:
448,192,86041,1,0,0:0:0:0:
64,192,86255,1,8,2:0:0:0:
192,192,86255,1,0,0:0:0:0:
320,192,86255,1,0,0:0:0:0:
64,192,86470,128,2,86898:2:0:0:0:
448,192,86470,1,0,0:0:0:0:
192,192,86898,1,2,2:0:0:0:
320,192,86898,1,0,0:0:0:0:
64,192,87112,1,8,2:0:0:0:
320,192,87112,1,0,0:0:0:0:
448,192,87112,1,0,0:0:0:0:
64,192,87327,1,0,0:0:0:0:
192,192,87434,1,8,2:0:0:0:
320,192,87541,1,2,2:0:0:0:
448,192,87541,1,0,0:0:0:0:
64,192,87755,1,2,2:0:0:0:
192,192,87755,1,0,0:0:0:0:
192,192,87970,1,8,2:0:0:0:
320,192,87970,1,0,0:0:0:0:
448,192,87970,1,0,0:0:0:0:
64,192,88184,128,2,88612:2:0:0:0:
320,192,88184,1,0,0:0:0:0:
192,192,88612,1,2,2:0:0:0:
448,192,88612,1,0,0:0:0:0:
64,192,88827,1,8,2:0:0:0:
320,192,88827,1,0,0:0:0:0:
448,192,88827,1,0,0:0:0:0:
192,192,89148,1,8,2:0:0:0:
320,192,89148,1,0,0:0:0:0:
64,192,89255,1,8,2:0:0:0:
448,192,89255,1,0,0:0:0:0:
64,192,89470,1,8,2:0:0:0:
320,192,89470,1,0,0:0:0:0:
448,192,89470,1,0,0:0:0:0:
192,192,89684,1,0,0:0:0:0:
448,192,89684,1,0,0:0:0:0:
64,192,89898,1,2,2:0:0:0:
192,192,89898,1,4,2:0:0:0:
320,192,89898,128,0,90327:0:0:0:0:
64,192,90327,1,2,2:0:0:0:
448,192,90327,1,0,0:0:0:0:
64,192,90541,1,8,2:0:0:0:
192,192,90541,1,0,0:0:0:0:
320,192,90541,1,0,0:0:0:0:
320,192,90755,1,0,0:0:0:0:
192,192,90862,1,8,2:0:0:0:
64,192,90970,1,2,2:0:0:0:
448,192,90970,1,0,0:0:0:0:
64,192,91184,1,2,2:0:0:0:
320,192,91184,1,0,0:0:0:0:
64,192,91398,1,8,2:0:0:0:
192,192,91398,1,0,0:0:0:0:
448,192,91398,1,0,0:0:0:0:
320,192,91612,128,2,92041:2:0:0:0:
448,192,91612,1,0,0:0:0:0:
64,192,92041,1,2,2:0:0:0:
192,192,92041,1,0,0:0:0:0:
64,192,92255,1,8,2:0:0:0:
320,192,92255,1,0,0:0:0:0:
448,192,92255,1,0,0:0:0:0:
192,192,92470,1,8,2:0:0:0:
320,192,92470,1,0,0:0:0:0:
448,192,92470,1,0,0:0:0:0:
64,192,92684,1,2,2:0:0:0:
448,192,92791,1,0,0:0:0:0:
64,192,92898,1,2,2:0:0:0:
192,192,92898,1,0,0:0:0:0:
192,192,93112,1,8,2:0:0:0:
320,192,93112,1,0,0:0:0:0:
448,192,93112,1,0,0:0:0:0:
64,192,93327,1,2,2:0:0:0:
320,192,93327,128,0,93755:0:0:0:0:
64,192,93755,1,2,2:0:0:0:
192,192,93755,1,0,0:0:0:0:
64,192,93970,1,8,2:0:0:0:
192,192,93970,1,0,0:0:0:0:
448,192,93970,1,0,0:0:0:0:
320,192,94184,1,8,2:0:0:0:
448,192,94184,1,0,0:0:0:0:
64,192,94291,1,8,2:0:0:0:
320,192,94398,1,2,2:0:0:0:
192,192,94505,1,2,2:0:0:0:
64,192,94612,1,2,2:0:0:0:
448,192,94720,1,2,2:0:0:0:
64,192,94827,1,2,2:0:0:0:
192,192,94827,1,0,0:0:0:0:
192,192,95041,128,8,95470:2:0:0:0:
320,192,95041,1,0,0:0:0:0:
448,192,95041,1,0,0:0:0:0:
320,192,95470,128,0,95684:0:0:0:0:
64,192,95684,128,0,95898:0:0:0:0:
448,192,95898,128,0,96112:0:0:0:0:
320,192,96112,1,0,0:0:0:0:
192,192,96220,1,0,0:0:0:0:
64,192,96327,1,8,2:0:0:0:
320,192,96327,1,0,0:0:0:0:
64,192,96541,1,8,2:0:0:0:
320,192,96541,1,0,0:0:0:0:
64,192,96755,1,2,2:0:0:0:
192,192,96755,128,4,97184:2:0:0:0:
448,192,96755,1,0,0:0:0:0:
320,192,97184,1,2,2:0:0:0:
448,192,97184,1,0,0:0:0:0:
64,192,97398,1,8,2:0:0:0:
192,192,97398,1,0,0:0:0:0:
320,192,97398,1,0,0:0:0:0:
448,192,97612,1,0,0:0:0:0:
192,192,97720,1,8,2:0:0:0:
64,192,97827,1,2,2:0:0:0:
320,192,97827,1,0,0:0:0:0:
192,192,98041,1,2,2:0:0:0:
448,192,98041,1,0,0:0:0:0:
64,192,98255,1,8,2:0:0:0:
320,192,98255,1,0,0:0:0:0:
448,192,98255,1,0,0:0:0:0:
64,192,98470,1,2,2:0:0:0:
192,192,98470,128,0,98898:0:0:0:0:
320,192,98898,1,2,2:0:0:0:
448,192,98898,1,0,0:0:0:0:
64,192,99112,1,8,2:0:0:0:
192,192,99112,1,0,0:0:0:0:
320,192,99112,1,0,0:0:0:0:
448,192,99327,1,0,0:0:0:0:
192,192,99434,1,8,2:0:0:0:
64,192,99541,1,2,2:0:0:0:
320,192,99541,1,0,0:0:0:0:
192,192,99755,1,2,2:0:0:0:
320,192,99755,1,0,0:0:0:0:
64,192,99970,1,8,2:0:0:0:
192,192,99970,1,0,0:0:0:0:
448,192,99970,1,0,0:0:0:0:
320,192,100184,1,2,2:0:0:0:
448,192,100184,128,0,100612:0:0:0:0:
192,192,100612,1,2,2:0:0:0:
320,192,100612,1,0,0:0:0:0:
64,192,100827,1,8,2:0:0:0:
320,192,100827,1,0,0:0:0:0:
448,192,100827,1,0,0:0:0:0:
192,192,101041,1,0,0:0:0:0:
320,192,101148,1,0,0:0:0:0:
64,192,101255,1,2,2:0:0:0:
448,192,101255,1,0,0:0:0:0:
320,192,101470,1,2,2:0:0:0:
448,192,101470,1,0,0:0:0:0:
64,192,101684,1,8,2:0:0:0:
192,192,101684,1,0,0:0:0:0:
320,192,101684,1,0,0:0:0:0:
192,192,101898,1,2,2:0:0:0:
448,192,101898,128,0,102327:0:0:0:0:
64,192,102327,1,2,2:0:0:0:
320,192,102327,1,0,0:0:0:0:
64,192,102541,1,8,2:0:0:0:
192,192,102541,1,0,0:0:0:0:
448,192,102541,1,0,0:0:0:0:
320,192,102755,1,0,0:0:0:0:
192,192,102862,1,8,2:0:0:0:
64,192,102970,1,2,2:0:0:0:
448,192,102970,1,0,0:0:0:0:
192,192,103184,1,2,2:0:0:0:
320,192,103184,1,4,2:0:0:0:
448,192,103184,1,0,0:0:0:0:
64,192,103398,1,8,2:0:0:0:
192,192,103398,1,0,0:0:0:0:
320,192,103398,1,0,0:0:0:0:
64,192,103612,1,2,2:0:0:0:
192,192,103612,128,4,104041:2:0:0:0:
448,192,103612,1,0,0:0:0:0:
64,192,104041,1,2,2:0:0:0:
320,192,104041,1,0,0:0:0:0:
64,192,104255,1,8,2:0:0:0:
192,192,104255,1,0,0:0:0:0:
448,192,104255,1,0,0:0:0:0:
320,192,104470,1,0,0:0:0:0:
64,192,104577,1,8,2:0:0:0:
192,192,104684,1,2,2:0:0:0:
448,192,104684,1,0,0:0:0:0:
192,192,104898,1,2,2:0:0:0:
320,192,104898,1,0,0:0:0:0:
64,192,105112,1,8,2:0:0:0:
192,192,105112,1,0,0:0:0:0:
448,192,105112,1,0,0:0:0:0:
64,192,105327,1,8,2:0:0:0:
320,192,105327,128,4,105755:2:0:0:0:
448,192,105327,1,0,0:0:0:0:
64,192,105755,1,2,2:0:0:0:
192,192,105755,1,0,0:0:0:0:
64,192,105970,1,8,2:0:0:0:
192,192,105970,1,4,2:0:0:0:
320,192,105970,1,0,0:0:0:0:
448,192,106184,1,0,0:0:0:0:
192,192,106291,1,8,2:0:0:0:
320,192,106398,1,2,2:0:0:0:
448,192,106398,1,0,0:0:0:0:
64,192,106612,1,8,2:0:0:0:
192,192,106612,1,0,0:0:0:0:
320,192,106612,1,0,0:0:0:0:
192,192,106827,1,2,2:0:0:0:
448,192,106827,1,0,0:0:0:0:
64,192,107041,128,2,107470:2:0:0:0:
320,192,107041,1,4,2:0:0:0:
448,192,107041,1,0,0:0:0:0:
192,192,107470,1,2,2:0:0:0:
320,192,107470,128,0,107577:0:0:0:0:
64,192,107684,1,8,2:0:0:0:
192,192,107684,128,0,107791:0:0:0:0:
448,192,107684,1,0,0:0:0:0:
320,192,107898,128,0,108005:0:0:0:0:
64,192,108112,1,8,2:0:0:0:
448,192,108112,128,0,108220:0:0:0:0:
192,192,108327,1,2,2:0:0:0:
320,192,108327,128,0,108434:0:0:0:0:
64,192,108541,1,8,2:0:0:0:
192,192,108541,128,0,108648:0:0:0:0:
448,192,108541,1,0,0:0:0:0:
64,192,108755,128,2,108862:2:0:0:0:
320,192,108755,1,4,2:0:0:0:
448,192,108755,1,0,0:0:0:0:
64,192,109184,128,2,109291:2:0:0:0:
320,192,109184,1,0,0:0:0:0:
64,192,109398,1,8,2:0:0:0:
192,192,109398,1,0,0:0:0:0:
448,192,109398,1,0,0:0:0:0:
448,192,109612,128,2,109720:2:0:0:0:
320,192,109720,1,2,2:0:0:0:
64,192,109827,1,8,2:0:0:0:
192,192,109827,1,0,0:0:0:0:
320,192,109934,1,8,2:0:0:0:
448,192,110041,128,2,110148:2:0:0:0:
64,192,110148,1,2,2:0:0:0:
320,192,110255,1,2,2:0:0:0:
448,192,110255,1,0,0:0:0:0:
192,192,110362,1,2,2:0:0:0:
64,192,110470,1,2,2:0:0:0:
192,192,110684,1,8,2:0:0:0:
320,192,110684,1,4,2:0:0:0:
448,192,110684,1,0,0:0:0:0:
192,192,110898,1,8,2:0:0:0:
320,192,110898,1,0,0:0:0:0:
448,192,110898,1,0,0:0:0:0:
64,192,111112,1,2,2:0:0:0:
192,192,111112,1,0,0:0:0:0:
448,192,111327,1,0,0:0:0:0:
64,192,111541,1,2,2:0:0:0:
320,192,111541,1,0,0:0:0:0:
448,192,111862,1,0,0:0:0:0:
64,192,111970,1,2,2:0:0:0:
192,192,111970,1,4,2:0:0:0:
320,192,112184,1,0,0:0:0:0:
64,192,112398,1,8,2:0:0:0:
192,192,112398,1,0,0:0:0:0:
448,192,112398,1,0,0:0:0:0:
64,192,112612,1,8,2:0:0:0:
192,192,112612,1,0,0:0:0:0:
448,192,112612,1,0,0:0:0:0:
64,192,112827,1,2,2:0:0:0:
320,192,112827,1,0,0:0:0:0:
192,192,113041,1,0,0:0:0:0:
320,192,113255,1,2,2:0:0:0:
448,192,113255,1,0,0:0:0:0:
64,192,113362,1,0,0:0:0:0:
192,192,113470,1,0,0:0:0:0:
448,192,113577,1,2,2:0:0:0:
64,192,113684,1,2,2:0:0:0:
320,192,113684,1,0,0:0:0:0:
192,192,113898,1,2,2:0:0:0:
320,192,113898,1,0,0:0:0:0:
64,192,114112,128,2,114541:2:0:0:0:
320,192,114112,1,4,2:0:0:0:
448,192,114112,1,0,0:0:0:0:
320,192,114541,1,8,2:0:0:0:
448,192,114541,1,0,0:0:0:0:
192,192,114648,1,8,2:0:0:0:
448,192,114755,1,8,2:0:0:0:
320,192,114862,1,8,2:0:0:0:
64,192,114970,1,2,2:0:0:0:
192,192,114970,128,4,115398:2:0:0:0:
448,192,114970,1,0,0:0:0:0:
448,192,115398,1,2,2:0:0:0:
320,192,115398,1,0,0:0:0:0:
64,192,115505,1,2,2:0:0:0:
320,192,115612,1,2,2:0:0:0:
192,192,115720,1,2,2:0:0:0:
64,192,115827,1,4,2:0:0:0:
320,192,115827,128,2,116255:2:0:0:0:
448,192,115827,1,0,0:0:0:0:
192,192,116041,1,2,2:0:0:0:
64,192,116255,1,2,2:0:0:0:
448,192,116255,1,0,0:0:0:0:
192,192,116362,1,2,2:0:0:0:
64,192,116470,1,8,2:0:0:0:
320,192,116577,1,8,2:0:0:0:
64,192,116684,1,2,2:0:0:0:
448,192,116684,1,0,0:0:0:0:
192,192,116791,1,2,2:0:0:0:
320,192,116898,1,2,2:0:0:0:
64,192,117005,1,2,2:0:0:0:
320,192,117112,1,2,2:0:0:0:
448,192,117112,1,0,0:0:0:0:
192,192,117327,1,2,2:0:0:0:
64,192,117327,1,0,0:0:0:0:
64,192,117541,1,8,2:0:0:0:
320,192,117541,1,4,2:0:0:0:
448,192,117541,1,0,0:0:0:0:
192,192,117755,1,0,0:0:0:0:
448,192,117862,1,0,0:0:0:0:
64,192,117970,1,8,2:0:0:0:
320,192,117970,1,0,0:0:0:0:
320,192,118184,1,0,0:0:0:0:
64,192,118291,1,8,2:0:0:0:
192,192,118398,1,8,2:0:0:0:
448,192,118398,1,0,0:0:0:0:
448,192,118612,1,0,0:0:0:0:
320,192,118720,1,8,2:0:0:0:
64,192,118827,1,8,2:0:0:0:
192,192,118827,1,0,0:0:0:0:
448,192,119041,1,0,0:0:0:0:
192,192,119148,1,8,2:0:0:0:
320,192,119255,1,8,2:0:0:0:
448,192,119255,1,4,2:0:0:0:
64,192,119470,1,0,0:0:0:0:
320,192,119577,1,8,2:0:0:0:
64,192,119684,1,8,2:0:0:0:
192,192,119684,1,0,0:0:0:0:
192,192,119898,1,8,2:0:0:0:
320,192,119898,1,0,0:0:0:0:
320,192,120112,1,8,2:0:0:0:
448,192,120112,1,0,0:0:0:0:
192,192,120220,1,8,2:0:0:0:
64,192,120327,1,8,2:0:0:0:
64,192,120541,1,8,2:0:0:0:
448,192,120541,1,0,0:0:0:0:
192,192,120648,1,2,2:0:0:0:
320,192,120755,1,2,2:0:0:0:
64,192,120970,1,2,2:0:0:0:
192,192,120970,1,0,0:0:0:0:
64,192,121184,1,8,2:0:0:0:
320,192,121184,1,0,0:0:0:0:
448,192,121184,1,0,0:0:0:0:
64,192,121398,1,8,2:0:0:0:
320,192,121398,1,0,0:0:0:0:
448,192,121398,1,0,0:0:0:0:
192,192,121612,1,2,2:0:0:0:
320,192,121612,1,0,0:0:0:0:
192,192,121827,1,2,2:0:0:0:
320,192,121827,1,0,0:0:0:0:
64,192,122041,1,8,2:0:0:0:
192,192,122041,1,0,0:0:0:0:
448,192,122041,1,0,0:0:0:0:
64,192,122255,1,2,2:0:0:0:
320,192,122255,1,0,0:0:0:0:
192,192,122470,1,2,2:0:0:0:
320,192,122470,1,4,2:0:0:0:
448,192,122470,128,0,122898:0:0:0:0:
64,192,122898,1,8,2:0:0:0:
192,192,122898,1,0,0:0:0:0:
320,192,122898,1,0,0:0:0:0:
64,192,123112,128,8,123327:2:0:0:0:
192,192,123112,1,0,0:0:0:0:
448,192,123112,1,0,0:0:0:0:
320,192,123327,128,2,123434:2:0:0:0:
192,192,123434,128,0,123541:0:0:0:0:
64,192,123541,128,8,123648:2:0:0:0:
192,192,123648,128,8,123755:2:0:0:0:
320,192,123755,128,8,123862:2:0:0:0:
448,192,123862,128,0,123970:0:0:0:0:
320,192,123970,128,8,124077:2:0:0:0:
192,192,124077,128,0,124184:0:0:0:0:
64,192,124184,1,2,2:0:0:0:
320,192,124184,1,4,2:0:0:0:
448,192,124184,1,0,0:0:0:0:
64,192,124612,1,2,2:0:0:0:
448,192,124612,1,0,0:0:0:0:
64,192,124827,1,8,2:0:0:0:
192,192,124827,1,0,0:0:0:0:
320,192,124827,1,0,0:0:0:0:
192,192,125041,1,0,0:0:0:0:
320,192,125148,1,8,2:0:0:0:
64,192,125255,1,2,2:0:0:0:
320,192,125362,1,8,2:0:0:0:
64,192,125470,1,2,2:0:0:0:
448,192,125470,1,0,0:0:0:0:
192,192,125684,1,8,2:0:0:0:
320,192,125684,1,0,0:0:0:0:
448,192,125684,1,0,0:0:0:0:
64,192,125898,1,2,2:0:0:0:
192,192,125898,1,4,2:0:0:0:
320,192,125898,1,0,0:0:0:0:
64,192,126327,1,2,2:0:0:0:
192,192,126327,1,0,0:0:0:0:
64,192,126541,1,8,2:0:0:0:
320,192,126541,1,0,0:0:0:0:
448,192,126541,1,0,0:0:0:0:
448,192,126755,1,0,0:0:0:0:
192,192,126862,1,8,2:0:0:0:
448,192,126970,1,2,2:0:0:0:
192,192,127077,1,0,0:0:0:0:
64,192,127184,1,2,2:0:0:0:
320,192,127184,1,0,0:0:0:0:
192,192,127398,1,8,2:0:0:0:
320,192,127398,1,0,0:0:0:0:
448,192,127398,1,0,0:0:0:0:
64,192,127612,1,2,2:0:0:0:
320,192,127612,1,4,2:0:0:0:
448,192,127612,1,0,0:0:0:0:
64,192,128041,1,2,2:0:0:0:
192,192,128041,1,0,0:0:0:0:
192,192,128255,1,8,2:0:0:0:
320,192,128255,1,0,0:0:0:0:
448,192,128255,1,0,0:0:0:0:
448,192,128470,1,0,0:0:0:0:
64,192,128577,1,8,2:0:0:0:
320,192,128684,1,2,2:0:0:0:
448,192,128684,1,0,0:0:0:0:
192,192,128898,1,2,2:0:0:0:
320,192,128898,1,0,0:0:0:0:
64,192,129112,1,8,2:0:0:0:
192,192,129112,1,0,0:0:0:0:
448,192,129112,1,0,0:0:0:0:
64,192,129327,128,2,129755:2:0:0:0:
320,192,129327,1,4,2:0:0:0:
448,192,129327,1,0,0:0:0:0:
192,192,129755,1,2,2:0:0:0:
448,192,129755,1,0,0:0:0:0:
64,192,129970,1,8,2:0:0:0:
192,192,129970,1,0,0:0:0:0:
320,192,129970,1,0,0:0:0:0:
64,192,130184,1,2,2:0:0:0:
192,192,130184,1,4,2:0:0:0:
448,192,130184,128,0,130612:0:0:0:0:
64,192,130612,1,0,0:0:0:0:
320,192,130612,1,0,0:0:0:0:
64,192,130827,1,8,2:0:0:0:
192,192,130827,1,0,0:0:0:0:
448,192,130827,1,0,0:0:0:0:
320,192,130934,1,2,2:0:0:0:
192,192,131041,1,2,2:0:0:0:
64,192,131255,1,2,2:0:0:0:
320,192,131255,128,4,131470:2:0:0:0:
448,192,131255,1,0,0:0:0:0:
192,192,131470,128,0,131684:0:0:0:0:
64,192,131684,1,8,2:0:0:0:
320,192,131684,1,0,0:0:0:0:
448,192,131684,1,0,0:0:0:0:
320,192,131898,128,0,132005:0:0:0:0:
192,192,132112,128,2,132220:2:0:0:0:
448,192,132112,1,0,0:0:0:0:
64,192,132327,128,2,132434:2:0:0:0:
320,192,132327,1,0,0:0:0:0:
64,192,132541,1,8,2:0:0:0:
192,192,132541,128,0,132648:0:0:0:0:
448,192,132541,1,0,0:0:0:0:
320,192,132755,128,0,132862:0:0:0:0:
64,192,132970,128,2,133077:2:0:0:0:
320,192,132970,1,0,0:0:0:0:
192,192,133184,128,2,133291:2:0:0:0:
448,192,133184,1,0,0:0:0:0:
64,192,133398,1,8,2:0:0:0:
192,192,133398,1,0,0:0:0:0:
320,192,133398,128,0,133505:0:0:0:0:
448,192,133612,128,0,133720:0:0:0:0:
64,192,133720,1,8,2:0:0:0:
320,192,133827,128,2,134255:2:0:0:0:
448,192,133827,1,0,0:0:0:0:
64,192,134041,1,2,2:0:0:0:
192,192,134041,1,0,0:0:0:0:
64,192,134255,1,8,2:0:0:0:
192,192,134255,1,0,0:0:0:0:
448,192,134255,1,0,0:0:0:0:
448,192,134470,128,0,134898:0:0:0:0:
64,192,134684,1,2,2:0:0:0:
192,192,134684,1,4,2:0:0:0:
64,192,134898,128,2,135005:2:0:0:0:
320,192,134898,1,0,0:0:0:0:
64,192,135112,1,8,2:0:0:0:
192,192,135112,128,0,135220:0:0:0:0:
448,192,135112,1,0,0:0:0:0:
320,192,135327,128,0,135434:0:0:0:0:
64,192,135434,1,8,2:0:0:0:
320,192,135541,1,2,2:0:0:0:
448,192,135541,128,0,135648:0:0:0:0:
192,192,135755,1,2,2:0:0:0:
320,192,135755,128,0,135862:0:0:0:0:
64,192,135970,1,8,2:0:0:0:
192,192,135970,128,0,136077:0:0:0:0:
448,192,135970,1,0,0:0:0:0:
64,192,136184,128,2,136612:2:0:0:0:
320,192,136184,1,0,0:0:0:0:
192,192,136398,1,8,2:0:0:0:
448,192,136398,1,4,2:0:0:0:
320,192,136612,1,2,2:0:0:0:
448,192,136612,128,0,136720:0:0:0:0:
64,192,136827,1,8,2:0:0:0:
192,192,136827,1,0,0:0:0:0:
320,192,136827,128,0,136934:0:0:0:0:
64,192,137041,1,2,2:0:0:0:
192,192,137041,1,4,2:0:0:0:
448,192,137041,128,0,137255:0:0:0:0:
64,192,137470,1,2,2:0:0:0:
320,192,137470,128,0,137577:0:0:0:0:
64,192,137684,1,2,2:0:0:0:
320,192,137684,1,0,0:0:0:0:
448,192,137684,128,0,137791:0:0:0:0:
64,192,137898,128,8,138005:2:0:0:0:
448,192,137898,1,0,0:0:0:0:
320,192,138005,1,8,2:0:0:0:
64,192,138112,1,2,2:0:0:0:
192,192,138112,128,4,138541:2:0:0:0:
448,192,138112,1,0,0:0:0:0:
320,192,138327,1,0,0:0:0:0:
64,192,138541,1,8,2:0:0:0:
320,192,138541,128,0,138648:0:0:0:0:
448,192,138541,1,0,0:0:0:0:
192,192,138755,128,2,138862:2:0:0:0:
448,192,138755,1,0,0:0:0:0:
64,192,138970,128,2,139398:2:0:0:0:
320,192,138970,1,0,0:0:0:0:
192,192,139184,1,0,0:0:0:0:
192,192,139398,128,8,139505:2:0:0:0:
320,192,139398,1,0,0:0:0:0:
448,192,139398,1,0,0:0:0:0:
320,192,139612,128,0,139720:0:0:0:0:
64,192,139827,1,2,2:0:0:0:
448,192,139827,128,0,139934:0:0:0:0:
320,192,140041,128,0,140148:0:0:0:0:
64,192,140255,1,8,2:0:0:0:
192,192,140255,128,0,140362:0:0:0:0:
448,192,140255,1,0,0:0:0:0:
64,192,140470,128,2,140898:2:0:0:0:
320,192,140470,1,0,0:0:0:0:
192,192,140684,1,2,2:0:0:0:
448,192,140684,1,0,0:0:0:0:
192,192,140898,128,0,141005:0:0:0:0:
320,192,140898,1,0,0:0:0:0:
448,192,140898,1,0,0:0:0:0:
64,192,141112,1,8,2:0:0:0:
192,192,141112,1,0,0:0:0:0:
320,192,141112,128,0,141220:0:0:0:0:
64,192,141327,1,2,2:0:0:0:
448,192,141327,128,0,141434:0:0:0:0:
64,192,141541,1,2,2:0:0:0:
192,192,141541,128,4,141648:2:0:0:0:
448,192,141541,1,0,0:0:0:0:
320,192,141755,128,0,141970:0:0:0:0:
192,192,142184,128,0,142291:0:0:0:0:
64,192,142398,1,8,2:0:0:0:
320,192,142398,128,4,142720:2:0:0:0:
448,192,142398,1,0,0:0:0:0:
64,192,142720,1,2,2:0:0:0:
192,192,142827,128,2,142934:2:0:0:0:
448,192,142827,1,0,0:0:0:0:
64,192,143041,128,2,144112:2:0:0:0:
320,192,143041,1,0,0:0:0:0:
320,192,143470,1,8,2:0:0:0:
448,192,143470,1,0,0:0:0:0:
320,192,143684,1,8,2:0:0:0:
448,192,143684,1,0,0:0:0:0:
320,192,143898,1,8,2:0:0:0:
448,192,143898,1,0,0:0:0:0:
192,192,144112,1,8,2:0:0:0:
320,192,144112,1,4,2:0:0:0:
448,192,144112,1,0,0:0:0:0:
64,192,144327,1,0,0:0:0:0:
192,192,144327,1,0,0:0:0:0:
320,192,144434,1,8,2:0:0:0:
64,192,144541,1,8,2:0:0:0:
448,192,144541,1,0,0:0:0:0:
64,192,144755,128,2,145184:2:0:0:0:
192,192,144755,1,4,2:0:0:0:
448,192,144755,1,0,0:0:0:0:
192,192,145184,1,2,2:0:0:0:
448,192,145184,128,0,145291:0:0:0:0:
64,192,145398,1,8,2:0:0:0:
320,192,145398,1,0,0:0:0:0:
448,192,145398,128,0,145612:0:0:0:0:
192,192,145612,1,0,0:0:0:0:
448,192,145720,1,8,2:0:0:0:
64,192,145827,1,2,2:0:0:0:
320,192,145827,128,0,146041:0:0:0:0:
192,192,146041,1,2,2:0:0:0:
448,192,146041,1,0,0:0:0:0:
64,192,146255,1,8,2:0:0:0:
192,192,146255,128,0,146684:0:0:0:0:
320,192,146255,1,0,0:0:0:0:
320,192,146470,128,2,146684:2:0:0:0:
448,192,146470,1,0,0:0:0:0:
64,192,146684,128,0,146791:0:0:0:0:
192,192,146898,128,2,147005:2:0:0:0:
320,192,146898,1,0,0:0:0:0:
64,192,147112,1,8,2:0:0:0:
320,192,147112,128,0,147220:0:0:0:0:
448,192,147112,1,0,0:0:0:0:
448,192,147327,128,0,147434:0:0:0:0:
192,192,147434,1,8,2:0:0:0:
320,192,147541,1,2,2:0:0:0:
448,192,147541,1,0,0:0:0:0:
64,192,147755,1,2,2:0:0:0:
192,192,147755,1,0,0:0:0:0:
64,192,147970,1,8,2:0:0:0:
192,192,147970,1,0,0:0:0:0:
448,192,147970,1,0,0:0:0:0:
320,192,148184,128,2,148612:2:0:0:0:
448,192,148184,1,0,0:0:0:0:
64,192,148398,1,0,0:0:0:0:
192,192,148612,128,2,148720:2:0:0:0:
448,192,148612,1,0,0:0:0:0:
64,192,148827,1,8,2:0:0:0:
192,192,148827,128,0,149041:0:0:0:0:
320,192,148827,1,0,0:0:0:0:
448,192,149041,1,0,0:0:0:0:
320,192,149148,1,0,0:0:0:0:
192,192,149255,1,2,2:0:0:0:
448,192,149255,128,0,149470:0:0:0:0:
64,192,149470,1,2,2:0:0:0:
320,192,149470,1,0,0:0:0:0:
64,192,149684,128,8,150112:2:0:0:0:
192,192,149684,1,0,0:0:0:0:
448,192,149684,1,0,0:0:0:0:
320,192,149898,1,2,2:0:0:0:
448,192,149898,128,0,150112:0:0:0:0:
320,192,150112,128,0,150220:0:0:0:0:
64,192,150327,1,2,2:0:0:0:
192,192,150327,128,0,150434:0:0:0:0:
192,192,150541,1,8,2:0:0:0:
320,192,150541,1,0,0:0:0:0:
448,192,150541,128,0,150648:0:0:0:0:
64,192,150755,128,0,150862:0:0:0:0:
448,192,150862,1,8,2:0:0:0:
64,192,150970,1,2,2:0:0:0:
192,192,150970,1,0,0:0:0:0:
320,192,151184,1,2,2:0:0:0:
448,192,151184,1,0,0:0:0:0:
64,192,151398,1,8,2:0:0:0:
320,192,151398,1,0,0:0:0:0:
448,192,151398,1,0,0:0:0:0:
64,192,151612,1,2,2:0:0:0:
192,192,151612,1,4,2:0:0:0:
448,192,151612,128,0,152041:0:0:0:0:
64,192,152041,128,2,152148:2:0:0:0:
192,192,152041,1,0,0:0:0:0:
64,192,152255,128,8,152470:2:0:0:0:
320,192,152255,1,0,0:0:0:0:
448,192,152255,1,0,0:0:0:0:
448,192,152470,1,0,0:0:0:0:
320,192,152577,1,8,2:0:0:0:
64,192,152684,1,2,2:0:0:0:
192,192,152684,128,0,152898:0:0:0:0:
320,192,152898,1,2,2:0:0:0:
448,192,152898,1,0,0:0:0:0:
64,192,153112,128,8,153541:2:0:0:0:
192,192,153112,1,0,0:0:0:0:
448,192,153112,1,0,0:0:0:0:
192,192,153327,128,2,153541:2:0:0:0:
320,192,153327,1,0,0:0:0:0:
448,192,153541,128,0,153648:0:0:0:0:
192,192,153755,1,2,2:0:0:0:
320,192,153755,128,0,153862:0:0:0:0:
64,192,153970,1,8,2:0:0:0:
192,192,153970,128,0,154077:0:0:0:0:
448,192,153970,1,0,0:0:0:0:
64,192,154184,128,0,154291:0:0:0:0:
320,192,154291,1,8,2:0:0:0:
64,192,154398,1,2,2:0:0:0:
192,192,154398,1,0,0:0:0:0:
320,192,154612,1,2,2:0:0:0:
448,192,154612,128,0,154720:0:0:0:0:
64,192,154827,1,8,2:0:0:0:
320,192,154827,128,0,154934:0:0:0:0:
448,192,154827,1,0,0:0:0:0:
64,192,155041,1,2,2:0:0:0:
192,192,155041,128,4,155148:2:0:0:0:
320,192,155041,1,0,0:0:0:0:
64,192,155470,128,2,155577:2:0:0:0:
320,192,155470,1,0,0:0:0:0:
64,192,155684,1,8,2:0:0:0:
192,192,155684,128,0,155791:0:0:0:0:
448,192,155684,1,0,0:0:0:0:
320,192,155898,128,0,156005:0:0:0:0:
64,192,156005,1,8,2:0:0:0:
320,192,156112,1,2,2:0:0:0:
448,192,156112,1,0,0:0:0:0:
192,192,156327,128,2,156434:2:0:0:0:
320,192,156327,1,0,0:0:0:0:
64,192,156541,1,8,2:0:0:0:
320,192,156541,128,0,156648:0:0:0:0:
448,192,156541,1,0,0:0:0:0:
64,192,156755,1,8,2:0:0:0:
192,192,156755,1,4,2:0:0:0:
448,192,156755,128,0,156862:0:0:0:0:
192,192,156970,1,2,2:0:0:0:
320,192,156970,1,0,0:0:0:0:
320,192,157184,128,8,157291:2:0:0:0:
64,192,157291,1,8,2:0:0:0:
192,192,157398,128,2,157505:2:0:0:0:
448,192,157505,1,2,2:0:0:0:
64,192,157612,128,2,157720:2:0:0:0:
320,192,157827,1,8,2:0:0:0:
448,192,157827,1,0,0:0:0:0:
64,192,157934,1,8,2:0:0:0:
320,192,158041,1,2,2:0:0:0:
64,192,158148,1,2,2:0:0:0:
192,192,158255,1,2,2:0:0:0:
320,192,158362,1,2,2:0:0:0:
64,192,158470,128,2,158898:2:0:0:0:
192,192,158470,1,4,2:0:0:0:
448,192,158470,1,0,0:0:0:0:
320,192,158898,1,2,2:0:0:0:
448,192,158898,128,0,159112:0:0:0:0:
64,192,159112,128,8,159541:2:0:0:0:
192,192,159112,1,0,0:0:0:0:
320,192,159112,1,0,0:0:0:0:
192,192,159327,1,0,0:0:0:0:
320,192,159434,1,0,0:0:0:0:
192,192,159541,1,2,2:0:0:0:
448,192,159541,128,0,159970:0:0:0:0:
64,192,159755,1,2,2:0:0:0:
320,192,159755,1,0,0:0:0:0:
64,192,159970,128,8,160398:2:0:0:0:
192,192,159970,1,0,0:0:0:0:
320,192,159970,1,0,0:0:0:0:
192,192,160184,1,2,2:0:0:0:
448,192,160184,1,0,0:0:0:0:
320,192,160398,128,0,160612:0:0:0:0:
64,192,160612,1,2,2:0:0:0:
192,192,160612,128,0,160827:0:0:0:0:
64,192,160827,128,8,161041:2:0:0:0:
320,192,160827,1,0,0:0:0:0:
448,192,160827,1,0,0:0:0:0:
448,192,161041,128,0,161255:0:0:0:0:
192,192,161148,1,8,2:0:0:0:
320,192,161255,1,2,2:0:0:0:
192,192,161470,1,2,2:0:0:0:
448,192,161470,1,4,2:0:0:0:
64,192,161684,1,8,2:0:0:0:
192,192,161684,1,0,0:0:0:0:
448,192,161684,1,0,0:0:0:0:
64,192,161898,1,2,2:0:0:0:
320,192,161898,128,4,162327:2:0:0:0:
448,192,161898,1,0,0:0:0:0:
192,192,162327,1,2,2:0:0:0:
448,192,162327,128,0,162541:0:0:0:0:
64,192,162541,128,8,162970:2:0:0:0:
192,192,162541,1,0,0:0:0:0:
320,192,162541,1,0,0:0:0:0:
448,192,162755,1,0,0:0:0:0:
320,192,162862,1,8,2:0:0:0:
192,192,162970,128,2,163398:2:0:0:0:
320,192,163184,1,2,2:0:0:0:
448,192,163184,1,0,0:0:0:0:
64,192,163398,1,8,2:0:0:0:
320,192,163398,1,0,0:0:0:0:
448,192,163398,128,0,163827:0:0:0:0:
64,192,163612,1,2,2:0:0:0:
192,192,163612,1,0,0:0:0:0:
320,192,163827,128,0,164041:0:0:0:0:
64,192,164041,1,2,2:0:0:0:
192,192,164041,128,0,164255:0:0:0:0:
64,192,164255,128,8,164470:2:0:0:0:
320,192,164255,1,0,0:0:0:0:
448,192,164255,1,0,0:0:0:0:
448,192,164470,128,0,164684:0:0:0:0:
192,192,164577,1,8,2:0:0:0:
64,192,164684,1,6,2:0:0:0:
320,192,164791,1,0,0:0:0:0:
192,192,164898,1,2,2:0:0:0:
448,192,165005,1,8,2:0:0:0:
192,192,165112,1,2,2:0:0:0:
320,192,165220,1,8,2:0:0:0:
64,192,165327,1,2,2:0:0:0:
192,192,165327,1,4,2:0:0:0:
448,192,165327,128,0,165755:0:0:0:0:
192,192,165648,1,8,2:0:0:0:
64,192,165755,128,2,165970:2:0:0:0:
320,192,165755,1,0,0:0:0:0:
192,192,165970,1,8,2:0:0:0:
320,192,165970,1,0,0:0:0:0:
448,192,165970,128,0,166398:0:0:0:0:
64,192,166184,1,0,0:0:0:0:
192,192,166291,1,0,0:0:0:0:
64,192,166398,128,2,166827:2:0:0:0:
320,192,166398,1,0,0:0:0:0:
192,192,166612,1,2,2:0:0:0:
448,192,166612,1,0,0:0:0:0:
192,192,166827,1,8,2:0:0:0:
320,192,166827,1,0,0:0:0:0:
448,192,166827,128,0,167255:0:0:0:0:
64,192,167041,1,2,2:0:0:0:
320,192,167041,1,0,0:0:0:0:
192,192,167255,128,0,167470:0:0:0:0:
320,192,167470,128,2,167684:2:0:0:0:
448,192,167470,1,0,0:0:0:0:
64,192,167684,1,8,2:0:0:0:
192,192,167684,1,4,2:0:0:0:
448,192,167684,128,0,167898:0:0:0:0:
64,192,167898,128,0,168112:0:0:0:0:
192,192,168005,1,8,2:0:0:0:
320,192,168112,1,2,2:0:0:0:
64,192,168327,128,2,168434:2:0:0:0:
192,192,168327,1,0,0:0:0:0:
64,192,168541,1,8,2:0:0:0:
192,192,168541,128,0,168648:0:0:0:0:
448,192,168541,1,0,0:0:0:0:
192,192,168755,1,2,2:0:0:0:
320,192,168755,128,4,168862:2:0:0:0:
448,192,168755,1,0,0:0:0:0:
192,192,169184,128,2,169291:2:0:0:0:
320,192,169184,1,0,0:0:0:0:
64,192,169398,1,8,2:0:0:0:
320,192,169398,128,0,169505:0:0:0:0:
448,192,169398,1,0,0:0:0:0:
192,192,169612,1,2,2:0:0:0:
448,192,169612,128,0,169720:0:0:0:0:
64,192,169827,1,8,2:0:0:0:
192,192,169827,1,0,0:0:0:0:
320,192,169827,1,0,0:0:0:0:
320,192,170041,128,2,170148:2:0:0:0:
448,192,170041,1,0,0:0:0:0:
64,192,170255,1,8,2:0:0:0:
192,192,170255,128,0,170362:0:0:0:0:
448,192,170255,1,0,0:0:0:0:
64,192,170470,128,8,170577:2:0:0:0:
192,192,170470,1,4,2:0:0:0:
320,192,170470,1,0,0:0:0:0:
448,192,170684,1,2,2:0:0:0:
64,192,170898,1,2,2:0:0:0:
192,192,170898,1,0,0:0:0:0:
64,192,171112,1,8,2:0:0:0:
320,192,171112,1,0,0:0:0:0:
448,192,171112,1,0,0:0:0:0:
192,192,171327,128,8,171434:2:0:0:0:
320,192,171434,128,0,171541:0:0:0:0:
448,192,171541,128,8,171648:2:0:0:0:
192,192,171648,128,0,171755:0:0:0:0:
320,192,171755,128,8,171862:2:0:0:0:
64,192,171862,128,8,171970:2:0:0:0:
192,192,171970,128,8,172077:2:0:0:0:
320,192,172077,128,0,172184:0:0:0:0:
64,192,172184,1,2,2:0:0:0:
192,192,172184,128,4,173898:2:0:0:0:
448,192,172184,1,0,0:0:0:0:
448,192,172612,1,0,0:0:0:0:
64,192,172827,1,0,0:0:0:0:
320,192,172827,1,0,0:0:0:0:
448,192,173041,1,0,0:0:0:0:
64,192,173255,1,0,0:0:0:0:
448,192,173470,1,0,0:0:0:0:
64,192,173684,1,0,0:0:0:0:
320,192,173684,1,0,0:0:0:0:
448,192,173898,128,0,174970:0:0:0:0:
192,192,174327,1,0,0:0:0:0:
64,192,174541,1,0,0:0:0:0:
320,192,174541,1,0,0:0:0:0:
192,192,174755,1,0,0:0:0:0:
64,192,174970,128,0,175612:0:0:0:0:
448,192,175184,1,0,0:0:0:0:
192,192,175398,1,0,0:0:0:0:
448,192,175398,1,0,0:0:0:0:
320,192,175612,128,4,177327:2:0:0:0:
192,192,176041,1,0,0:0:0:0:
64,192,176255,1,0,0:0:0:0:
448,192,176255,1,0,0:0:0:0:
192,192,176470,1,0,0:0:0:0:
64,192,176684,1,0,0:0:0:0:
448,192,176898,1,0,0:0:0:0:
64,192,177112,1,0,0:0:0:0:
192,192,177112,1,0,0:0:0:0:
448,192,177327,128,0,178184:0:0:0:0:
64,192,177755,1,0,0:0:0:0:
192,192,177970,1,0,0:0:0:0:
320,192,177970,1,0,0:0:0:0:
64,192,178184,128,0,179041:0:0:0:0:
448,192,178398,1,0,0:0:0:0:
320,192,178612,1,0,0:0:0:0:
192,192,178827,1,0,0:0:0:0:
320,192,178827,1,0,0:0:0:0:
448,192,179041,128,0,179255:0:0:0:0:
64,192,179255,1,2,2:0:0:0:
192,192,179255,1,4,2:0:0:0:
320,192,179255,128,0,179470:0:0:0:0:
192,192,179470,128,0,179684:0:0:0:0:
64,192,179684,1,8,2:0:0:0:
320,192,179684,1,0,0:0:0:0:
448,192,179684,1,0,0:0:0:0:
192,192,179898,128,0,180005:0:0:0:0:
64,192,180112,1,2,2:0:0:0:
320,192,180112,128,0,180220:0:0:0:0:
192,192,180327,1,2,2:0:0:0:
448,192,180327,128,0,180434:0:0:0:0:
64,192,180541,1,8,2:0:0:0:
320,192,180541,128,0,180648:0:0:0:0:
448,192,180541,1,0,0:0:0:0:
192,192,180755,128,0,180862:0:0:0:0:
320,192,180970,1,2,2:0:0:0:
448,192,180970,128,0,181077:0:0:0:0:
64,192,181184,1,2,2:0:0:0:
320,192,181184,128,0,181291:0:0:0:0:
64,192,181398,1,8,2:0:0:0:
192,192,181398,128,0,181505:0:0:0:0:
448,192,181398,1,0,0:0:0:0:
192,192,181612,1,2,2:0:0:0:
320,192,181612,128,0,181720:0:0:0:0:
64,192,181827,1,2,2:0:0:0:
448,192,181827,128,0,182255:0:0:0:0:
192,192,182041,1,2,2:0:0:0:
320,192,182041,1,0,0:0:0:0:
64,192,182255,1,8,2:0:0:0:
192,192,182255,1,0,0:0:0:0:
320,192,182255,1,0,0:0:0:0:
64,192,182470,128,2,182898:2:0:0:0:
320,192,182470,1,0,0:0:0:0:
192,192,182684,1,8,2:0:0:0:
448,192,182684,1,4,2:0:0:0:
192,192,182898,1,2,2:0:0:0:
320,192,182898,128,0,183005:0:0:0:0:
64,192,183112,1,2,2:0:0:0:
192,192,183112,128,0,183220:0:0:0:0:
448,192,183112,1,0,0:0:0:0:
64,192,183327,128,2,183434:2:0:0:0:
320,192,183327,1,0,0:0:0:0:
192,192,183541,128,2,183648:2:0:0:0:
448,192,183541,1,0,0:0:0:0:
64,192,183755,1,2,2:0:0:0:
320,192,183755,128,0,183862:0:0:0:0:
64,192,183970,1,2,2:0:0:0:
192,192,183970,1,0,0:0:0:0:
448,192,183970,128,0,184077:0:0:0:0:
64,192,184184,128,8,184612:2:0:0:0:
320,192,184184,1,4,2:0:0:0:
448,192,184184,1,0,0:0:0:0:
192,192,184612,128,8,184720:2:0:0:0:
448,192,184612,1,0,0:0:0:0:
64,192,184827,1,8,2:0:0:0:
192,192,184827,1,0,0:0:0:0:
320,192,184827,128,0,184934:0:0:0:0:
448,192,185041,128,8,185148:2:0:0:0:
320,192,185148,128,0,185255:0:0:0:0:
192,192,185255,128,2,185362:2:0:0:0:
320,192,185362,128,2,185470:2:0:0:0:
64,192,185470,128,8,185577:2:0:0:0:
192,192,185577,128,8,185684:2:0:0:0:
320,192,185684,128,2,185791:2:0:0:0:
192,192,185791,128,2,185898:2:0:0:0:
64,192,185898,128,2,186327:2:0:0:0:
320,192,185898,128,4,186327:2:0:0:0:
448,192,185898,1,0,0:0:0:0:
192,192,186327,128,2,186541:2:0:0:0:
448,192,186327,1,0,0:0:0:0:
64,192,186541,1,8,2:0:0:0:
320,192,186541,128,4,186755:2:0:0:0:
448,192,186541,1,0,0:0:0:0:
448,192,186755,128,0,187184:0:0:0:0:
64,192,186862,1,0,0:0:0:0:
192,192,186970,1,2,2:0:0:0:
320,192,186970,1,0,0:0:0:0:
64,192,187184,1,2,2:0:0:0:
192,192,187184,1,0,0:0:0:0:
64,192,187398,1,8,2:0:0:0:
320,192,187398,128,0,187612:0:0:0:0:
448,192,187398,1,0,0:0:0:0:
64,192,187612,128,2,188041:2:0:0:0:
192,192,187612,1,0,0:0:0:0:
448,192,187827,1,0,0:0:0:0:
192,192,188041,1,2,2:0:0:0:
320,192,188041,128,0,188255:0:0:0:0:
64,192,188255,1,8,2:0:0:0:
192,192,188255,128,0,188470:0:0:0:0:
448,192,188255,1,0,0:0:0:0:
64,192,188470,128,0,188898:0:0:0:0:
448,192,188577,1,8,2:0:0:0:
192,192,188684,1,2,2:0:0:0:
320,192,188791,1,8,2:0:0:0:
192,192,188898,1,2,2:0:0:0:
448,192,188898,1,0,0:0:0:0:
64,192,189112,1,8,2:0:0:0:
192,192,189112,128,0,189327:0:0:0:0:
448,192,189112,1,0,0:0:0:0:
64,192,189327,1,2,2:0:0:0:
320,192,189327,128,4,189755:2:0:0:0:
448,192,189327,128,0,189755:0:0:0:0:
64,192,189755,128,2,189970:2:0:0:0:
192,192,189755,1,0,0:0:0:0:
192,192,189970,128,8,190184:2:0:0:0:
320,192,189970,1,0,0:0:0:0:
448,192,189970,1,0,0:0:0:0:
320,192,190184,128,0,190612:0:0:0:0:
64,192,190291,1,8,2:0:0:0:
448,192,190398,1,2,2:0:0:0:
64,192,190505,1,8,2:0:0:0:
192,192,190612,1,2,2:0:0:0:
448,192,190612,1,0,0:0:0:0:
64,192,190827,128,8,191041:2:0:0:0:
192,192,190827,1,0,0:0:0:0:
320,192,190827,1,0,0:0:0:0:
192,192,191041,1,2,2:0:0:0:
320,192,191041,128,4,191470:2:0:0:0:
448,192,191041,128,0,191470:0:0:0:0:
64,192,191470,1,2,2:0:0:0:
192,192,191470,128,0,191684:0:0:0:0:
64,192,191684,1,8,2:0:0:0:
320,192,191684,128,0,191898:0:0:0:0:
448,192,191684,1,0,0:0:0:0:
64,192,191898,128,2,192327:2:0:0:0:
192,192,191898,1,4,2:0:0:0:
448,192,191898,128,0,192327:0:0:0:0:
192,192,192327,1,2,2:0:0:0:
320,192,192327,128,0,192434:0:0:0:0:
64,192,192541,1,8,2:0:0:0:
192,192,192541,128,0,192648:0:0:0:0:
320,192,192541,1,0,0:0:0:0:
64,192,192755,128,2,192862:2:0:0:0:
448,192,192755,1,0,0:0:0:0:
320,192,192862,1,2,2:0:0:0:
64,192,192970,1,2,2:0:0:0:
192,192,192970,1,4,2:0:0:0:
448,192,192970,128,0,193291:0:0:0:0:
192,192,193184,128,2,193291:2:0:0:0:
320,192,193184,1,0,0:0:0:0:
64,192,193398,1,8,2:0:0:0:
320,192,193398,1,0,0:0:0:0:
448,192,193398,1,0,0:0:0:0:
64,192,193612,128,0,193827:0:0:0:0:
320,192,193827,1,2,2:0:0:0:
448,192,193827,128,0,194148:0:0:0:0:
64,192,194041,1,2,2:0:0:0:
192,192,194041,128,0,194148:0:0:0:0:
64,192,194255,128,8,194577:2:0:0:0:
320,192,194255,128,0,194362:0:0:0:0:
448,192,194255,1,0,0:0:0:0:
448,192,194470,128,0,194577:0:0:0:0:
64,192,194684,1,2,2:0:0:0:
192,192,194684,128,0,194791:0:0:0:0:
192,192,194898,1,2,2:0:0:0:
320,192,194898,128,0,195005:0:0:0:0:
64,192,195112,1,8,2:0:0:0:
320,192,195112,1,0,0:0:0:0:
448,192,195112,128,0,195220:0:0:0:0:
64,192,195327,128,0,195434:0:0:0:0:
448,192,195434,1,8,2:0:0:0:
64,192,195541,1,2,2:0:0:0:
192,192,195541,128,0,195970:0:0:0:0:
320,192,195755,1,2,2:0:0:0:
448,192,195755,1,0,0:0:0:0:
64,192,195970,1,8,2:0:0:0:
320,192,195970,1,0,0:0:0:0:
448,192,195970,1,0,0:0:0:0:
64,192,196184,1,8,2:0:0:0:
448,192,196184,128,0,196612:0:0:0:0:
320,192,196291,1,8,2:0:0:0:
64,192,196398,1,2,2:0:0:0:
192,192,196398,1,4,2:0:0:0:
192,192,196612,1,2,2:0:0:0:
320,192,196612,128,0,196827:0:0:0:0:
64,192,196827,1,8,2:0:0:0:
192,192,196827,128,0,197041:0:0:0:0:
448,192,196827,1,0,0:0:0:0:
64,192,197041,128,0,197255:0:0:0:0:
320,192,197148,1,8,2:0:0:0:
448,192,197148,1,0,0:0:0:0:
192,192,197255,128,2,197470:2:0:0:0:
64,192,197470,1,2,2:0:0:0:
320,192,197470,128,0,197684:0:0:0:0:
64,192,197684,128,8,197898:2:0:0:0:
448,192,197684,1,0,0:0:0:0:
192,192,197684,1,0,0:0:0:0:
320,192,197898,1,2,2:0:0:0:
448,192,197898,128,0,198327:0:0:0:0:
64,192,198112,1,8,2:0:0:0:
192,192,198112,1,4,2:0:0:0:
192,192,198327,1,2,2:0:0:0:
320,192,198327,128,0,198541:0:0:0:0:
64,192,198541,1,8,2:0:0:0:
192,192,198541,128,0,198755:0:0:0:0:
448,192,198541,1,0,0:0:0:0:
64,192,198755,128,2,198970:2:0:0:0:
320,192,198755,1,0,0:0:0:0:
192,192,198970,1,8,2:0:0:0:
320,192,198970,1,4,2:0:0:0:
448,192,198970,1,0,0:0:0:0:
64,192,199184,1,8,2:0:0:0:
192,192,199184,1,0,0:0:0:0:
448,192,199184,1,0,0:0:0:0:
64,192,199398,1,8,2:0:0:0:
192,192,199398,1,0,0:0:0:0:
448,192,199398,1,0,0:0:0:0:
320,192,199505,1,2,2:0:0:0:
64,192,199612,1,2,2:0:0:0:
192,192,199720,1,0,0:0:0:0:
64,192,199827,128,2,200041:2:0:0:0:
320,192,199827,1,4,2:0:0:0:
448,192,199827,128,0,200255:0:0:0:0:
64,192,200255,1,8,2:0:0:0:
192,192,200255,1,0,0:0:0:0:
320,192,200255,128,0,200470:0:0:0:0:
192,192,200470,128,2,200684:2:0:0:0:
448,192,200470,1,0,0:0:0:0:
64,192,200684,128,2,201112:2:0:0:0:
448,192,200684,128,0,200898:0:0:0:0:
192,192,200898,1,2,2:0:0:0:
320,192,200898,1,0,0:0:0:0:
192,192,201112,128,8,201327:2:0:0:0:
320,192,201112,1,0,0:0:0:0:
448,192,201112,1,0,0:0:0:0:
320,192,201327,128,0,201541:0:0:0:0:
192,192,201541,1,2,2:0:0:0:
448,192,201541,128,0,201862:0:0:0:0:
64,192,201755,1,2,2:0:0:0:
192,192,201755,128,0,201970:0:0:0:0:
64,192,201970,128,8,202291:2:0:0:0:
320,192,201970,1,0,0:0:0:0:
448,192,201970,1,0,0:0:0:0:
192,192,202184,1,2,2:0:0:0:
320,192,202184,128,0,202398:0:0:0:0:
64,192,202398,1,2,2:0:0:0:
448,192,202398,1,0,0:0:0:0:
64,192,202612,128,2,202827:2:0:0:0:
192,192,202612,1,0,0:0:0:0:
448,192,202612,1,0,0:0:0:0:
192,192,202827,128,8,203041:2:0:0:0:
320,192,202827,1,0,0:0:0:0:
448,192,202827,1,0,0:0:0:0:
64,192,203041,1,2,2:0:0:0:
320,192,203041,128,4,203255:2:0:0:0:
64,192,203255,1,2,2:0:0:0:
192,192,203255,1,4,2:0:0:0:
448,192,203255,128,0,203362:0:0:0:0:
192,192,203470,1,2,2:0:0:0:
448,192,203470,128,0,203684:0:0:0:0:
64,192,203684,1,8,2:0:0:0:
192,192,203684,1,0,0:0:0:0:
320,192,203898,1,2,2:0:0:0:
448,192,203898,128,0,204112:0:0:0:0:
192,192,204005,1,2,2:0:0:0:
64,192,204112,1,2,2:0:0:0:
320,192,204112,128,0,204434:0:0:0:0:
64,192,204327,1,2,2:0:0:0:
192,192,204327,1,0,0:0:0:0:
192,192,204541,128,8,204755:2:0:0:0:
320,192,204541,1,0,0:0:0:0:
448,192,204541,1,0,0:0:0:0:
64,192,204755,128,2,205291:2:0:0:0:
320,192,204755,1,4,2:0:0:0:
448,192,204755,1,0,0:0:0:0:
192,192,204970,128,2,205077:2:0:0:0:
320,192,204970,1,0,0:0:0:0:
320,192,205184,128,2,205291:2:0:0:0:
448,192,205184,1,0,0:0:0:0:
64,192,205398,1,2,2:0:0:0:
192,192,205398,1,0,0:0:0:0:
448,192,205398,128,0,205505:0:0:0:0:
192,192,205612,128,8,205720:2:0:0:0:
448,192,205720,1,8,2:0:0:0:
64,192,205827,128,2,205934:2:0:0:0:
320,192,205934,1,2,2:0:0:0:
448,192,206041,128,2,206148:2:0:0:0:
192,192,206148,1,0,0:0:0:0:
320,192,206255,128,8,206362:2:0:0:0:
64,192,206362,1,2,2:0:0:0:
192,192,206470,128,6,206577:2:0:0:0:
448,192,206470,1,0,0:0:0:0:
64,192,206684,128,0,206898:0:0:0:0:
192,192,207112,128,0,207220:0:0:0:0:
320,192,207327,128,0,207434:0:0:0:0:
448,192,207541,128,0,207755:0:0:0:0:
320,192,207970,128,0,208077:0:0:0:0:
192,192,208184,128,0,208291:0:0:0:0:
64,192,208398,128,0,208612:0:0:0:0:
192,192,208612,128,0,208827:0:0:0:0:
320,192,208827,128,0,209041:0:0:0:0:
448,192,209041,128,0,210970:0:0:0:0:
320,192,209684,128,0,210112:0:0:0:0:
64,192,210112,128,0,210327:0:0:0:0:
192,192,210327,128,0,210541:0:0:0:0:
320,192,210541,128,0,210755:0:0:0:0:
64,192,210755,128,0,210970:0:0:0:0:
192,192,210970,128,0,211184:0:0:0:0:
320,192,211184,128,0,211398:0:0:0:0:
448,192,211398,128,0,211612:0:0:0:0:
64,192,211612,128,0,211720:0:0:0:0:
192,192,211612,1,0,0:0:0:0:
192,192,211827,128,2,211934:2:0:0:0:
320,192,211827,1,4,2:0:0:0:
448,192,211827,1,0,0:0:0:0:
320,192,212041,128,0,212255:0:0:0:0:
192,192,212470,128,0,212577:0:0:0:0:
64,192,212684,1,8,2:0:0:0:
320,192,212684,128,4,213005:2:0:0:0:
448,192,212684,1,0,0:0:0:0:
192,192,213005,1,2,2:0:0:0:
64,192,213112,128,2,213220:2:0:0:0:
448,192,213112,1,0,0:0:0:0:
192,192,213327,1,2,2:0:0:0:
448,192,213327,128,0,214398:0:0:0:0:
64,192,213755,1,8,2:0:0:0:
192,192,213755,1,0,0:0:0:0:
64,192,213970,1,8,2:0:0:0:
192,192,213970,1,0,0:0:0:0:
64,192,214184,1,8,2:0:0:0:
192,192,214184,1,0,0:0:0:0:
64,192,214398,1,8,2:0:0:0:
192,192,214398,1,4,2:0:0:0:
320,192,214398,1,0,0:0:0:0:
