osu file format v14

[General]
AudioFilename: audio.mp3
AudioLeadIn: 0
PreviewTime: 115610
Countdown: 1
SampleSet: None
StackLeniency: 0.2
Mode: 0
LetterboxInBreaks: 0
WidescreenStoryboard: 0

[Editor]
DistanceSpacing: 1.2
BeatDivisor: 4
GridSize: 8
TimelineZoom: 1

[Metadata]
Title:Gas Gas Gas but...
TitleUnicode:Gas Gas Gas but...
Artist:Manuel
ArtistUnicode:Manuel
Creator:Daxxel
Version:Step On On It!
Source:
Tags:Woey
BeatmapID:2070583
BeatmapSetID:989839

[Difficulty]
HPDrainRate:6
CircleSize:4
OverallDifficulty:9
ApproachRate:9.6
SliderMultiplier:2.6
SliderTickRate:1

[Events]
//Background and Video events
0,0,"gasgsg.jpg",0,0
//Break Periods
//Storyboard Layer 0 (Background)
//Storyboard Layer 1 (Fail)
//Storyboard Layer 2 (Pass)
//Storyboard Layer 3 (Foreground)
//Storyboard Sound Samples

[TimingPoints]
2372,388.60103626943,6,1,0,30,1,0
4703,-100,6,1,0,60,0,0
8589,-80,6,1,0,60,0,0
24910,-400,6,1,0,60,0,0
25008,-400,6,1,0,5,0,0
25299,-399.999999999997,6,1,0,60,0,0
25396,-399.999999999997,6,1,0,5,0,0
28019,-100,6,1,0,60,0,0
39677,-200,6,1,0,60,0,0
39774,-200,6,1,0,5,0,0
41983,388.349514563107,6,1,0,60,1,0
46643,-133.333333333333,6,1,0,40,0,0
48973,-200,6,1,0,20,0,0
51303,-100,6,1,0,60,0,0
58487,-80,6,1,0,60,0,0
58876,-133.333333333333,6,1,0,60,0,0
59070,-200,6,1,0,60,0,0
59264,-133.333333333333,6,1,0,60,0,0
59652,-200,6,1,0,60,0,0
60641,388.475234703788,6,1,0,60,1,0
60641,-80,6,1,0,60,0,0
76956,-80,6,1,0,80,0,0
78122,-133.333333333333,6,1,0,60,0,0
79287,-100,6,1,0,60,0,0
96769,-66.6666666666667,6,1,0,60,0,0
97934,-100,6,1,0,60,0,0
116572,388.475234703788,6,1,0,80,1,1
116572,-80,6,1,0,80,0,1
121816,-66.6666666666667,6,1,0,80,0,1
122010,-80,6,1,0,80,0,1
122204,-66.6666666666667,6,1,0,80,0,1
122593,-80,6,1,0,80,0,1
122981,-66.6666666666667,6,1,0,80,0,1
123176,-80,6,1,0,80,0,1
123370,-66.6666666666667,6,1,0,80,0,1
123758,-80,6,1,0,80,0,1
140463,-66.6666666666667,6,1,0,80,0,1
140657,-80,6,1,0,80,0,1
140851,-66.6666666666667,6,1,0,80,0,1
141240,-80,6,1,0,80,0,1
141628,-66.6666666666667,6,1,0,80,0,1
141822,-80,6,1,0,80,0,1
142017,-66.6666666666667,6,1,0,80,0,1
142405,-80,6,1,0,80,0,1
151534,383.141762452107,6,1,0,80,1,1
151534,-100,6,1,0,80,0,1
153838,388.349514563107,6,1,0,80,1,1
153838,-80,6,1,0,80,0,0
171313,-133.333333333333,6,1,0,60,0,0
172478,-100,6,1,0,60,0,0
189954,-66.6666666666667,6,1,0,60,0,0
191119,-100,6,1,0,60,0,0
209760,-80,6,1,0,80,0,1
215003,-66.6666666666667,6,1,0,80,0,1
215197,-80,6,1,0,80,0,1
215391,-66.6666666666667,6,1,0,80,0,1
215779,-80,6,1,0,80,0,1
216168,-66.6666666666667,6,1,0,80,0,1
216362,-80,6,1,0,80,0,1
216556,-66.6666666666667,6,1,0,80,0,1
216944,-80,6,1,0,80,0,1
233643,-66.6666666666667,6,1,0,80,0,1
233838,-80,6,1,0,80,0,1
234032,-66.6666666666667,6,1,0,80,0,1
234420,-80,6,1,0,80,0,1
234808,-66.6666666666667,6,1,0,80,0,1
235003,-80,6,1,0,80,0,1
235197,-66.6666666666667,6,1,0,80,0,1
235585,-80,6,1,0,80,0,1
247041,-80,6,1,0,60,0,0
255197,-57.1428571428571,6,1,0,60,0,0
256362,-80,6,1,0,60,0,0
264517,-133.333333333333,6,1,0,60,0,0
265682,-80,6,1,0,80,0,0
283158,-133.333333333333,6,1,0,60,0,0
284323,388.349514563107,6,1,0,60,1,0
284323,-200,6,1,0,60,0,0
301798,-133.333333333333,6,1,0,60,0,0
302963,-80,6,1,0,60,0,0
310342,-133.333333333333,6,1,0,60,0,0
310731,-133.333333333333,6,1,0,60,0,0
312284,-80,6,1,0,60,0,0
323934,-66.6666666666667,6,1,0,90,0,1
361216,-66.6666666666667,6,1,0,80,0,0
367623,-50,6,1,0,100,0,0
367818,-66.6666666666667,6,1,0,80,0,0
368012,-50,6,1,0,100,0,0
370537,-66.6666666666667,6,1,0,80,0,0
375391,-66.6666666666667,6,1,0,100,0,0
386847,-66.6666666666667,6,1,0,80,0,0
396167,-80,6,1,0,80,0,0
397332,-133.333333333333,6,1,0,60,0,0
398498,-133.333333333333,6,1,0,30,0,0
400051,-133.333333333333,6,1,0,60,0,0
400925,-133.333333333333,6,1,0,5,0,0

[HitObjects]
110,67,2371,5,0,0:0:0:0:
160,48,2469,1,0,0:0:0:0:
214,48,2566,1,0,0:0:0:0:
263,67,2663,1,0,0:0:0:0:
317,131,2760,5,0,0:0:0:0:
279,116,2857,1,0,0:0:0:0:
239,116,2954,1,0,0:0:0:0:
202,131,3052,1,0,0:0:0:0:
317,131,3149,1,0,0:0:0:0:
279,116,3246,1,0,0:0:0:0:
239,116,3343,1,0,0:0:0:0:
202,131,3440,1,0,0:0:0:0:
167,173,3537,5,0,0:0:0:0:
192,163,3634,1,0,0:0:0:0:
218,163,3732,1,0,0:0:0:0:
242,173,3829,1,0,0:0:0:0:
277,245,3926,5,8,0:0:0:0:
204,239,4023,1,8,0:0:0:0:
145,282,4120,1,8,0:0:0:0:
72,278,4217,1,8,0:0:0:0:
277,245,4315,1,8,0:0:0:0:
204,239,4412,1,8,0:0:0:0:
145,282,4509,1,8,0:0:0:0:
72,278,4606,1,8,0:0:0:0:
13,321,4703,5,4,0:0:0:0:
112,217,4897,1,0,0:0:0:0:
29,208,5286,5,0,0:0:0:0:
29,208,5675,1,0,0:0:0:0:
157,144,5869,1,0,0:0:0:0:
82,107,6258,5,0,0:0:0:0:
224,90,6452,1,0,0:0:0:0:
82,107,6646,1,0,0:0:0:0:
224,90,6840,1,0,0:0:0:0:
247,101,7229,1,0,0:0:0:0:
270,112,7618,1,0,0:0:0:0:
270,112,8006,1,0,0:0:0:0:
405,104,8201,6,0,B|414:147|392:185|392:185|411:211|411:211|386:239|407:285,1,195,12|0,0:0|0:0,0:0:0:0:
436,305,8589,2,0,B|407:239|432:211|432:211|413:185|413:185|435:147|419:76,1,243.75,12|0,0:0|0:0,0:0:0:0:
436,305,8978,2,0,B|407:239|432:211|432:211|413:185|413:185|435:147|419:76,1,243.75,12|0,0:0|0:0,0:0:0:0:
317,50,9366,5,0,0:0:0:0:
177,83,9561,1,0,0:0:0:0:
211,7,9949,5,0,0:0:0:0:
211,7,10338,1,0,0:0:0:0:
91,86,10532,1,0,0:0:0:0:
96,2,10921,5,0,0:0:0:0:
10,118,11115,1,0,0:0:0:0:
96,2,11309,1,0,0:0:0:0:
10,118,11504,1,0,0:0:0:0:
180,39,11698,5,0,0:0:0:0:
186,34,11795,1,0,0:0:0:0:
193,31,11892,1,0,0:0:0:0:
201,31,11989,1,0,0:0:0:0:
209,29,12087,5,0,0:0:0:0:
225,30,12184,1,0,0:0:0:0:
239,36,12281,1,0,0:0:0:0:
252,45,12378,1,0,0:0:0:0:
209,29,12475,1,0,0:0:0:0:
225,30,12572,1,0,0:0:0:0:
239,36,12669,1,0,0:0:0:0:
252,45,12767,1,0,0:0:0:0:
260,58,12864,5,0,0:0:0:0:
260,90,12961,1,0,0:0:0:0:
247,119,13058,1,0,0:0:0:0:
221,139,13155,1,0,0:0:0:0:
189,144,13252,5,0,0:0:0:0:
217,103,13349,1,0,0:0:0:0:
260,90,13447,1,0,0:0:0:0:
306,103,13544,1,0,0:0:0:0:
189,144,13641,1,0,0:0:0:0:
217,103,13738,1,0,0:0:0:0:
260,90,13835,1,0,0:0:0:0:
306,103,13932,1,0,0:0:0:0:
335,142,14030,5,0,0:0:0:0:
153,237,14224,2,0,B|116:218|116:218|93:176,1,81.25,8|0,0:0|0:0,0:0:0:0:
168,83,14418,5,0,0:0:0:0:
246,272,14612,2,0,B|286:281|286:281|331:263,1,81.25,8|0,0:0|0:0,0:0:0:0:
168,83,14807,1,0,0:0:0:0:
246,272,15001,2,0,B|286:281|286:281|331:263,1,81.25,8|0,0:0|0:0,0:0:0:0:
350,132,15195,5,0,0:0:0:0:
128,239,15390,2,0,B|99:208|99:208|92:161,1,81.25,8|0,0:0|0:0,0:0:0:0:
150,61,15584,5,0,0:0:0:0:
257,287,15778,2,0,B|298:281|298:281|334:250,1,81.25,8|0,0:0|0:0,0:0:0:0:
150,61,15973,1,0,0:0:0:0:
257,287,16167,2,0,B|298:281|298:281|334:250,1,81.25,8|0,0:0|0:0,0:0:0:0:
453,111,16361,5,0,0:0:0:0:
461,291,16555,2,0,L|467:380,1,81.25,8|0,0:0|0:0,0:0:0:0:
312,82,16750,5,0,0:0:0:0:
242,248,16944,2,0,L|205:329,1,81.25,8|0,0:0|0:0,0:0:0:0:
312,82,17138,1,0,0:0:0:0:
242,248,17333,2,0,L|205:329,1,81.25,8|0,0:0|0:0,0:0:0:0:
469,116,17527,5,0,0:0:0:0:
477,296,17721,2,0,L|483:385,1,81.25,8|0,0:0|0:0,0:0:0:0:
295,77,17916,5,0,0:0:0:0:
225,243,18110,2,0,L|188:324,1,81.25,8|0,0:0|0:0,0:0:0:0:
295,77,18304,1,0,0:0:0:0:
225,243,18498,2,0,L|188:324,1,81.25,8|0,0:0|0:0,0:0:0:0:
52,330,18693,5,0,0:0:0:0:
110,67,18887,2,0,P|63:102|53:139,1,81.25,8|0,0:0|0:0,0:0:0:0:
123,265,19081,5,0,0:0:0:0:
188,53,19276,2,0,P|244:69|266:101,1,81.25,8|0,0:0|0:0,0:0:0:0:
123,265,19470,1,0,0:0:0:0:
188,53,19664,2,0,P|244:69|266:101,1,81.25,8|0,0:0|0:0,0:0:0:0:
333,281,19859,5,0,0:0:0:0:
258,85,20053,2,0,P|263:143|242:175,1,81.25,8|0,0:0|0:0,0:0:0:0:
182,315,20247,5,0,0:0:0:0:
55,121,20441,2,0,P|69:177|100:200,1,81.25,8|0,0:0|0:0,0:0:0:0:
182,315,20636,1,0,0:0:0:0:
55,121,20830,2,0,P|69:177|100:200,1,81.25,8|0,0:0|0:0,0:0:0:0:
254,259,21024,5,0,0:0:0:0:
412,28,21219,2,0,L|399:125,1,81.25,8|0,0:0|0:0,0:0:0:0:
339,254,21413,5,0,0:0:0:0:
486,86,21607,2,0,L|473:183,1,81.25,8|0,0:0|0:0,0:0:0:0:
339,254,21802,1,0,0:0:0:0:
486,86,21996,2,0,L|473:183,1,81.25,8|0,0:0|0:0,0:0:0:0:
436,363,22190,5,0,0:0:0:0:
391,343,22287,1,0,0:0:0:0:
359,306,22384,1,8,0:0:0:0:
348,258,22482,1,0,0:0:0:0:
358,210,22579,5,0,0:0:0:0:
369,273,22676,1,0,0:0:0:0:
330,326,22773,1,8,0:0:0:0:
266,337,22870,1,0,0:0:0:0:
358,210,22967,1,0,0:0:0:0:
369,273,23065,1,0,0:0:0:0:
330,326,23162,1,8,0:0:0:0:
266,337,23259,1,0,0:0:0:0:
211,301,23356,5,4,0:0:0:0:
509,117,23550,1,4,0:0:0:0:
299,13,23745,1,4,0:0:0:0:
354,367,23939,5,4,0:0:0:0:
299,13,24133,1,4,0:0:0:0:
354,367,24327,1,4,0:0:0:0:
152,34,24910,6,0,P|114:27|86:33,1,65
152,34,25299,2,0,P|72:43|61:147,1,195
47,79,26465,2,0,P|49:126|149:169,1,162.5
111,175,27631,2,0,P|127:175|142:171,1,32.5
311,67,28019,5,4,0:0:0:0:
131,306,28213,1,4,0:0:0:0:
449,127,28408,1,4,0:0:0:0:
8,253,28602,5,4,0:0:0:0:
449,127,28796,1,4,0:0:0:0:
8,253,28991,1,4,0:0:0:0:
395,35,29574,6,0,L|374:302,1,260,8|0,0:0|0:0,0:0:0:0:
395,35,29962,2,0,L|374:302,1,260,8|0,0:0|0:0,0:0:0:0:
171,77,30739,2,0,L|192:344,1,260,8|0,0:0|0:0,0:0:0:0:
171,77,31128,2,0,L|192:344,1,260,8|0,0:0|0:0,0:0:0:0:
395,35,31905,2,0,L|378:247,1,195,8|0,0:0|0:0,0:0:0:0:
395,35,32294,2,0,L|378:247,1,195,8|0,0:0|0:0,0:0:0:0:
374,294,32682,5,4,0:0:0:0:
301,143,32877,1,0,0:0:0:0:
323,360,33071,2,0,P|401:375|454:329,1,130,8|0,0:0|0:0,0:0:0:0:
230,195,33460,5,4,0:0:0:0:
445,242,33654,1,0,0:0:0:0:
230,195,33848,1,8,0:0:0:0:
445,242,34042,2,0,L|466:166,1,65
230,195,34237,1,4,0:0:0:0:
445,242,34431,1,0,0:0:0:0:
230,195,34625,1,8,0:0:0:0:
445,242,34820,2,0,L|466:166,1,65
500,29,35014,5,4,0:0:0:0:
324,109,35208,2,0,P|340:194|386:217,1,130,0|8,0:0|0:0,0:0:0:0:
425,8,35597,5,0,0:0:0:0:
381,217,35791,1,0,0:0:0:0:
425,8,35985,1,0,0:0:0:0:
238,123,36180,2,0,P|250:204|283:251,1,130,4|0,0:0|0:0,0:0:0:0:
350,29,36568,5,8,0:0:0:0:
161,174,36763,1,0,0:0:0:0:
350,29,36957,1,8,0:0:0:0:
161,174,37151,1,0,0:0:0:0:
448,144,37346,5,4,0:0:0:0:
425,325,37540,1,0,0:0:0:0:
504,85,37734,2,0,P|430:64|373:114,1,130,8|0,0:0|0:0,0:0:0:0:
504,85,38123,2,0,P|430:64|373:114,1,130,8|0,0:0|0:0,0:0:0:0:
320,285,38511,5,4,0:0:0:0:
112,330,38706,1,0,0:0:0:0:
320,285,38900,1,4,0:0:0:0:
112,330,39094,2,0,L|91:249,1,65
320,285,39289,1,4,0:0:0:0:
112,330,39483,2,0,L|91:249,1,65
55,96,39677,6,0,B|42:53|59:7|110:-3|110:-3|102:30|119:76|119:76|143:28|175:35,1,260,4|0,0:0|0:0,0:0:0:0:
110,0,40454,2,0,B|110:-3|102:30|119:76|119:76|134:48|150:38|150:38,1,130,4|0,0:0|0:0,0:0:0:0:
150,38,40843,2,0,B|208:9|266:31|288:76|285:135|240:171,1,227.5,4|0,0:0|0:0,0:0:0:0:
266,67,41620,2,0,P|273:114|253:158,1,97.5
135,197,41983,5,4,0:0:0:0:
380,110,42177,1,0,0:0:0:0:
211,241,42371,1,8,0:0:0:0:
466,288,42565,1,0,0:0:0:0:
211,241,42759,1,8,0:0:0:0:
466,288,42953,1,0,0:0:0:0:
155,313,43148,2,0,P|122:255|139:190,1,130
387,257,43536,2,0,P|377:319|328:360,1,130,8|0,0:0|0:0,0:0:0:0:
387,257,43924,2,0,P|377:319|328:360,1,130,8|0,0:0|0:0,0:0:0:0:
210,152,44313,5,0,0:0:0:0:
488,98,44507,2,0,B|480:183|480:183|435:223,1,130,0|8,0:0|0:0,0:0:0:0:
277,67,44895,2,0,P|319:38|410:55,1,130
446,212,45089,1,8,0:0:0:0:
277,67,45283,2,0,P|319:38|410:55,6,130,0|0|0|8|0|0|0,0:0|0:0|0:0|0:0|0:0|0:0|0:0,0:0:0:0:
272,184,46643,5,0,0:0:0:0:
63,143,46837,2,0,B|69:206|69:206|92:245,1,97.50000371933,0|8,0:0|0:0,0:0:0:0:
221,120,47225,2,0,P|186:103|115:101,1,97.50000371933
86,235,47419,1,8,0:0:0:0:
221,120,47614,2,0,P|186:103|115:101,6,97.50000371933,0|0|0|8|0|0|0,0:0|0:0|0:0|0:0|0:0|0:0|0:0,0:0:0:0:
250,212,48973,5,0,0:0:0:0:
389,184,49167,2,0,B|385:226|385:226|378:260,1,65,0|8,0:0|0:0,0:0:0:0:
274,136,49555,2,0,P|304:127|345:122,1,65
380,248,49749,1,8,0:0:0:0:
274,136,49944,2,0,P|304:127|345:122,6,65,0|0|0|8|0|0|0,0:0|0:0|0:0|0:0|0:0|0:0|0:0,0:0:0:0:
139,272,51303,6,0,B|131:233|131:233|135:197,1,65,8|0,0:0|0:0,0:0:0:0:
239,37,51497,5,0,0:0:0:0:
239,37,51594,1,0,0:0:0:0:
239,37,51691,2,0,B|233:61|233:61|212:95,1,65,8|0,0:0|0:0,0:0:0:0:
88,263,51885,5,0,0:0:0:0:
88,263,51983,1,0,0:0:0:0:
239,37,52080,2,0,B|233:61|233:61|212:95,1,65,8|0,0:0|0:0,0:0:0:0:
88,263,52274,1,0,0:0:0:0:
88,263,52371,1,0,0:0:0:0:
88,263,52468,2,0,B|70:218|70:218|71:201,1,65,8|0,0:0|0:0,0:0:0:0:
280,54,52662,5,0,0:0:0:0:
312,57,52759,1,0,0:0:0:0:
343,66,52856,1,0,0:0:0:0:
371,81,52953,1,0,0:0:0:0:
392,104,53050,2,0,L|377:184,1,65,8|0,0:0|0:0,0:0:0:0:
343,66,53245,1,0,0:0:0:0:
371,81,53342,1,0,0:0:0:0:
392,104,53439,2,0,L|377:184,1,65,8|0,0:0|0:0,0:0:0:0:
331,347,53633,5,0,0:0:0:0:
331,347,53730,1,0,0:0:0:0:
331,347,53827,2,0,P|356:300|352:271,1,65,8|0,0:0|0:0,0:0:0:0:
248,160,54021,6,0,B|184:152|144:192|136:192|128:192|87:261|21:268|21:268|46:270|75:274,1,260,8|0,0:0|0:0,0:0:0:0:
248,160,54410,2,0,B|184:152|144:192|136:192|128:192|87:261|21:268|21:268|87:278|121:257|121:257|150:240|200:236|223:269|222:323|171:332,1,520,8|0,0:0|0:0,0:0:0:0:
36,348,55381,2,0,P|94:348|139:332,1,65
186,326,55575,1,0,0:0:0:0:
36,348,55769,2,0,P|94:348|139:332,1,65
285,262,55963,6,0,P|330:252|374:255,1,65,8|0,0:0|0:0,0:0:0:0:
485,328,56157,5,0,0:0:0:0:
496,297,56254,1,0,0:0:0:0:
498,264,56351,2,0,P|494:222|484:194,1,65,8|0,0:0|0:0,0:0:0:0:
313,89,56546,2,0,P|337:54|360:35,1,65
498,264,56740,2,0,P|494:222|484:194,1,65,8|0,0:0|0:0,0:0:0:0:
313,89,56934,2,0,P|337:54|360:35,1,65
398,215,57128,5,0,0:0:0:0:
370,231,57225,1,0,0:0:0:0:
337,235,57322,2,0,P|299:233|260:221,1,65,8|0,0:0|0:0,0:0:0:0:
169,134,57516,1,0,0:0:0:0:
137,123,57614,1,0,0:0:0:0:
104,119,57711,6,0,P|80:142|63:169,1,65,8|0,0:0|0:0,0:0:0:0:
169,134,57905,1,0,0:0:0:0:
137,123,58002,1,0,0:0:0:0:
104,120,58099,2,0,P|56:202|92:296,1,195,8|0,0:0|0:0,0:0:0:0:
185,269,58487,6,0,B|168:172|168:172|179:246|159:287|159:287|175:322,1,243.75
266,289,58876,6,0,B|252:227|252:227|255:195|255:195,1,48.750001859665
160,283,59070,2,0,B|159:287|159:287|170:312,1,32.5
266,289,59264,2,0,B|252:227|252:227|255:195|255:195|240:137,1,146.250005578995
161,175,59652,6,0,B|154:169|148:174|148:174|143:188|138:175|138:175|136:168|128:175|128:175|120:186|114:175|114:175|112:168|103:175|103:175|99:185|96:175|96:175|91:168|87:175|87:175|79:186|75:175|75:175|72:168|64:176|64:176|64:184|51:177|51:177|48:164|42:181,1,162.5
112,172,60235,2,0,B|112:168|103:175|103:175|99:185|96:175|96:175|91:168|87:175|87:175|79:186|75:175|75:175|72:168|64:176|64:176|64:184|51:177|51:177|48:164|43:176,1,97.5
85,85,60623,5,0,0:0:0:0:
178,58,60738,1,0,0:0:0:0:
258,111,60835,1,8,0:0:0:0:
268,207,60932,1,0,0:0:0:0:
214,287,61029,2,0,P|155:277|121:237,1,81.25
346,150,61223,5,8,0:0:0:0:
429,188,61320,2,0,P|392:234|340:244,1,81.25
214,287,61417,2,0,P|155:277|121:237,1,81.25
346,150,61612,1,8,0:0:0:0:
429,188,61709,2,0,P|392:234|340:244,1,81.25
367,53,61903,2,0,P|421:30|472:48,1,81.25,0|8,0:0|0:0,0:0:0:0:
238,206,62097,1,0,0:0:0:0:
200,116,62194,2,0,P|207:57|248:22,1,81.25
465,114,62389,5,8,0:0:0:0:
434,207,62486,2,0,L|350:194,1,81.25
200,116,62583,2,0,P|207:57|248:22,1,81.25
465,114,62777,1,8,0:0:0:0:
434,207,62874,2,0,L|350:194,1,81.25
137,164,63068,5,0,0:0:0:0:
168,257,63166,2,0,L|252:244,1,81.25,8|0,0:0|0:0,0:0:0:0:
465,214,63360,5,0,0:0:0:0:
434,307,63457,2,0,L|350:294,1,81.25,0|8,0:0|0:0,0:0:0:0:
163,354,63651,5,0,0:0:0:0:
465,214,63748,1,0,0:0:0:0:
434,307,63845,2,0,L|350:294,1,81.25,0|8,0:0|0:0,0:0:0:0:
163,354,64040,1,0,0:0:0:0:
76,309,64137,2,0,B|64:252|64:252|76:225,1,81.25
264,312,64331,5,8,0:0:0:0:
177,267,64428,2,0,B|165:210|165:210|177:183,1,81.25
366,168,64622,5,0,0:0:0:0:
349,264,64719,1,8,0:0:0:0:
264,312,64817,1,0,0:0:0:0:
174,188,64914,1,0,0:0:0:0:
366,168,65011,1,0,0:0:0:0:
349,264,65108,1,8,0:0:0:0:
264,312,65205,1,0,0:0:0:0:
177,267,65302,5,0,0:0:0:0:
262,219,65399,1,0,0:0:0:0:
279,123,65496,1,8,0:0:0:0:
216,47,65594,1,0,0:0:0:0:
119,47,65691,2,0,P|96:96|100:142,1,81.25
353,185,65885,5,8,0:0:0:0:
368,89,65982,2,0,P|339:48|291:35,1,81.25
119,47,66079,2,0,P|96:96|100:142,1,81.25
353,185,66273,1,8,0:0:0:0:
368,89,66371,2,0,P|339:48|291:35,1,81.25
428,245,66565,6,0,P|478:240|513:205,1,81.25,0|8,0:0|0:0,0:0:0:0:
262,219,66759,1,0,0:0:0:0:
174,260,66856,2,0,P|178:310|213:345,1,81.25
336,278,67050,1,8,0:0:0:0:
357,234,67147,1,0,0:0:0:0:
174,260,67245,2,0,P|178:310|213:345,1,81.25
336,278,67439,1,8,0:0:0:0:
357,234,67536,1,0,0:0:0:0:
353,185,67633,5,0,0:0:0:0:
347,136,67730,2,0,B|354:83|354:83|375:48,1,81.25,0|8,0:0|0:0,0:0:0:0:
262,219,67924,5,0,0:0:0:0:
235,260,68022,2,0,B|192:300|192:300|156:309,1,81.25
45,119,68216,5,8,0:0:0:0:
105,93,68313,1,0,0:0:0:0:
235,260,68410,2,0,B|192:300|192:300|156:309,1,81.25
45,119,68604,1,8,0:0:0:0:
105,93,68701,1,0,0:0:0:0:
168,108,68798,2,0,P|199:149|197:199,1,81.25
98,291,68993,5,8,0:0:0:0:
79,231,69090,2,0,P|102:184|160:171,1,81.25
361,230,69284,5,0,0:0:0:0:
337,323,69381,1,8,0:0:0:0:
251,370,69478,1,0,0:0:0:0:
126,171,69575,1,0,0:0:0:0:
361,230,69673,1,0,0:0:0:0:
337,323,69770,1,8,0:0:0:0:
251,370,69867,1,0,0:0:0:0:
156,346,69964,5,0,0:0:0:0:
231,283,70061,1,0,0:0:0:0:
327,271,70158,1,8,0:0:0:0:
421,296,70255,1,0,0:0:0:0:
493,360,70352,2,0,P|438:386|390:378,1,81.25
395,202,70547,5,8,0:0:0:0:
481,157,70644,2,0,L|461:255,1,81.25
493,360,70741,2,0,P|438:386|390:378,1,81.25
395,202,70935,1,8,0:0:0:0:
481,157,71032,2,0,L|461:255,1,81.25
239,101,71226,6,0,L|223:22,1,81.25,0|8,0:0|0:0,0:0:0:0:
395,112,71421,1,0,0:0:0:0:
373,205,71518,2,0,L|353:303,1,81.25
94,211,71712,5,8,0:0:0:0:
74,115,71809,2,0,P|96:67|145:36,1,81.25
373,205,71906,2,0,L|353:303,1,81.25
94,211,72101,1,8,0:0:0:0:
74,115,72198,2,0,P|96:67|145:36,1,81.25
247,149,72392,5,0,0:0:0:0:
172,214,72489,2,0,P|119:218|68:192,1,81.25,8|0,0:0|0:0,0:0:0:0:
116,47,72683,5,0,0:0:0:0:
210,79,72780,2,0,P|240:122|242:179,1,81.25,0|8,0:0|0:0,0:0:0:0:
280,346,72975,1,0,0:0:0:0:
116,47,73072,1,0,0:0:0:0:
210,79,73169,2,0,P|240:122|242:179,1,81.25,0|8,0:0|0:0,0:0:0:0:
280,346,73363,1,0,0:0:0:0:
382,287,73460,2,0,B|420:264|420:264|374:252,1,81.25
252,230,73654,5,8,0:0:0:0:
150,289,73752,2,0,B|112:312|112:312|158:324,1,81.25
327,194,73946,1,0,0:0:0:0:
246,149,74043,1,8,0:0:0:0:
173,215,74140,1,0,0:0:0:0:
147,321,74237,1,0,0:0:0:0:
327,194,74334,1,0,0:0:0:0:
246,149,74431,1,8,0:0:0:0:
173,215,74528,1,0,0:0:0:0:
218,300,74626,5,0,0:0:0:0:
252,230,74723,1,0,0:0:0:0:
246,149,74820,1,8,0:0:0:0:
202,80,74917,1,0,0:0:0:0:
125,52,75014,2,0,L|35:66,1,81.25
319,185,75208,2,0,L|399:172,1,81.25,8|0,0:0|0:0,0:0:0:0:
125,52,75403,2,0,L|35:66,1,81.25
319,185,75597,2,0,L|399:172,1,81.25,8|0,0:0|0:0,0:0:0:0:
125,318,75791,5,0,0:0:0:0:
161,351,75888,1,0,0:0:0:0:
214,370,75985,1,8,0:0:0:0:
278,360,76082,1,0,0:0:0:0:
338,319,76180,5,0,0:0:0:0:
299,257,76277,1,0,0:0:0:0:
362,220,76374,1,8,0:0:0:0:
351,147,76471,1,0,0:0:0:0:
338,319,76568,1,0,0:0:0:0:
299,257,76665,1,0,0:0:0:0:
362,220,76762,1,8,0:0:0:0:
351,147,76859,1,0,0:0:0:0:
259,120,76956,6,0,B|201:126|182:171|182:171|160:221|121:285|52:283|-4:248|1:168|74:150|134:173|165:212|165:212|188:299|261:303,1,568.75,12|0,0:0|0:0,0:0:0:0:
50,191,77733,2,0,B|86:167|131:177|165:212|165:212|188:289|233:298,1,243.75
337,242,78122,2,0,B|367:227|403:225|403:225|432:224|451:246|443:270|412:278|400:268|394:226|394:226|418:193|430:118|376:71,1,341.250013017655,12|0,0:0|0:0,0:0:0:0:
396,222,78899,2,0,B|419:190|422:121|389:85,1,146.250005578995
313,40,79287,6,0,P|267:44|235:59,1,65,4|0,0:0|0:0,0:0:0:0:
76,164,79482,5,8,0:0:0:0:
69,125,79579,1,0,0:0:0:0:
62,86,79676,2,0,L|47:8,1,65
187,114,79870,5,8,0:0:0:0:
194,153,79967,1,0,0:0:0:0:
62,86,80064,2,0,L|47:8,1,65
187,114,80258,1,8,0:0:0:0:
194,153,80356,1,0,0:0:0:0:
201,192,80453,2,0,L|213:255,1,65
329,297,80647,2,0,L|316:233,1,65,8|0,0:0|0:0,0:0:0:0:
444,338,80841,2,0,L|431:274,1,65
246,318,81035,5,8,0:0:0:0:
246,318,81133,1,0,0:0:0:0:
444,338,81230,2,0,L|431:274,1,65
246,318,81424,1,8,0:0:0:0:
246,318,81521,1,0,0:0:0:0:
246,318,81618,6,0,P|209:327|170:324,1,65
294,165,81812,2,0,P|267:137|250:102,1,65,8|0,0:0|0:0,0:0:0:0:
507,65,82007,2,0,P|490:93|467:116,1,65
234,215,82201,2,0,P|207:187|190:152,1,65,8|0,0:0|0:0,0:0:0:0:
507,65,82395,2,0,P|490:93|467:116,1,65
234,215,82589,2,0,P|207:187|190:152,1,65,8|0,0:0|0:0,0:0:0:0:
346,30,82784,2,0,L|327:108,1,65
93,222,82978,2,0,P|103:185|125:153,1,65,8|0,0:0|0:0,0:0:0:0:
372,177,83172,2,0,L|353:255,1,65
190,92,83366,6,0,P|252:21|325:20,1,130,8|0,0:0|0:0,0:0:0:0:
372,177,83561,2,0,L|353:255,1,65
190,92,83755,2,0,P|252:21|356:37,1,195,8|0,0:0|0:0,0:0:0:0:
413,144,84143,2,0,P|368:143|347:134,1,65,8|0,0:0|0:0,0:0:0:0:
340,219,84337,2,0,P|298:202|281:187,1,65
106,41,84532,6,0,L|116:170,1,130,8|0,0:0|0:0,0:0:0:0:
340,219,84726,2,0,P|298:202|281:187,1,65
106,41,84920,2,0,L|122:243,1,195,8|0,0:0|0:0,0:0:0:0:
237,369,85309,2,0,L|229:268,1,65,8|0,0:0|0:0,0:0:0:0:
39,208,85503,1,0,0:0:0:0:
207,56,85697,5,8,0:0:0:0:
244,45,85794,1,0,0:0:0:0:
39,208,85891,1,0,0:0:0:0:
207,56,86086,1,8,0:0:0:0:
244,45,86183,1,0,0:0:0:0:
282,45,86280,2,0,P|327:77|342:107,1,65
291,223,86474,5,8,0:0:0:0:
323,272,86571,1,0,0:0:0:0:
380,280,86668,1,0,0:0:0:0:
427,246,86765,1,0,0:0:0:0:
435,187,86863,2,0,P|422:143|396:116,1,65,8|0,0:0|0:0,0:0:0:0:
380,280,87057,1,0,0:0:0:0:
427,246,87154,1,0,0:0:0:0:
435,187,87251,2,0,P|422:143|396:116,1,65,8|0,0:0|0:0,0:0:0:0:
231,151,87445,5,0,0:0:0:0:
217,207,87542,1,0,0:0:0:0:
223,264,87640,2,0,P|239:307|265:338,1,65,8|0,0:0|0:0,0:0:0:0:
69,197,87834,5,0,0:0:0:0:
109,238,87931,1,0,0:0:0:0:
132,290,88028,2,0,P|139:335|132:375,1,65,8|0,0:0|0:0,0:0:0:0:
69,197,88222,1,0,0:0:0:0:
109,238,88319,1,0,0:0:0:0:
132,290,88416,2,0,P|139:335|132:375,1,65,8|0,0:0|0:0,0:0:0:0:
16,258,88611,6,0,P|-5:230|-8:177,1,65
74,57,88805,5,8,0:0:0:0:
112,52,88902,1,0,0:0:0:0:
150,49,88999,2,0,P|184:56|220:95,1,65
311,218,89193,5,8,0:0:0:0:
349,223,89291,1,0,0:0:0:0:
150,49,89388,2,0,P|184:56|220:95,1,65
311,218,89582,1,8,0:0:0:0:
349,223,89679,1,0,0:0:0:0:
387,226,89776,2,0,P|421:218|457:179,1,65
239,176,89970,2,0,P|228:209|244:260,1,65,8|0,0:0|0:0,0:0:0:0:
102,166,90165,2,0,P|91:199|107:250,1,65
154,345,90359,2,0,P|164:311|148:260,1,65,8|0,0:0|0:0,0:0:0:0:
102,166,90553,2,0,P|91:199|107:250,1,65
154,345,90747,2,0,P|164:311|148:260,1,65,8|0,0:0|0:0,0:0:0:0:
172,115,90942,6,0,L|266:90,1,65
424,156,91136,2,0,L|330:131,1,65,8|0,0:0|0:0,0:0:0:0:
98,88,91330,2,0,P|128:48|168:32,1,65
349,214,91524,2,0,P|307:203|262:216,1,65,8|0,0:0|0:0,0:0:0:0:
98,88,91719,2,0,P|128:48|168:32,1,65
349,214,91913,2,0,P|307:203|262:216,1,65,8|0,0:0|0:0,0:0:0:0:
121,185,92107,2,0,P|163:185|204:209,1,65
347,277,92301,2,0,P|316:247|270:235,1,65,8|0,0:0|0:0,0:0:0:0:
106,246,92495,2,0,P|143:225|190:225,1,65
316,356,92690,6,0,P|379:352|424:307,1,130,8|0,0:0|0:0,0:0:0:0:
106,246,92884,2,0,P|143:225|190:225,1,65
316,356,93078,2,0,P|429:292|407:214,1,195,8|0,0:0|0:0,0:0:0:0:
380,151,93467,2,0,P|379:105|406:63,1,65,8|0,0:0|0:0,0:0:0:0:
303,44,93661,2,0,P|331:8|379:-6,1,65
313,222,93855,2,0,P|267:214|230:181,1,65,8|0,0:0|0:0,0:0:0:0:
303,44,94049,2,0,P|331:8|379:-6,1,65
313,222,94244,2,0,P|267:214|230:181,1,65,8|0,0:0|0:0,0:0:0:0:
58,98,94438,2,0,L|51:185,1,65
156,273,94632,2,0,L|161:208,1,65,8|0,0:0|0:0,0:0:0:0:
307,145,94826,2,0,B|312:58|312:58|272:101,1,130,0|8,0:0|0:0,0:0:0:0:
307,145,95215,2,0,B|312:58|312:58|272:101,1,130,0|8,0:0|0:0,0:0:0:0:
176,256,95603,6,0,P|228:248|254:261,1,65,8|0,0:0|0:0,0:0:0:0:
333,325,95798,2,0,P|281:333|255:320,1,65,8|0,0:0|0:0,0:0:0:0:
160,296,95992,2,0,B|216:256|248:288|256:288|264:288|304:328|368:272,1,195,8|0,0:0|0:0,0:0:0:0:
160,296,96380,2,0,B|216:256|248:288|256:288|264:288|304:328|368:272,1,195,8|0,0:0|0:0,0:0:0:0:
426,210,96769,6,0,L|317:190,1,97.50000371933,12|0,0:0|0:0,0:0:0:0:
160,296,96963,2,0,L|269:316,1,97.50000371933,12|0,0:0|0:0,0:0:0:0:
437,247,97157,2,0,B|341:233|341:233|246:271|246:271|141:256,1,292.50001115799,12|0,0:0|0:0,0:0:0:0:
437,247,97546,2,0,B|341:233|341:233|246:271|246:271|141:256,1,292.50001115799,12|0,0:0|0:0,0:0:0:0:
63,192,97934,6,0,L|50:117,1,65,8|0,0:0|0:0,0:0:0:0:
155,148,98128,1,0,0:0:0:0:
147,96,98225,2,0,L|134:21,1,65,8|0,0:0|0:0,0:0:0:0:
265,191,98420,1,0,0:0:0:0:
257,139,98517,2,0,L|244:64,1,65,8|0,0:0|0:0,0:0:0:0:
135,31,98711,1,0,0:0:0:0:
265,191,98808,1,0,0:0:0:0:
257,139,98905,2,0,L|244:64,1,65,8|0,0:0|0:0,0:0:0:0:
361,34,99100,6,0,L|349:98,1,65,8|0,0:0|0:0,0:0:0:0:
479,280,99294,2,0,L|467:215,1,65,8|0,0:0|0:0,0:0:0:0:
478,66,99488,2,0,L|466:130,1,65
362,312,99682,2,0,L|350:247,1,65,8|0,0:0|0:0,0:0:0:0:
478,66,99876,2,0,L|466:130,1,65
362,312,100071,2,0,L|350:247,1,65,8|0,0:0|0:0,0:0:0:0:
272,55,100265,6,0,P|232:43|188:46,1,65
220,119,100459,2,0,P|181:135|149:166,1,65,8|0,0:0|0:0,0:0:0:0:
365,251,100653,6,0,P|374:291|399:328,1,65
442,260,100848,2,0,P|475:284|517:297,1,65,8|0,0:0|0:0,0:0:0:0:
365,251,101042,2,0,P|374:291|399:328,1,65
442,260,101236,2,0,P|475:284|517:297,1,65,8|0,0:0|0:0,0:0:0:0:
370,95,101430,6,0,P|410:83|454:86,1,65
440,136,101625,2,0,P|478:152|510:183,1,65,8|0,0:0|0:0,0:0:0:0:
277,291,101819,6,0,P|267:331|242:368,1,65
237,338,102013,2,0,P|203:362|161:375,1,65,8|0,0:0|0:0,0:0:0:0:
277,291,102207,2,0,P|267:331|242:368,1,65
237,338,102402,2,0,P|203:362|161:375,1,65,8|0,0:0|0:0,0:0:0:0:
84,273,102596,6,0,P|75:230|80:200,1,65,8|0,0:0|0:0,0:0:0:0:
243,149,102790,1,0,0:0:0:0:
244,201,102887,2,0,P|211:230|182:240,1,65,8|0,0:0|0:0,0:0:0:0:
70,94,103081,1,0,0:0:0:0:
113,68,103179,2,0,P|154:81|178:101,1,65,8|0,0:0|0:0,0:0:0:0:
191,237,103373,1,0,0:0:0:0:
70,94,103470,1,0,0:0:0:0:
113,68,103567,2,0,P|154:81|178:101,1,65,8|0,0:0|0:0,0:0:0:0:
328,219,103761,6,0,P|370:219|399:202,1,65,8|0,0:0|0:0,0:0:0:0:
317,53,103955,2,0,P|275:53|246:70,1,65,8|0,0:0|0:0,0:0:0:0:
372,239,104150,2,0,P|411:224|432:198,1,65
280,30,104344,2,0,P|195:74|169:116,1,130,8|0,0:0|0:0,0:0:0:0:
372,239,104538,2,0,P|411:224|432:198,1,65
280,30,104732,2,0,P|195:74|169:116,1,130,8|0,0:0|0:0,0:0:0:0:
219,342,105121,6,0,L|214:263,1,65,8|0,0:0|0:0,0:0:0:0:
101,165,105315,2,0,L|105:229,1,65,8|0,0:0|0:0,0:0:0:0:
252,363,105509,2,0,B|249:267|249:267|219:233,1,130,8|0,0:0|0:0,0:0:0:0:
101,165,105704,2,0,L|105:229,1,65,8|0,0:0|0:0,0:0:0:0:
252,363,105898,2,0,B|249:267|249:267|219:233,1,130,8|0,0:0|0:0,0:0:0:0:
28,125,106286,2,0,P|106:83|158:106,1,130,8|0,0:0|0:0,0:0:0:0:
323,305,106675,1,0,0:0:0:0:
140,93,106869,1,0,0:0:0:0:
323,305,107063,1,0,0:0:0:0:
255,142,107258,6,0,P|283:128|316:124,1,65,8|0,0:0|0:0,0:0:0:0:
449,65,107452,2,0,P|420:50|387:46,1,65,8|0,0:0|0:0,0:0:0:0:
159,74,107646,2,0,L|180:157,1,65,4|0,0:0|0:0,0:0:0:0:
421,161,107840,2,0,L|400:244,1,65,4|0,0:0|0:0,0:0:0:0:
159,74,108034,2,0,L|180:157,1,65,4|0,0:0|0:0,0:0:0:0:
421,161,108229,2,0,L|400:244,1,65,4|0,0:0|0:0,0:0:0:0:
255,142,108423,6,0,P|283:128|316:124,1,65,8|0,0:0|0:0,0:0:0:0:
449,65,108617,2,0,P|420:50|387:46,1,65,8|0,0:0|0:0,0:0:0:0:
159,74,108811,2,0,L|180:157,1,65,4|0,0:0|0:0,0:0:0:0:
421,161,109006,2,0,L|400:244,1,65,4|0,0:0|0:0,0:0:0:0:
159,74,109200,2,0,L|180:157,1,65,4|0,0:0|0:0,0:0:0:0:
421,161,109394,2,0,L|400:244,1,65,4|0,0:0|0:0,0:0:0:0:
358,364,109588,5,0,0:0:0:0:
105,303,109783,6,0,B|116:253|116:253|132:234,1,65,8|0,0:0|0:0,0:0:0:0:
282,338,109977,2,0,B|288:287|288:287|280:263,1,65,8|0,0:0|0:0,0:0:0:0:
53,187,110171,2,0,P|84:112|142:93,1,130,8|0,0:0|0:0,0:0:0:0:
282,338,110365,2,0,B|288:287|288:287|280:263,1,65,8|0,0:0|0:0,0:0:0:0:
53,187,110560,2,0,P|84:112|142:93,1,130,8|0,0:0|0:0,0:0:0:0:
382,276,110948,2,0,P|378:194|330:157,1,130,8|0,0:0|0:0,0:0:0:0:
184,361,111337,1,0,0:0:0:0:
346,163,111531,1,0,0:0:0:0:
184,361,111725,1,0,0:0:0:0:
238,101,111919,6,0,L|336:85,1,65,8|0,0:0|0:0,0:0:0:0:
479,108,112113,2,0,L|414:118,1,65,8|0,0:0|0:0,0:0:0:0:
331,225,112308,2,0,P|338:177|362:143,1,65,8|0,0:0|0:0,0:0:0:0:
433,321,112502,2,0,P|349:346|265:328,1,130,8|0,0:0|0:0,0:0:0:0:
331,225,112696,2,0,P|338:177|362:143,1,65,8|0,0:0|0:0,0:0:0:0:
433,321,112890,2,0,P|349:346|265:328,1,130,8|0,0:0|0:0,0:0:0:0:
88,216,113279,1,4,0:0:0:0:
122,176,113376,1,4,0:0:0:0:
139,113,113473,1,4,0:0:0:0:
112,40,113570,1,4,0:0:0:0:
17,15,113667,5,4,0:0:0:0:
139,113,113862,1,4,0:0:0:0:
112,40,113959,1,4,0:0:0:0:
17,15,114056,1,4,0:0:0:0:
500,109,114444,1,4,0:0:0:0:
14,176,114833,1,4,0:0:0:0:
14,176,115221,1,4,0:0:0:0:
497,270,115610,1,4,0:0:0:0:
132,316,116572,6,0,P|112:267|112:229,1,81.25
157,148,116766,5,8,0:0:0:0:
181,74,116863,1,0,0:0:0:0:
129,15,116960,1,0,0:0:0:0:
105,89,117057,1,0,0:0:0:0:
233,133,117154,6,0,P|254:89|255:50,1,81.25,8|0,0:0|0:0,0:0:0:0:
129,15,117348,1,0,0:0:0:0:
105,89,117446,1,0,0:0:0:0:
233,133,117543,2,0,P|254:89|255:50,1,81.25,8|0,0:0|0:0,0:0:0:0:
385,40,117737,5,0,0:0:0:0:
460,64,117834,1,0,0:0:0:0:
460,142,117931,1,8,0:0:0:0:
385,166,118028,1,0,0:0:0:0:
340,103,118125,1,0,0:0:0:0:
385,40,118223,1,0,0:0:0:0:
443,218,118320,6,0,P|395:243|366:240,1,81.25,8|0,0:0|0:0,0:0:0:0:
340,103,118514,1,0,0:0:0:0:
385,40,118611,1,0,0:0:0:0:
443,218,118708,2,0,P|395:243|366:240,1,81.25,8|0,0:0|0:0,0:0:0:0:
222,176,118902,5,0,0:0:0:0:
146,159,118999,1,0,0:0:0:0:
78,198,119097,2,0,P|75:249|95:288,1,81.25,8|0,0:0|0:0,0:0:0:0:
276,233,119291,2,0,P|253:278|216:302,1,81.25
36,238,119485,2,0,P|58:283|95:307,1,81.25,8|0,0:0|0:0,0:0:0:0:
276,233,119679,2,0,P|253:278|216:302,1,81.25
36,238,119874,2,0,P|58:283|95:307,1,81.25,8|0,0:0|0:0,0:0:0:0:
352,272,120068,2,0,B|358:222|358:222|339:189,1,81.25
103,96,120262,2,0,P|125:50|162:26,1,81.25,8|0,0:0|0:0,0:0:0:0:
291,164,120456,2,0,P|294:113|273:74,1,81.25
86,40,120650,2,0,P|128:11|172:9,1,81.25,8|0,0:0|0:0,0:0:0:0:
291,164,120845,2,0,P|294:113|273:74,1,81.25
86,40,121039,2,0,P|128:11|172:9,1,81.25,8|0,0:0|0:0,0:0:0:0:
343,32,121233,5,0,0:0:0:0:
385,96,121330,1,0,0:0:0:0:
373,173,121427,1,8,0:0:0:0:
434,220,121525,1,0,0:0:0:0:
362,252,121622,2,0,P|320:261|276:256,1,81.25
83,228,121816,2,0,B|169:294|254:232|299:227,1,195.00000743866,8|0,0:0|0:0,0:0:0:0:
362,252,122010,2,0,P|320:261|276:256,1,81.25
83,228,122204,2,0,B|234:318|242:176|373:258,1,292.50001115799,8|0,0:0|0:0,0:0:0:0:
424,326,122593,5,8,0:0:0:0:
328,343,122690,1,0,0:0:0:0:
361,251,122787,2,0,L|373:153,1,81.25
494,0,122981,2,0,B|480:104|480:104|398:151|398:151,1,195.00000743866,8|0,0:0|0:0,0:0:0:0:
361,251,123176,2,0,L|373:153,1,81.25
494,0,123370,2,0,B|480:104|480:104|398:151|398:151|384:269,1,292.50001115799,8|0,0:0|0:0,0:0:0:0:
377,354,123758,6,0,P|315:359|275:346,1,81.25,8|0,0:0|0:0,0:0:0:0:
196,384,123953,2,0,P|160:332|151:291,1,81.25
79,242,124147,2,0,P|105:185|136:157,1,81.25,8|0,0:0|0:0,0:0:0:0:
196,384,124341,2,0,P|160:332|151:291,1,81.25
79,242,124535,2,0,P|105:185|136:157,1,81.25,8|0,0:0|0:0,0:0:0:0:
383,200,124729,6,0,P|359:260|309:267,1,81.25
238,128,124924,1,8,0:0:0:0:
285,42,125021,2,0,P|349:26|379:48,1,81.25
475,175,125215,1,0,0:0:0:0:
392,124,125312,1,8,0:0:0:0:
462,191,125409,1,0,0:0:0:0:
359,30,125506,1,0,0:0:0:0:
475,175,125604,1,0,0:0:0:0:
392,124,125701,1,8,0:0:0:0:
462,191,125798,1,0,0:0:0:0:
407,110,125895,6,0,P|447:85|499:83,1,81.25
425,261,126089,5,8,0:0:0:0:
353,276,126186,1,0,0:0:0:0:
292,233,126283,1,0,0:0:0:0:
220,248,126380,1,0,0:0:0:0:
79,276,126478,6,0,P|83:228|136:193,1,81.25,8|0,0:0|0:0,0:0:0:0:
292,233,126672,1,0,0:0:0:0:
220,248,126769,1,0,0:0:0:0:
79,276,126866,2,0,P|83:228|136:193,1,81.25,8|0,0:0|0:0,0:0:0:0:
220,45,127060,5,0,0:0:0:0:
271,97,127157,1,0,0:0:0:0:
200,114,127255,1,8,0:0:0:0:
149,62,127352,1,0,0:0:0:0:
220,45,127449,1,0,0:0:0:0:
271,97,127546,1,0,0:0:0:0:
129,131,127643,6,0,P|87:100|76:49,1,81.25,8|0,0:0|0:0,0:0:0:0:
220,45,127837,1,0,0:0:0:0:
271,97,127934,1,0,0:0:0:0:
129,131,128032,2,0,P|87:100|76:49,1,81.25,8|0,0:0|0:0,0:0:0:0:
345,11,128226,5,0,0:0:0:0:
391,68,128323,1,0,0:0:0:0:
349,128,128420,2,0,L|366:221,1,81.25,8|0,0:0|0:0,0:0:0:0:
215,226,128614,2,0,L|198:319,1,81.25
452,189,128808,2,0,L|435:282,1,81.25,8|0,0:0|0:0,0:0:0:0:
215,226,129003,2,0,L|198:319,1,81.25
452,189,129197,2,0,L|435:282,1,81.25,8|0,0:0|0:0,0:0:0:0:
222,147,129391,2,0,P|248:104|289:88,1,81.25
385,325,129585,2,0,P|336:336|295:318,1,81.25,8|0,0:0|0:0,0:0:0:0:
113,288,129780,2,0,P|149:304|189:299,1,81.25
172,79,129974,2,0,P|124:74|104:182,1,162.5,8|0,0:0|0:0,0:0:0:0:
113,288,130168,2,0,P|149:304|189:299,1,81.25
172,79,130362,2,0,P|124:74|104:182,1,162.5,8|0,0:0|0:0,0:0:0:0:
399,219,130751,6,0,B|408:172|408:172|392:131,1,81.25,8|0,0:0|0:0,0:0:0:0:
203,157,130945,2,0,B|218:111|218:111|253:84,1,81.25
475,122,131139,2,0,P|495:214|430:281,1,162.5,8|0,0:0|0:0,0:0:0:0:
203,157,131334,2,0,B|218:111|218:111|253:84,1,81.25
475,122,131528,2,0,P|495:214|430:281,1,162.5,8|0,0:0|0:0,0:0:0:0:
184,34,131916,2,0,P|127:87|126:166,1,162.5,8|0,0:0|0:0,0:0:0:0:
372,12,132305,2,0,L|341:107,1,81.25,8|0,0:0|0:0,0:0:0:0:
126,167,132499,1,0,0:0:0:0:
372,12,132693,2,0,L|341:107,1,81.25,8|0,0:0|0:0,0:0:0:0:
284,274,132887,5,0,0:0:0:0:
254,287,132985,1,0,0:0:0:0:
221,291,133082,1,8,0:0:0:0:
190,280,133179,1,0,0:0:0:0:
164,202,133276,5,0,0:0:0:0:
219,189,133373,1,0,0:0:0:0:
265,155,133470,1,8,0:0:0:0:
292,105,133567,1,0,0:0:0:0:
164,202,133664,1,0,0:0:0:0:
219,189,133762,1,0,0:0:0:0:
265,155,133859,1,8,0:0:0:0:
292,105,133956,1,0,0:0:0:0:
225,59,134053,5,0,0:0:0:0:
147,85,134150,1,0,0:0:0:0:
130,164,134247,1,8,0:0:0:0:
191,218,134344,1,0,0:0:0:0:
268,193,134441,1,0,0:0:0:0:
329,247,134538,1,0,0:0:0:0:
312,326,134636,1,8,0:0:0:0:
234,352,134733,1,0,0:0:0:0:
268,193,134830,1,0,0:0:0:0:
329,247,134927,1,0,0:0:0:0:
312,326,135024,1,8,0:0:0:0:
234,352,135121,1,0,0:0:0:0:
173,298,135218,6,0,P|116:296|77:319,1,81.25
61,214,135413,5,8,0:0:0:0:
130,164,135510,1,0,0:0:0:0:
92,92,135607,1,0,0:0:0:0:
126,17,135704,1,0,0:0:0:0:
204,109,135801,2,0,L|290:99,1,81.25,8|0,0:0|0:0,0:0:0:0:
92,92,135995,1,0,0:0:0:0:
126,17,136092,1,0,0:0:0:0:
204,109,136189,2,0,L|290:99,1,81.25,8|0,0:0|0:0,0:0:0:0:
425,48,136384,5,0,0:0:0:0:
441,127,136481,1,0,0:0:0:0:
359,116,136578,1,8,0:0:0:0:
342,195,136675,1,0,0:0:0:0:
261,208,136772,1,0,0:0:0:0:
210,271,136869,1,0,0:0:0:0:
280,129,136966,6,0,B|235:116|235:116|195:131,1,81.25,8|0,0:0|0:0,0:0:0:0:
261,208,137161,1,0,0:0:0:0:
210,271,137258,1,0,0:0:0:0:
280,129,137355,2,0,B|235:116|235:116|195:131,1,81.25,8|0,0:0|0:0,0:0:0:0:
290,283,137549,5,0,0:0:0:0:
261,208,137646,1,0,0:0:0:0:
280,129,137743,2,0,P|274:87|248:50,1,81.25,8|0,0:0|0:0,0:0:0:0:
67,89,137938,2,0,P|87:51|124:25,1,81.25
314,95,138132,2,0,P|293:57|256:31,1,81.25,8|0,0:0|0:0,0:0:0:0:
67,89,138326,2,0,P|87:51|124:25,1,81.25
314,95,138520,2,0,P|293:57|256:31,1,81.25,8|0,0:0|0:0,0:0:0:0:
383,259,138715,2,0,B|413:257|428:287|469:284,1,81.25
199,326,138909,2,0,P|156:326|115:306,1,81.25,8|0,0:0|0:0,0:0:0:0:
164,126,139103,2,0,P|206:125|247:145,1,81.25
164,372,139297,2,0,P|123:358|92:325,1,81.25,8|0,0:0|0:0,0:0:0:0:
164,126,139492,2,0,P|206:125|247:145,1,81.25
164,372,139686,2,0,P|123:358|92:325,1,81.25,8|0,0:0|0:0,0:0:0:0:
258,255,139880,5,0,0:0:0:0:
335,231,139977,1,0,0:0:0:0:
414,245,140074,1,8,0:0:0:0:
462,179,140171,1,0,0:0:0:0:
427,105,140268,6,0,P|398:88|345:87,1,81.25
258,255,140463,2,0,B|229:225|223:183|226:150|226:150|231:108|225:58|197:18|167:54,1,195.00000743866,8|0,0:0|0:0,0:0:0:0:
427,105,140657,2,0,P|398:88|345:87,1,81.25
258,255,140851,2,0,B|229:224|223:183|226:150|226:150|231:108|231:55|197:18|167:54|170:100|203:113,1,292.50001115799,8|0,0:0|0:0,0:0:0:0:
309,193,141240,5,8,0:0:0:0:
258,255,141337,1,0,0:0:0:0:
178,268,141434,2,0,P|138:236|113:182,1,81.25
309,193,141628,6,0,B|347:224|351:299|295:328|295:328|320:344|348:353,1,195.00000743866,8|0,0:0|0:0,0:0:0:0:
178,268,141822,2,0,P|138:236|113:182,1,81.25
309,193,142017,2,0,B|347:224|351:299|295:328|295:328|359:371|440:351|457:297,1,292.50001115799,8|0,0:0|0:0,0:0:0:0:
473,275,142405,6,0,P|464:224|440:188,1,81.25,8|0,0:0|0:0,0:0:0:0:
186,117,142599,2,0,P|195:168|219:204,1,81.25
503,212,142794,2,0,P|477:167|442:141,1,81.25,8|0,0:0|0:0,0:0:0:0:
186,117,142988,2,0,P|195:168|219:204,1,81.25
503,212,143182,2,0,P|477:167|442:141,1,81.25,8|0,0:0|0:0,0:0:0:0:
311,261,143376,6,0,P|267:277|216:277,1,81.25
51,255,143571,1,8,0:0:0:0:
112,202,143668,2,0,P|125:153|120:106,1,81.25
18,29,143862,1,0,0:0:0:0:
29,126,143959,1,8,0:0:0:0:
2,32,144056,1,0,0:0:0:0:
123,122,144153,1,0,0:0:0:0:
18,29,144250,1,0,0:0:0:0:
29,126,144347,1,8,0:0:0:0:
2,32,144445,1,0,0:0:0:0:
45,121,144542,6,0,P|92:109|134:56,1,81.25
220,16,144736,5,8,0:0:0:0:
292,26,144833,1,0,0:0:0:0:
330,88,144930,1,0,0:0:0:0:
258,98,145027,1,0,0:0:0:0:
227,199,145124,2,0,L|315:186,1,81.25,8|0,0:0|0:0,0:0:0:0:
330,88,145319,1,0,0:0:0:0:
258,98,145416,1,0,0:0:0:0:
227,199,145513,2,0,L|315:186,1,81.25,8|0,0:0|0:0,0:0:0:0:
402,78,145707,5,0,0:0:0:0:
427,146,145804,1,0,0:0:0:0:
452,214,145901,1,8,0:0:0:0:
380,201,145998,1,0,0:0:0:0:
355,269,146096,1,0,0:0:0:0:
330,337,146193,1,0,0:0:0:0:
307,187,146290,6,0,B|313:131|313:131|301:95,1,81.25,8|0,0:0|0:0,0:0:0:0:
355,269,146484,1,0,0:0:0:0:
330,337,146581,1,0,0:0:0:0:
307,187,146678,2,0,B|313:131|313:131|301:95,1,81.25,8|0,0:0|0:0,0:0:0:0:
165,35,146873,5,0,0:0:0:0:
98,64,146970,1,0,0:0:0:0:
38,20,147067,2,0,P|27:79|39:110,1,81.25,8|0,0:0|0:0,0:0:0:0:
257,82,147261,2,0,P|248:121|222:152,1,81.25
0,83,147455,2,0,P|9:142|31:167,1,81.25,8|0,0:0|0:0,0:0:0:0:
257,82,147650,2,0,P|248:121|222:152,1,81.25
0,83,147844,2,0,P|9:142|31:167,1,81.25,8|0,0:0|0:0,0:0:0:0:
228,229,148038,2,0,L|335:217,1,81.25
139,363,148232,2,0,L|32:351,1,81.25,8|0,0:0|0:0,0:0:0:0:
296,198,148426,2,0,L|403:186,1,81.25
55,223,148621,6,0,B|63:101|63:101|96:59,1,162.5,8|0,0:0|0:0,0:0:0:0:
296,198,148815,2,0,L|403:186,1,81.25
55,223,149009,2,0,B|63:101|63:101|96:59,1,162.5,8|0,0:0|0:0,0:0:0:0:
457,161,149398,2,0,B|449:283|449:283|416:325,1,162.5,8|0,0:0|0:0,0:0:0:0:
263,30,149786,2,0,L|447:74,1,162.5,8|0,0:0|0:0,0:0:0:0:
424,314,149980,1,0,0:0:0:0:
263,30,150175,2,0,L|447:74,1,162.5,8|0,0:0|0:0,0:0:0:0:
249,354,150563,2,0,L|65:310,1,162.5,8|0,0:0|0:0,0:0:0:0:
403,34,150952,2,0,L|494:56,1,81.25,8|0,0:0|0:0,0:0:0:0:
90,316,151146,1,0,0:0:0:0:
403,34,151340,2,0,L|494:56,1,81.25,8|0,0:0|0:0,0:0:0:0:
480,174,151534,5,8,0:0:0:0:
431,228,151629,1,0,0:0:0:0:
390,200,151725,1,0,0:0:0:0:
373,154,151821,1,0,0:0:0:0:
301,168,151917,1,0,0:0:0:0:
304,119,152012,1,0,0:0:0:0:
336,81,152108,1,0,0:0:0:0:
409,88,152204,1,0,0:0:0:0:
301,168,152300,1,0,0:0:0:0:
304,119,152396,1,0,0:0:0:0:
336,81,152491,1,0,0:0:0:0:
409,88,152587,1,0,0:0:0:0:
380,21,152683,5,8,0:0:0:0:
308,7,152779,1,0,0:0:0:0:
236,24,152874,1,0,0:0:0:0:
190,80,152970,1,0,0:0:0:0:
233,139,153066,5,0,0:0:0:0:
187,195,153162,1,0,0:0:0:0:
115,212,153258,1,0,0:0:0:0:
43,198,153353,1,0,0:0:0:0:
233,139,153449,1,0,0:0:0:0:
187,195,153545,1,0,0:0:0:0:
115,212,153641,1,0,0:0:0:0:
43,198,153737,1,0,0:0:0:0:
14,131,153832,5,4,0:0:0:0:
112,131,153935,1,0,0:0:0:0:
187,195,154032,1,8,0:0:0:0:
216,287,154129,1,0,0:0:0:0:
187,380,154226,2,0,P|133:340|135:307,1,81.25
325,247,154420,5,8,0:0:0:0:
409,291,154517,2,0,P|390:326|353:339,1,81.25
187,380,154614,2,0,P|133:340|135:307,1,81.25
325,247,154808,1,8,0:0:0:0:
409,291,154905,2,0,P|390:326|353:339,1,81.25
335,155,155100,2,0,P|374:152|404:178,1,81.25,0|8,0:0|0:0,0:0:0:0:
325,247,155294,1,0,0:0:0:0:
244,297,155391,2,0,P|222:263|229:224,1,81.25
307,53,155585,5,8,0:0:0:0:
224,1,155682,2,0,L|124:27,1,81.25
244,297,155779,2,0,P|222:263|229:224,1,81.25
307,53,155973,1,8,0:0:0:0:
224,1,156071,2,0,L|124:27,1,81.25
308,137,156265,5,0,0:0:0:0:
391,85,156362,2,0,L|469:105,1,81.25,8|0,0:0|0:0,0:0:0:0:
307,221,156556,5,0,0:0:0:0:
224,169,156653,2,0,L|145:189,1,81.25,0|8,0:0|0:0,0:0:0:0:
308,305,156847,5,0,0:0:0:0:
307,221,156944,1,0,0:0:0:0:
224,169,157041,2,0,L|145:189,1,81.25,0|8,0:0|0:0,0:0:0:0:
308,305,157236,1,0,0:0:0:0:
391,253,157333,2,0,B|405:203|405:203|398:168,1,81.25
395,351,157527,5,8,0:0:0:0:
308,305,157624,2,0,B|257:317|257:317|230:341,1,81.25
129,308,157818,5,0,0:0:0:0:
89,219,157915,1,8,0:0:0:0:
150,142,158012,1,0,0:0:0:0:
235,336,158109,1,0,0:0:0:0:
129,308,158206,5,0,0:0:0:0:
89,219,158304,1,8,0:0:0:0:
150,142,158401,1,0,0:0:0:0:
187,234,158498,1,0,0:0:0:0:
89,219,158595,1,0,0:0:0:0:
53,127,158692,1,8,0:0:0:0:
113,51,158789,1,0,0:0:0:0:
210,63,158886,2,0,P|257:102|267:144,1,81.25
308,289,159080,5,8,0:0:0:0:
383,227,159177,2,0,P|394:187|378:132,1,81.25
210,63,159274,2,0,P|257:102|267:144,1,81.25
308,289,159469,1,8,0:0:0:0:
383,227,159566,2,0,P|394:187|378:132,1,81.25
216,181,159760,2,0,P|233:143|280:111,1,81.25,0|8,0:0|0:0,0:0:0:0:
485,260,159954,1,0,0:0:0:0:
463,166,160051,2,0,P|425:148|368:154,1,81.25
218,260,160245,1,8,0:0:0:0:
170,271,160342,1,0,0:0:0:0:
463,166,160439,2,0,P|425:148|368:154,1,81.25
218,260,160634,1,8,0:0:0:0:
170,271,160731,1,0,0:0:0:0:
123,256,160828,5,0,0:0:0:0:
94,216,160925,2,0,P|86:168|96:125,1,81.25,0|8,0:0|0:0,0:0:0:0:
218,260,161119,5,0,0:0:0:0:
254,227,161216,2,0,P|274:182|275:138,1,81.25
223,23,161410,5,8,0:0:0:0:
268,6,161507,1,0,0:0:0:0:
254,227,161604,2,0,P|274:182|275:138,1,81.25
223,23,161799,1,8,0:0:0:0:
268,6,161896,1,0,0:0:0:0:
316,9,161993,2,0,P|373:36|394:64,1,81.25
181,141,162187,5,8,0:0:0:0:
183,91,162284,2,0,P|210:33|238:12,1,81.25
346,142,162478,5,0,0:0:0:0:
324,236,162575,1,8,0:0:0:0:
245,294,162672,1,0,0:0:0:0:
222,22,162770,1,0,0:0:0:0:
346,142,162867,1,0,0:0:0:0:
324,236,162964,1,8,0:0:0:0:
245,294,163061,1,0,0:0:0:0:
148,281,163158,5,0,0:0:0:0:
227,224,163255,1,0,0:0:0:0:
324,236,163352,1,8,0:0:0:0:
408,187,163449,1,0,0:0:0:0:
505,200,163546,2,0,P|500:152|458:107,1,81.25
294,39,163740,5,8,0:0:0:0:
307,136,163838,2,0,L|403:113,1,81.25
505,200,163935,2,0,P|500:152|458:107,1,81.25
294,39,164129,1,8,0:0:0:0:
307,136,164226,2,0,L|403:113,1,81.25
161,199,164420,2,0,L|65:176,1,81.25,0|8,0:0|0:0,0:0:0:0:
324,236,164614,1,0,0:0:0:0:
380,315,164711,2,0,L|300:333,1,81.25
244,215,164905,5,8,0:0:0:0:
231,118,165003,2,0,P|182:97|112:98,1,81.25
380,315,165100,2,0,L|300:333,1,81.25
244,215,165294,1,8,0:0:0:0:
231,118,165391,2,0,P|182:97|112:98,1,81.25
459,183,165585,5,0,0:0:0:0:
386,117,165682,2,0,P|334:132|281:178,1,81.25,8|0,0:0|0:0,0:0:0:0:
317,283,165876,5,0,0:0:0:0:
390,349,165973,2,0,P|441:333|494:287,1,81.25,0|8,0:0|0:0,0:0:0:0:
255,359,166168,5,0,0:0:0:0:
317,283,166265,1,0,0:0:0:0:
390,349,166362,2,0,P|441:333|494:287,1,81.25,0|8,0:0|0:0,0:0:0:0:
255,359,166556,1,0,0:0:0:0:
159,334,166653,2,0,L|123:241,1,81.25
317,283,166847,5,8,0:0:0:0:
413,258,166944,2,0,L|449:165,1,81.25
393,36,167138,5,0,0:0:0:0:
301,67,167236,1,8,0:0:0:0:
245,146,167333,1,0,0:0:0:0:
442,182,167430,1,0,0:0:0:0:
393,36,167527,1,0,0:0:0:0:
301,67,167624,1,8,0:0:0:0:
245,146,167721,1,0,0:0:0:0:
244,244,167818,5,0,0:0:0:0:
224,148,167915,1,0,0:0:0:0:
138,100,168012,1,8,0:0:0:0:
44,124,168109,1,0,0:0:0:0:
6,213,168206,2,0,P|44:250|96:250,1,81.25
210,61,168401,2,0,P|172:24|120:24,1,81.25,8|0,0:0|0:0,0:0:0:0:
6,213,168595,2,0,P|44:250|96:250,1,81.25
210,61,168789,2,0,P|172:24|120:24,1,81.25,8|0,0:0|0:0,0:0:0:0:
165,238,168983,5,0,0:0:0:0:
208,258,169080,1,0,0:0:0:0:
264,263,169177,1,8,0:0:0:0:
326,245,169274,1,0,0:0:0:0:
376,191,169371,5,0,0:0:0:0:
410,255,169469,1,0,0:0:0:0:
362,310,169566,1,8,0:0:0:0:
422,352,169663,1,0,0:0:0:0:
376,191,169760,1,0,0:0:0:0:
410,255,169857,1,0,0:0:0:0:
362,310,169954,1,8,0:0:0:0:
422,352,170051,1,0,0:0:0:0:
470,297,170148,6,0,B|417:236|472:142|472:142|507:74|492:0|429:-27|306:-16|299:121|382:191|464:140,1,568.75,12|0,0:0|0:0,0:0:0:0:
430,17,170925,2,0,P|352:89|440:150,1,243.75
302,4,171313,2,0,B|244:111|328:194|328:194|271:133|186:127,1,341.250013017655,12|0,0:0|0:0,0:0:0:0:
319,184,172090,2,0,B|328:194|328:194|270:133|213:130,1,146.250005578995,12|0,0:0|0:0,0:0:0:0:
135,149,172478,6,0,P|120:209|123:240,1,65,4|0,0:0|0:0,0:0:0:0:
231,335,172672,5,8,0:0:0:0:
220,297,172770,1,0,0:0:0:0:
221,258,172867,2,0,P|224:225|236:195,1,65
357,204,173061,5,8,0:0:0:0:
346,242,173158,1,0,0:0:0:0:
221,258,173255,2,0,P|224:225|236:195,1,65
357,204,173449,1,8,0:0:0:0:
346,242,173546,1,0,0:0:0:0:
347,281,173643,2,0,P|350:313|362:343,1,65
483,236,173838,2,0,P|479:203|467:173,1,65,8|0,0:0|0:0,0:0:0:0:
271,169,174032,2,0,P|290:142|315:122,1,65
496,92,174226,1,8,0:0:0:0:
496,92,174323,1,0,0:0:0:0:
271,169,174420,2,0,P|290:142|315:122,1,65
496,92,174614,1,8,0:0:0:0:
496,92,174711,1,0,0:0:0:0:
496,92,174808,6,0,L|416:64,1,65
263,24,175003,2,0,L|201:45,1,65,8|0,0:0|0:0,0:0:0:0:
441,236,175197,2,0,P|456:207|460:175,1,65
195,303,175391,2,0,P|245:295|281:266,1,65,8|0,0:0|0:0,0:0:0:0:
441,236,175585,2,0,P|456:207|460:175,1,65
195,303,175779,2,0,P|245:295|281:266,1,65,8|0,0:0|0:0,0:0:0:0:
274,115,175973,2,0,P|324:122|360:151,1,65
176,318,176168,2,0,P|225:328|269:313,1,65,8|0,0:0|0:0,0:0:0:0:
307,88,176362,2,0,P|351:111|375:151,1,65
162,212,176556,6,0,L|149:50,1,130,8|0,0:0|0:0,0:0:0:0:
307,88,176750,2,0,P|351:111|375:151,1,65
162,212,176944,2,0,L|149:50,1,130,8|0,0:0|0:0,0:0:0:0:
309,261,177333,2,0,L|314:325,1,65,8|0,0:0|0:0,0:0:0:0:
91,274,177527,2,0,L|85:209,1,65
391,200,177721,6,0,P|410:279|380:332,1,130,8|0,0:0|0:0,0:0:0:0:
91,274,177915,2,0,L|85:209,1,65
391,200,178109,2,0,P|410:279|380:332,1,130,8|0,0:0|0:0,0:0:0:0:
162,212,178498,2,0,P|143:133|173:80,1,130,8|0,0:0|0:0,0:0:0:0:
480,212,178886,2,0,P|489:256|476:301,1,65,8|0,0:0|0:0,0:0:0:0:
162,91,179080,1,0,0:0:0:0:
480,212,179274,2,0,P|489:256|476:301,1,65,8|0,0:0|0:0,0:0:0:0:
409,53,179469,5,0,0:0:0:0:
371,44,179566,1,0,0:0:0:0:
332,52,179663,1,8,0:0:0:0:
307,82,179760,1,0,0:0:0:0:
295,119,179857,2,0,P|298:173|316:205,1,65
155,52,180051,5,8,0:0:0:0:
136,100,180148,1,0,0:0:0:0:
295,119,180245,2,0,P|298:173|316:205,1,65
155,52,180439,1,8,0:0:0:0:
136,100,180537,1,0,0:0:0:0:
128,151,180634,1,0,0:0:0:0:
133,203,180731,1,0,0:0:0:0:
157,248,180828,2,0,P|191:282|228:299,1,65,8|0,0:0|0:0,0:0:0:0:
14,280,181022,5,0,0:0:0:0:
51,348,181119,1,0,0:0:0:0:
123,377,181216,2,0,P|165:382|211:376,1,65,8|0,0:0|0:0,0:0:0:0:
14,280,181410,1,0,0:0:0:0:
51,348,181507,1,0,0:0:0:0:
123,377,181604,2,0,P|165:382|211:376,1,65,8|0,0:0|0:0,0:0:0:0:
438,294,181799,6,0,L|435:208,1,65
434,26,181993,5,8,0:0:0:0:
395,35,182090,1,0,0:0:0:0:
356,31,182187,2,0,P|303:25|269:34,1,65
162,166,182381,5,8,0:0:0:0:
143,131,182478,1,0,0:0:0:0:
356,31,182575,2,0,P|303:25|269:34,1,65
162,166,182770,1,8,0:0:0:0:
143,131,182867,1,0,0:0:0:0:
145,91,182964,2,0,P|167:52|193:27,1,65
319,241,183158,2,0,P|287:246|254:244,1,65,8|0,0:0|0:0,0:0:0:0:
400,126,183352,2,0,P|431:120|464:122,1,65
277,277,183546,2,0,P|246:266|219:248,1,65,8|0,0:0|0:0,0:0:0:0:
400,126,183740,2,0,P|431:120|464:122,1,65
277,277,183935,2,0,P|246:266|219:248,1,65,8|0,0:0|0:0,0:0:0:0:
306,132,184129,6,0,P|314:88|304:47,1,65
118,90,184323,2,8,P|133:47|162:17,1,65
355,107,184517,2,0,P|339:64|310:34,1,65
364,277,184711,2,0,L|451:269,1,65,8|0,0:0|0:0,0:0:0:0:
355,107,184905,2,0,P|339:64|310:34,1,65
364,277,185100,2,0,L|451:269,1,65,8|0,0:0|0:0,0:0:0:0:
241,188,185294,2,0,L|176:193,1,65
392,300,185488,2,0,L|479:292,1,65
269,211,185682,2,0,L|204:216,1,65
465,192,185876,6,0,B|460:164|471:142|471:142|458:116|458:116|470:96|460:57,1,130,8|0,0:0|0:0,0:0:0:0:
269,211,186071,2,0,L|204:216,1,65
465,192,186265,2,0,B|460:164|471:142|471:142|458:116|458:116|470:96|460:57,1,130,8|0,0:0|0:0,0:0:0:0:
188,49,186653,2,0,P|175:70|211:101,1,65,8|0,0:0|0:0,0:0:0:0:
348,136,186847,2,0,P|361:115|325:84,1,65
129,159,187041,2,0,P|116:180|152:211,1,65,8|0,0:0|0:0,0:0:0:0:
348,136,187236,2,0,P|361:115|325:84,1,65
129,159,187430,2,0,P|116:180|152:211,1,65,8|0,0:0|0:0,0:0:0:0:
296,253,187624,2,0,B|333:238|334:278|377:256,1,65
171,309,187818,2,0,B|157:292|156:339|88:335,1,65,8|0,0:0|0:0,0:0:0:0:
429,350,188012,2,0,B|407:295|434:294|434:294|444:263|425:232,1,130,0|8,0:0|0:0,0:0:0:0:
429,350,188401,2,0,B|407:295|434:294|434:294|444:263|425:232,1,130,0|8,0:0|0:0,0:0:0:0:
153,153,188789,6,0,P|169:114|198:92,1,65,8|0,0:0|0:0,0:0:0:0:
346,157,188983,2,0,P|330:118|301:96,1,65,8|0,0:0|0:0,0:0:0:0:
157,84,189177,2,0,P|221:49|334:86,1,195,8|0,0:0|0:0,0:0:0:0:
157,84,189566,2,0,P|221:49|334:86,1,195,8|0,0:0|0:0,0:0:0:0:
437,197,189954,6,0,P|404:253|346:271,1,97.50000371933,12|0,0:0|0:0,0:0:0:0:
192,265,190148,2,0,P|236:219|289:210,1,97.50000371933,12|0,0:0|0:0,0:0:0:0:
426,153,190342,2,0,B|402:252|323:242|317:242|311:242|223:210|195:312,1,292.50001115799,12|0,0:0|0:0,0:0:0:0:
426,153,190731,2,0,B|402:252|323:242|317:242|311:242|223:210|195:312,1,292.50001115799,12|0,0:0|0:0,0:0:0:0:
173,379,191119,6,0,P|117:367|82:339,1,65,4|0,0:0|0:0,0:0:0:0:
112,231,191313,1,0,0:0:0:0:
139,203,191410,2,0,P|167:180|235:161,1,65,8|0,0:0|0:0,0:0:0:0:
42,54,191604,1,0,0:0:0:0:
31,91,191702,2,0,P|25:126|42:195,1,65,8|0,0:0|0:0,0:0:0:0:
192,167,191896,1,0,0:0:0:0:
42,54,191993,1,0,0:0:0:0:
31,91,192090,2,0,P|25:126|42:195,1,65,8|0,0:0|0:0,0:0:0:0:
288,147,192284,2,0,P|310:115|318:71,1,65
135,77,192478,2,0,P|138:38|160:0,1,65,8|0,0:0|0:0,0:0:0:0:
406,29,192672,2,0,L|409:104,1,65
213,154,192867,2,0,L|210:89,1,65,8|0,0:0|0:0,0:0:0:0:
406,29,193061,2,0,L|409:104,1,65
213,154,193255,2,0,L|210:89,1,65,8|0,0:0|0:0,0:0:0:0:
486,120,193449,6,0,P|488:176|474:208,1,65
264,299,193643,2,0,P|262:243|276:211,1,65,8|0,0:0|0:0,0:0:0:0:
447,259,193838,6,0,P|412:303|381:318,1,65
343,222,194032,2,0,P|377:177|408:162,1,65,8|0,0:0|0:0,0:0:0:0:
447,259,194226,2,0,P|412:303|381:318,1,65
343,222,194420,2,0,P|377:177|408:162,1,65,8|0,0:0|0:0,0:0:0:0:
357,358,194614,6,0,L|285:345,1,65
93,301,194808,2,0,L|165:288,1,65,8|0,0:0|0:0,0:0:0:0:
265,236,195003,2,0,L|193:223,1,65
145,191,195197,2,0,L|217:178,1,65,8|0,0:0|0:0,0:0:0:0:
265,236,195391,2,0,L|193:223,1,65
145,191,195585,2,0,L|217:178,1,65,8|0,0:0|0:0,0:0:0:0:
404,151,195779,6,0,P|409:101|386:60,1,65
248,37,195973,1,8,0:0:0:0:
215,58,196071,2,0,P|166:69|136:64,1,65
12,173,196265,1,0,0:0:0:0:
45,194,196362,2,0,P|94:205|124:200,1,65,8|0,0:0|0:0,0:0:0:0:
151,67,196556,1,0,0:0:0:0:
12,173,196653,1,0,0:0:0:0:
45,194,196750,2,0,P|94:205|124:200,1,65,8|0,0:0|0:0,0:0:0:0:
240,161,196944,2,0,P|252:205|247:235,1,65
95,283,197138,2,0,P|127:315|155:326,1,65,8|0,0:0|0:0,0:0:0:0:
278,190,197333,2,0,P|266:234|247:257,1,65
198,56,197527,6,0,P|268:30|339:54,1,130,8|0,0:0|0:0,0:0:0:0:
278,190,197721,2,0,P|266:234|247:257,1,65
198,56,197915,2,0,P|268:30|339:54,1,130,8|0,0:0|0:0,0:0:0:0:
415,250,198304,2,0,L|335:254,1,65,8|0,0:0|0:0,0:0:0:0:
135,194,198498,2,0,L|199:190,1,65
441,262,198692,2,0,P|451:185|435:132,1,130,8|0,0:0|0:0,0:0:0:0:
135,194,198886,2,0,L|199:190,1,65
441,262,199080,2,0,P|451:185|435:132,1,130,8|0,0:0|0:0,0:0:0:0:
209,212,199469,2,0,B|201:294|201:294|215:342,1,130,8|0,0:0|0:0,0:0:0:0:
384,65,199857,1,8,0:0:0:0:
214,339,200051,1,0,0:0:0:0:
384,65,200245,1,8,0:0:0:0:
35,36,200439,6,0,L|41:126,1,65
356,133,200634,2,0,L|319:215,1,65,8|0,0:0|0:0,0:0:0:0:
119,188,200828,2,0,P|104:236|106:271,1,65
209,212,201022,2,0,P|196:261|178:290,1,65,8|0,0:0|0:0,0:0:0:0:
119,188,201216,2,0,P|104:236|106:271,1,65
209,212,201410,2,0,P|196:261|178:290,1,65,8|0,0:0|0:0,0:0:0:0:
35,36,201604,6,0,L|41:126,1,65
356,133,201799,2,0,L|319:215,1,65,8|0,0:0|0:0,0:0:0:0:
119,188,201993,2,0,P|104:236|106:271,1,65
209,212,202187,2,0,P|196:261|178:290,1,65,8|0,0:0|0:0,0:0:0:0:
119,188,202381,2,0,P|104:236|106:271,1,65
209,212,202575,2,0,P|196:261|178:290,1,65,8|0,0:0|0:0,0:0:0:0:
118,369,202770,5,0,0:0:0:0:
201,32,202964,6,0,B|226:32|226:32|272:45,1,65,8|0,0:0|0:0,0:0:0:0:
474,111,203158,2,0,B|449:111|449:111|403:98,1,65
135,104,203352,2,0,B|213:103|213:103|288:125,1,130,8|0,0:0|0:0,0:0:0:0:
474,111,203546,2,0,B|449:111|449:111|403:98,1,65
135,104,203740,2,0,B|213:103|213:103|288:125,1,130,8|0,0:0|0:0,0:0:0:0:
374,335,204129,2,0,P|349:257|365:189,1,130,8|0,0:0|0:0,0:0:0:0:
482,21,204517,1,8,0:0:0:0:
355,210,204711,1,0,0:0:0:0:
482,21,204905,1,8,0:0:0:0:
137,204,205100,6,0,P|175:194|218:197,1,65
368,96,205294,2,0,P|330:106|287:103,1,65,8|0,0:0|0:0,0:0:0:0:
127,269,205488,2,0,P|154:241|193:222,1,65
429,142,205682,2,0,P|461:210|462:281,1,130,8|0,0:0|0:0,0:0:0:0:
127,269,205876,2,0,P|154:241|193:222,1,65
429,142,206071,2,0,P|461:210|462:281,1,130,8|0,0:0|0:0,0:0:0:0:
236,150,206459,5,4,0:0:0:0:
254,87,206556,1,4,0:3:0:0:
300,135,206653,1,4,0:0:0:0:
190,102,206750,1,4,0:0:0:0:
274,24,206847,5,4,0:0:0:0:
300,135,207041,1,4,0:0:0:0:
190,102,207138,1,4,0:0:0:0:
274,24,207236,1,4,0:0:0:0:
481,355,207624,1,4,0:0:0:0:
2,193,208012,1,4,0:0:0:0:
2,193,208401,1,4,0:0:0:0:
478,10,208789,1,4,0:0:0:0:
125,301,209760,6,0,P|103:246|107:199,1,81.25,4|0,0:0|0:0,0:0:0:0:
167,112,209954,5,8,0:0:0:0:
237,94,210051,1,0,0:0:0:0:
270,158,210148,1,0,0:0:0:0:
336,189,210245,1,0,0:0:0:0:
302,51,210342,6,0,P|272:25|194:34,1,81.25,8|0,0:0|0:0,0:0:0:0:
270,158,210537,1,0,0:0:0:0:
336,189,210634,1,0,0:0:0:0:
302,51,210731,2,0,P|272:25|194:34,1,81.25,8|0,0:0|0:0,0:0:0:0:
200,176,210925,5,0,0:0:0:0:
241,236,211022,1,0,0:0:0:0:
197,295,211119,1,8,0:0:0:0:
133,258,211216,1,0,0:0:0:0:
101,324,211313,1,0,0:0:0:0:
165,361,211410,1,0,0:0:0:0:
127,175,211507,6,0,P|78:196|51:241,1,81.25,8|0,0:0|0:0,0:0:0:0:
101,324,211702,1,0,0:0:0:0:
165,361,211799,1,0,0:0:0:0:
127,175,211896,2,0,P|78:196|51:241,1,81.25,8|0,0:0|0:0,0:0:0:0:
270,307,212090,5,0,0:0:0:0:
340,286,212187,1,0,0:0:0:0:
401,324,212284,2,0,P|439:291|451:242,1,81.25,8|0,0:0|0:0,0:0:0:0:
216,256,212478,2,0,P|208:206|230:161,1,81.25
483,307,212672,2,0,P|490:257|468:212,1,81.25,8|0,0:0|0:0,0:0:0:0:
216,256,212867,2,0,P|208:206|230:161,1,81.25
483,307,213061,2,0,P|490:257|468:212,1,81.25,8|0,0:0|0:0,0:0:0:0:
132,258,213255,2,0,P|124:297|134:336,1,81.25
295,130,213449,2,0,L|220:98,1,81.25,8|0,0:0|0:0,0:0:0:0:
340,286,213643,2,0,L|265:317,1,81.25
284,94,213838,2,0,L|194:56,1,81.25,8|0,0:0|0:0,0:0:0:0:
340,286,214032,2,0,L|265:317,1,81.25
284,94,214226,2,0,L|194:56,1,81.25,8|0,0:0|0:0,0:0:0:0:
54,106,214420,5,0,0:0:0:0:
100,162,214517,1,0,0:0:0:0:
71,229,214614,1,8,0:0:0:0:
70,302,214711,1,0,0:0:0:0:
134,267,214808,6,0,P|170:241|227:246,1,81.25
326,328,215003,2,0,P|246:274|288:142,1,195.00000743866,8|0,0:0|0:0,0:0:0:0:
134,267,215197,2,0,P|170:241|227:246,1,81.25
326,328,215391,2,0,P|246:274|333:124,1,292.50001115799,8|0,0:0|0:0,0:0:0:0:
480,195,215779,5,8,0:0:0:0:
433,250,215876,1,0,0:0:0:0:
409,182,215973,2,0,P|436:134|489:121,1,81.25
339,346,216168,2,0,B|365:190|365:190|401:118,1,195.00000743866,8|0,0:0|0:0,0:0:0:0:
409,182,216362,2,0,P|436:134|489:121,1,81.25
339,346,216556,2,0,B|365:190|365:190|399:113|453:78|498:88,1,292.50001115799,8|0,0:0|0:0,0:0:0:0:
490,305,216944,6,0,P|455:327|412:326,1,81.25,8|0,0:0|0:0,0:0:0:0:
232,140,217138,2,0,P|267:118|310:119,1,81.25
258,357,217333,2,0,P|217:351|184:322,1,81.25,8|0,0:0|0:0,0:0:0:0:
232,140,217527,2,0,P|267:118|310:119,1,81.25
258,357,217721,2,0,P|217:351|184:322,1,81.25,8|0,0:0|0:0,0:0:0:0:
159,104,217915,6,0,P|107:97|65:123,1,81.25
180,246,218109,1,8,0:0:0:0:
252,258,218206,2,0,P|284:216|282:167,1,81.25
63,222,218401,1,0,0:0:0:0:
150,177,218498,1,8,0:0:0:0:
73,237,218595,1,0,0:0:0:0:
286,188,218692,1,0,0:0:0:0:
63,222,218789,1,0,0:0:0:0:
150,177,218886,1,8,0:0:0:0:
73,237,218983,1,0,0:0:0:0:
139,164,219080,6,0,P|97:135|37:138,1,81.25
33,333,219274,5,8,0:0:0:0:
102,309,219371,1,0,0:0:0:0:
140,371,219469,1,0,0:0:0:0:
209,347,219566,1,0,0:0:0:0:
250,236,219663,6,0,P|236:190|252:132,1,81.25,8|0,0:0|0:0,0:0:0:0:
140,371,219857,1,0,0:0:0:0:
209,347,219954,1,0,0:0:0:0:
250,236,220051,2,0,P|236:190|252:132,1,81.25,8|0,0:0|0:0,0:0:0:0:
439,111,220245,1,0,0:0:0:0:
477,172,220342,1,0,0:0:0:0:
486,244,220439,1,8,0:0:0:0:
463,313,220537,1,0,0:0:0:0:
415,259,220634,1,0,0:0:0:0:
404,186,220731,1,0,0:0:0:0:
392,327,220828,6,0,P|344:347|305:340,1,81.25,8|0,0:0|0:0,0:0:0:0:
415,259,221022,1,0,0:0:0:0:
404,186,221119,1,0,0:0:0:0:
392,327,221216,2,0,P|344:347|305:340,1,81.25,8|0,0:0|0:0,0:0:0:0:
277,215,221410,5,0,0:0:0:0:
301,146,221507,1,0,0:0:0:0:
282,74,221604,2,0,P|240:62|189:82,1,81.25,8|0,0:0|0:0,0:0:0:0:
179,173,221799,2,0,P|147:203|139:257,1,81.25
213,311,221993,2,0,P|223:353|266:387,1,81.25,8|0,0:0|0:0,0:0:0:0:
179,173,222187,2,0,P|147:203|139:257,1,81.25
213,311,222381,2,0,P|223:353|266:387,1,81.25,8|0,0:0|0:0,0:0:0:0:
123,103,222575,2,0,P|80:113|46:156,1,81.25
307,294,222770,2,0,P|349:283|383:240,1,81.25,8|0,0:0|0:0,0:0:0:0:
18,94,222964,2,0,L|27:196,1,81.25
412,286,223158,6,0,B|406:174|406:174|392:144|356:142,1,162.5,8|0,0:0|0:0,0:0:0:0:
18,94,223352,2,0,L|27:196,1,81.25
412,286,223546,2,0,B|406:174|406:174|392:144|356:142,1,162.5,8|0,0:0|0:0,0:0:0:0:
106,41,223935,6,0,P|149:28|193:44,1,81.25,8|0,0:0|0:0,0:0:0:0:
332,214,224129,2,0,P|289:227|245:211,1,81.25
325,20,224323,2,0,P|436:3|471:48,1,162.5,8|0,0:0|0:0,0:0:0:0:
332,214,224517,2,0,P|289:227|245:211,1,81.25
325,20,224711,2,0,P|436:3|471:48,1,162.5,8|0,0:0|0:0,0:0:0:0:
309,312,225100,2,0,P|375:353|447:323,1,162.5,8|0,0:0|0:0,0:0:0:0:
131,178,225488,2,0,P|101:221|98:271,1,81.25,8|0,0:0|0:0,0:0:0:0:
447,322,225682,1,0,0:0:0:0:
131,178,225876,2,0,P|101:221|98:271,1,81.25,8|0,0:0|0:0,0:0:0:0:
294,196,226071,5,0,0:0:0:0:
308,149,226168,1,0,0:0:0:0:
307,99,226265,1,8,0:0:0:0:
289,53,226362,1,0,0:0:0:0:
337,124,226459,5,0,0:0:0:0:
381,171,226556,1,0,0:0:0:0:
443,186,226653,1,8,0:0:0:0:
505,166,226750,1,0,0:0:0:0:
337,124,226847,1,0,0:0:0:0:
381,171,226944,1,0,0:0:0:0:
443,186,227041,1,8,0:0:0:0:
505,166,227138,1,0,0:0:0:0:
404,210,227236,5,0,0:0:0:0:
340,261,227333,1,0,0:0:0:0:
311,336,227430,1,8,0:0:0:0:
390,323,227527,5,0,0:0:0:0:
340,261,227624,1,0,0:0:0:0:
259,276,227721,1,0,0:0:0:0:
225,350,227818,5,8,0:0:0:0:
147,372,227915,1,0,0:0:0:0:
340,261,228012,1,0,0:0:0:0:
259,276,228109,1,0,0:0:0:0:
225,350,228206,1,8,0:0:0:0:
147,372,228304,1,0,0:0:0:0:
82,323,228401,6,0,P|58:267|74:200,1,81.25
154,75,228595,5,8,0:0:0:0:
127,144,228692,1,0,0:0:0:0:
81,87,228789,1,0,0:0:0:0:
154,75,228886,1,0,0:0:0:0:
177,203,228983,6,0,P|229:209|276:190,1,81.25,8|0,0:0|0:0,0:0:0:0:
81,87,229177,1,0,0:0:0:0:
154,75,229274,1,0,0:0:0:0:
177,203,229371,2,0,P|229:209|276:190,1,81.25,8|0,0:0|0:0,0:0:0:0:
445,104,229566,5,0,0:0:0:0:
428,174,229663,1,0,0:0:0:0:
364,137,229760,1,8,0:0:0:0:
315,192,229857,1,0,0:0:0:0:
244,175,229954,1,0,0:0:0:0:
176,203,230051,1,0,0:0:0:0:
367,243,230148,6,0,P|381:297|362:339,1,81.25,8|0,0:0|0:0,0:0:0:0:
244,175,230342,1,0,0:0:0:0:
176,203,230439,1,0,0:0:0:0:
367,243,230537,2,0,P|381:297|362:339,1,81.25,8|0,0:0|0:0,0:0:0:0:
165,278,230731,5,0,0:0:0:0:
108,231,230828,1,0,0:0:0:0:
118,158,230925,2,0,P|164:119|200:117,1,81.25,8|0,0:0|0:0,0:0:0:0:
290,302,231119,2,0,P|244:341|208:343,1,81.25
140,91,231313,2,0,P|200:90|229:112,1,81.25,8|0,0:0|0:0,0:0:0:0:
290,302,231507,2,0,P|244:341|208:343,1,81.25
140,91,231702,2,0,P|200:90|229:112,1,81.25,8|0,0:0|0:0,0:0:0:0:
34,290,231896,2,0,B|62:275|31:266|30:231|39:205,1,81.25
299,125,232090,2,0,P|311:179|294:236,1,81.25,8|0,0:0|0:0,0:0:0:0:
47,131,232284,2,0,P|35:77|52:20,1,81.25
355,179,232478,2,0,P|347:233|312:281,1,81.25,8|0,0:0|0:0,0:0:0:0:
47,131,232672,2,0,P|35:77|52:20,1,81.25
355,179,232867,2,0,P|347:233|312:281,1,81.25,8|0,0:0|0:0,0:0:0:0:
258,40,233061,5,0,0:0:0:0:
331,33,233158,1,0,0:0:0:0:
393,69,233255,1,8,0:0:0:0:
444,17,233352,1,0,0:0:0:0:
464,87,233449,6,0,P|466:142|450:184,1,81.25
330,255,233643,2,0,B|283:195|299:106|299:106|269:197,1,195.00000743866,8|0,0:0|0:0,0:0:0:0:
464,87,233838,2,0,P|466:142|450:184,1,81.25
330,255,234032,2,0,B|283:195|299:106|299:106|271:199|182:231,1,292.50001115799,8|0,0:0|0:0,0:0:0:0:
117,156,234420,5,8,0:0:0:0:
201,127,234517,1,0,0:0:0:0:
220,212,234614,2,0,P|197:294|151:311,1,81.25
133,68,234808,6,0,B|218:34|281:46|281:46|299:75|339:117,1,195.00000743866,8|0,0:0|0:0,0:0:0:0:
220,212,235003,2,0,P|197:294|151:311,1,81.25
133,68,235197,2,0,B|218:34|281:46|281:46|332:134|446:119,1,292.50001115799,8|0,0:0|0:0,0:0:0:0:
464,65,235585,6,0,L|436:181,1,81.25,8|0,0:0|0:0,0:0:0:0:
275,157,235779,2,0,L|303:273,1,81.25
494,55,235973,2,0,L|466:171,1,81.25,8|0,0:0|0:0,0:0:0:0:
275,157,236168,2,0,L|303:273,1,81.25
494,55,236362,2,0,L|466:171,1,81.25,8|0,0:0|0:0,0:0:0:0:
418,328,236556,6,0,P|376:314|345:288,1,81.25
161,178,236750,1,8,0:0:0:0:
209,232,236847,2,0,P|225:278|184:321,1,81.25
25,344,237041,1,0,0:0:0:0:
51,250,237138,1,8,0:0:0:0:
46,347,237236,1,0,0:0:0:0:
211,305,237333,1,0,0:0:0:0:
25,344,237430,1,0,0:0:0:0:
51,250,237527,1,8,0:0:0:0:
46,347,237624,1,0,0:0:0:0:
34,250,237721,6,0,P|31:200|44:152,1,81.25
75,55,237915,5,8,0:0:0:0:
113,116,238012,1,0,0:0:0:0:
185,103,238109,1,0,0:0:0:0:
147,42,238206,1,0,0:0:0:0:
223,164,238304,6,0,P|272:194|339:185,1,81.25,8|0,0:0|0:0,0:0:0:0:
185,103,238498,1,0,0:0:0:0:
147,42,238595,1,0,0:0:0:0:
223,164,238692,2,0,P|272:194|339:185,1,81.25,8|0,0:0|0:0,0:0:0:0:
451,120,238886,5,0,0:0:0:0:
388,80,238983,1,0,0:0:0:0:
317,99,239080,1,8,0:0:0:0:
335,27,239177,1,0,0:0:0:0:
356,96,239274,1,0,0:0:0:0:
343,167,239371,1,0,0:0:0:0:
263,47,239469,6,0,P|207:28|153:35,1,81.25,8|0,0:0|0:0,0:0:0:0:
356,96,239663,1,0,0:0:0:0:
343,167,239760,1,0,0:0:0:0:
263,47,239857,2,0,P|207:28|153:35,1,81.25,8|0,0:0|0:0,0:0:0:0:
84,220,240051,5,0,0:0:0:0:
116,154,240148,1,0,0:0:0:0:
181,186,240245,2,0,P|225:183|264:148,1,81.25,8|0,0:0|0:0,0:0:0:0:
55,20,240439,2,0,P|23:50|15:102,1,81.25
330,189,240634,2,0,P|334:145|306:100,1,81.25,8|0,0:0|0:0,0:0:0:0:
55,20,240828,2,0,P|23:50|15:102,1,81.25
330,189,241022,2,0,P|334:145|306:100,1,81.25,8|0,0:0|0:0,0:0:0:0:
204,328,241216,2,0,L|307:320,1,81.25
207,69,241410,2,0,L|125:75,1,81.25,8|0,0:0|0:0,0:0:0:0:
234,349,241604,2,0,L|337:341,1,81.25
392,62,241799,6,0,P|314:24|227:59,1,162.5,8|0,0:0|0:0,0:0:0:0:
234,349,241993,2,0,L|337:341,1,81.25
392,62,242187,2,0,P|314:24|227:59,1,162.5,8|0,0:0|0:0,0:0:0:0:
437,262,242575,6,0,B|429:201|429:201|413:181,1,81.25,8|0,0:0|0:0,0:0:0:0:
204,170,242770,2,0,B|249:128|249:128|274:123,1,81.25
341,339,242964,2,0,B|226:354|226:354|171:332,1,162.5,8|0,0:0|0:0,0:0:0:0:
204,170,243158,2,0,B|249:128|249:128|274:123,1,81.25
341,339,243352,2,0,B|226:354|226:354|171:332,1,162.5,8|0,0:0|0:0,0:0:0:0:
258,46,243740,2,0,B|373:31|373:31|428:53,1,162.5,8|0,0:0|0:0,0:0:0:0:
111,250,244129,2,0,L|103:154,1,81.25,8|0,0:0|0:0,0:0:0:0:
416,48,244323,1,0,0:0:0:0:
111,250,244517,2,0,L|103:154,1,81.25,8|0,0:0|0:0,0:0:0:0:
268,179,244711,5,0,0:0:0:0:
275,193,244808,1,0,0:0:0:0:
261,200,244905,1,8,0:0:0:0:
253,185,245003,1,0,0:0:0:0:
289,176,245100,5,0,0:0:0:0:
279,214,245197,1,0,0:0:0:0:
241,204,245294,1,8,0:0:0:0:
250,164,245391,1,0,0:0:0:0:
289,176,245488,1,0,0:0:0:0:
279,214,245585,1,0,0:0:0:0:
241,204,245682,1,8,0:0:0:0:
250,164,245779,1,0,0:0:0:0:
312,199,245876,5,0,0:0:0:0:
256,238,245973,1,0,0:0:0:0:
217,182,246071,1,8,0:0:0:0:
273,139,246168,1,0,0:0:0:0:
407,216,246265,5,0,0:0:0:0:
375,308,246362,1,0,0:0:0:0:
292,359,246459,1,8,0:0:0:0:
196,342,246556,1,0,0:0:0:0:
407,216,246653,1,0,0:0:0:0:
375,308,246750,1,0,0:0:0:0:
292,359,246847,1,8,0:0:0:0:
196,342,246944,1,0,0:0:0:0:
120,279,247041,6,0,B|106:228|77:208|77:208|111:190|137:205|137:205|106:150|135:83,1,243.75,4|0,0:0|0:0,0:0:0:0:
167,82,247430,2,0,L|112:64,1,40.625,8|0,0:0|0:0,0:0:0:0:
197,61,247527,2,0,L|142:43,1,40.625
230,39,247624,2,0,P|280:24|332:30,1,81.25,4|0,0:0|0:0,0:0:0:0:
167,82,247818,2,0,L|112:64,1,40.625,8|0,0:0|0:0,0:0:0:0:
197,61,247915,2,0,L|142:43,1,40.625
230,39,248012,2,0,P|280:24|332:30,1,81.25,4|0,0:0|0:0,0:0:0:0:
419,132,248206,6,0,L|458:144,1,40.625,8|0,0:0|0:0,0:0:0:0:
401,166,248304,2,0,L|440:178,1,40.625
383,208,248401,2,0,P|378:254|411:303,1,81.25,4|0,0:0|0:0,0:0:0:0:
231,335,248595,6,0,P|242:308|245:291,1,40.625,8|0,0:0|0:0,0:0:0:0:
192,327,248692,2,0,P|188:298|182:281,1,40.625
147,343,248789,2,0,P|108:349|66:344,1,81.25,4|0,0:0|0:0,0:0:0:0:
231,335,248983,6,0,P|242:308|245:291,1,40.625,8|0,0:0|0:0,0:0:0:0:
192,327,249080,2,0,P|188:298|182:281,1,40.625
147,343,249177,2,0,P|108:349|66:344,1,81.25,4|0,0:0|0:0,0:0:0:0:
75,187,249371,6,0,B|83:146|83:146|73:101,1,81.25,8|0,0:0|0:0,0:0:0:0:
147,27,249566,1,0,0:0:0:0:
186,88,249663,1,0,0:0:0:0:
255,109,249760,1,0,0:0:0:0:
324,85,249857,1,0,0:0:0:0:
371,28,249954,2,0,P|427:22|467:36,1,81.25,8|0,0:0|0:0,0:0:0:0:
255,109,250148,1,0,0:0:0:0:
324,85,250245,1,0,0:0:0:0:
371,28,250342,2,0,P|427:22|467:36,1,81.25,8|0,0:0|0:0,0:0:0:0:
415,215,250537,5,0,0:0:0:0:
352,254,250634,1,0,0:0:0:0:
279,246,250731,1,0,0:0:0:0:
225,194,250828,1,0,0:0:0:0:
211,123,250925,2,0,P|232:81|276:52,1,81.25,8|0,0:0|0:0,0:0:0:0:
384,331,251119,2,0,P|337:333|290:309,1,81.25
211,123,251313,2,0,P|232:81|276:52,1,81.25,8|0,0:0|0:0,0:0:0:0:
384,331,251507,2,0,P|337:333|290:309,1,81.25
350,140,251702,6,0,P|356:99|351:70,2,54.1666666666667,8|0|0,0:0|0:0|0:0,0:0:0:0:
363,176,251896,2,0,P|390:235|432:263,1,81.25,4|0,0:0|0:0,0:0:0:0:
207,268,252090,6,0,P|174:242|146:232,2,54.1666666666667,8|0|0,0:0|0:0|0:0,0:0:0:0:
244,274,252284,2,0,P|308:280|353:257,1,81.25,4|0,0:0|0:0,0:0:0:0:
207,268,252478,2,0,P|174:242|146:232,2,54.1666666666667,8|0|0,0:0|0:0|0:0,0:0:0:0:
244,274,252672,2,0,P|308:280|353:257,1,81.25,4|0,0:0|0:0,0:0:0:0:
376,135,252867,6,0,P|391:96|410:73,2,54.1666666666667,8|0|0,0:0|0:0|0:0,0:0:0:0:
346,158,253061,2,0,P|293:195|242:198,1,81.25,4|0,0:0|0:0,0:0:0:0:
77,176,253255,6,0,P|61:137|42:114,2,54.1666666666667,8|0|0,0:0|0:0|0:0,0:0:0:0:
107,199,253449,2,0,P|159:236|210:239,1,81.25,4|0,0:0|0:0,0:0:0:0:
77,176,253643,2,0,P|61:137|42:114,2,54.1666666666667,8|0|0,0:0|0:0|0:0,0:0:0:0:
107,199,253838,2,0,P|159:236|210:239,1,81.25,4|0,0:0|0:0,0:0:0:0:
197,84,254032,6,0,L|189:25,2,54.1666666666667,8|0|0,0:0|0:0|0:0,0:0:0:0:
237,121,254226,2,0,L|210:226,1,81.25,4|0,0:0|0:0,0:0:0:0:
335,327,254420,6,0,L|350:380,2,54.1666666666667,8|0|0,0:0|0:0|0:0,0:0:0:0:
352,276,254614,2,0,L|332:172,1,81.25,4|0,0:0|0:0,0:0:0:0:
335,327,254808,2,0,L|350:380,2,54.1666666666667,8|0|0,0:0|0:0|0:0,0:0:0:0:
352,276,255003,2,0,L|332:172,1,81.25,4|0,0:0|0:0,0:0:0:0:
315,35,255197,6,0,P|342:16|364:54,2,75.8333340565364,8|0|0,0:0|0:0|0:0,0:0:0:0:
286,69,255391,2,0,P|253:87|222:24,1,113.750001084805,4|0,0:0|0:0,0:0:0:0:
210,206,255585,6,0,P|224:169|231:212,2,75.8333340565364,8|0|0,0:0|0:0|0:0,0:0:0:0:
171,287,255779,2,0,B|136:231|161:316|42:315,1,113.750001084805,4|0,0:0|0:0,0:0:0:0:
210,206,255973,2,0,P|224:169|231:212,2,75.8333340565364,8|0|0,0:0|0:0|0:0,0:0:0:0:
171,287,256168,2,0,B|136:231|161:316|42:315,1,113.750001084805,4|0,0:0|0:0,0:0:0:0:
331,343,256362,6,0,L|357:250,1,81.25,8|0,0:0|0:0,0:0:0:0:
270,151,256556,1,0,0:0:0:0:
228,125,256653,1,0,0:0:0:0:
186,100,256750,2,0,L|80:123,1,81.25,8|0,0:0|0:0,0:0:0:0:
189,230,256944,1,0,0:0:0:0:
231,256,257041,1,0,0:0:0:0:
186,100,257138,2,0,L|80:123,1,81.25,8|0,0:0|0:0,0:0:0:0:
189,230,257333,1,0,0:0:0:0:
231,256,257430,1,0,0:0:0:0:
273,281,257527,2,0,L|379:258,1,81.25,8|0,0:0|0:0,0:0:0:0:
357,29,257721,5,0,0:0:0:0:
317,56,257818,1,0,0:0:0:0:
301,102,257915,1,0,0:0:0:0:
313,149,258012,1,0,0:0:0:0:
349,181,258109,2,0,P|403:190|428:162,1,81.25,8|0,0:0|0:0,0:0:0:0:
301,102,258304,1,0,0:0:0:0:
313,149,258401,1,0,0:0:0:0:
349,181,258498,2,0,P|403:190|428:162,1,81.25,8|0,0:0|0:0,0:0:0:0:
250,197,258692,5,0,0:0:0:0:
190,170,258789,1,0,0:0:0:0:
132,139,258886,2,0,L|225:118,1,81.25,8|0,0:0|0:0,0:0:0:0:
409,274,259080,2,0,L|316:253,1,81.25,8|0,0:0|0:0,0:0:0:0:
226,37,259274,2,0,B|291:6|356:18|386:74,1,162.5,8|0,0:0|0:0,0:0:0:0:
409,274,259469,2,0,L|316:253,1,81.25,8|0,0:0|0:0,0:0:0:0:
226,37,259663,2,0,B|296:3|367:9|410:55|423:126|386:178|322:209|244:175|244:175|289:249|259:345|196:368|119:345,1,650,8|0,0:0|0:0,0:0:0:0:
263,254,260634,2,0,B|255:324|208:360|157:352,1,162.5,8|0,0:0|0:0,0:0:0:0:
104,74,261022,6,0,P|192:61|280:97,1,162.5,8|0,0:0|0:0,0:0:0:0:
201,221,261313,2,0,P|136:185|209:162,1,162.5
242,301,261604,2,0,P|154:314|66:278,1,162.5,8|0,0:0|0:0,0:0:0:0:
137,198,261799,2,0,P|148:160|185:147,1,81.25
242,301,261993,2,0,P|154:314|66:278,1,162.5,8|0,0:0|0:0,0:0:0:0:
260,169,262284,2,0,P|346:234|309:304,1,162.5
186,142,262575,2,0,P|226:96|287:91,1,81.25,8|0,0:0|0:0,0:0:0:0:
413,299,262770,2,0,P|373:345|312:350,1,81.25
186,142,262964,2,0,P|226:96|287:91,1,81.25,8|0,0:0|0:0,0:0:0:0:
413,299,263158,2,0,P|373:345|312:350,1,81.25
296,30,263352,6,0,B|362:-28|463:-22|498:49|498:49|467:103|402:87|402:87|522:132|527:243|486:336,1,568.75,12|0,0:0|0:0,0:0:0:0:
421,91,264129,2,0,B|402:87|402:87|508:113|515:234|507:261,1,243.75,12|0,0:0|0:0,0:0:0:0:
326,297,264517,2,0,P|288:217|415:281,1,341.250013017655,12|0,0:0|0:0,0:0:0:0:
359,157,265294,2,0,P|421:190|427:260,1,146.250005578995
241,330,265682,5,4,0:0:0:0:
214,252,265779,1,0,0:0:0:0:
224,171,265876,1,8,0:0:0:0:
278,109,265973,1,0,0:0:0:0:
355,86,266071,2,0,P|412:96|458:120,1,81.25
214,252,266265,5,8,0:0:0:0:
149,203,266362,2,0,P|145:148|189:97,1,81.25
355,86,266459,2,0,P|412:96|458:120,1,81.25
214,252,266653,1,8,0:0:0:0:
149,203,266750,2,0,P|145:148|189:97,1,81.25
303,269,266944,2,0,P|307:324|263:375,1,81.25,0|8,0:0|0:0,0:0:0:0:
355,86,267138,1,0,0:0:0:0:
435,84,267236,2,0,P|488:99|520:157,1,81.25
286,164,267430,5,8,0:0:0:0:
227,108,267527,2,0,L|245:15,1,81.25
435,84,267624,2,0,P|488:99|520:157,1,81.25
286,164,267818,1,8,0:0:0:0:
227,108,267915,2,0,L|245:15,1,81.25
393,139,268109,5,0,0:0:0:0:
452,195,268206,2,0,L|434:288,1,81.25,8|0,0:0|0:0,0:0:0:0:
212,304,268401,5,0,0:0:0:0:
268,245,268498,2,0,L|361:263,1,81.25,0|8,0:0|0:0,0:0:0:0:
104,216,268692,5,0,0:0:0:0:
212,304,268789,1,0,0:0:0:0:
268,245,268886,2,0,L|361:263,1,81.25,0|8,0:0|0:0,0:0:0:0:
104,216,269080,1,0,0:0:0:0:
83,137,269177,2,0,P|125:109|184:110,1,81.25
268,245,269371,5,8,0:0:0:0:
247,324,269469,2,0,P|289:352|348:351,1,81.25
484,183,269663,5,0,0:0:0:0:
428,124,269760,1,8,0:0:0:0:
346,132,269857,1,0,0:0:0:0:
318,356,269954,1,0,0:0:0:0:
484,183,270051,1,0,0:0:0:0:
428,124,270148,1,8,0:0:0:0:
346,132,270245,1,0,0:0:0:0:
397,194,270342,5,0,0:0:0:0:
428,124,270439,1,0,0:0:0:0:
401,47,270537,1,8,0:0:0:0:
324,21,270634,1,0,0:0:0:0:
249,54,270731,2,0,P|218:110|224:163,1,81.25
336,283,270925,5,8,0:0:0:0:
414,266,271022,2,0,P|416:218|387:188,1,81.25
249,54,271119,2,0,P|218:110|224:163,1,81.25
336,283,271313,1,8,0:0:0:0:
414,266,271410,2,0,P|416:218|387:188,1,81.25
130,147,271604,2,0,P|127:194|156:224,1,81.25,0|8,0:0|0:0,0:0:0:0:
337,86,271799,1,0,0:0:0:0:
285,23,271896,2,0,L|181:5,1,81.25
285,149,272090,5,8,0:0:0:0:
320,193,272187,1,0,0:0:0:0:
285,23,272284,2,0,L|181:5,1,81.25
285,149,272478,1,8,0:0:0:0:
320,193,272575,1,0,0:0:0:0:
372,215,272672,5,0,0:0:0:0:
324,245,272770,2,0,P|304:296|310:341,1,81.25,0|8,0:0|0:0,0:0:0:0:
197,197,272964,5,0,0:0:0:0:
181,251,273061,2,0,P|198:302|231:333,1,81.25
285,149,273255,5,8,0:0:0:0:
230,130,273352,1,0,0:0:0:0:
181,251,273449,2,0,P|198:302|231:333,1,81.25
285,149,273643,1,8,0:0:0:0:
230,130,273740,1,0,0:0:0:0:
177,109,273838,2,0,L|74:135,1,81.25
320,70,274032,1,8,0:0:0:0:
375,58,274129,2,0,L|478:84,1,81.25
457,216,274323,5,0,0:0:0:0:
422,261,274420,1,8,0:0:0:0:
359,280,274517,1,0,0:0:0:0:
453,77,274614,1,0,0:0:0:0:
457,216,274711,1,0,0:0:0:0:
422,261,274808,1,8,0:0:0:0:
359,280,274905,1,0,0:0:0:0:
294,246,275003,5,0,0:0:0:0:
216,272,275100,1,0,0:0:0:0:
154,219,275197,1,8,0:0:0:0:
150,138,275294,1,0,0:0:0:0:
214,87,275391,2,0,P|263:93|297:116,1,81.25
216,272,275585,5,8,0:0:0:0:
152,323,275682,2,0,P|103:317|69:294,1,81.25
214,87,275779,2,0,P|263:93|297:116,1,81.25
216,272,275973,1,8,0:0:0:0:
152,323,276071,2,0,P|103:317|69:294,1,81.25
287,348,276265,2,0,P|335:354|374:341,1,81.25,0|8,0:0|0:0,0:0:0:0:
309,168,276459,1,0,0:0:0:0:
233,196,276556,2,0,P|212:252|220:283,1,81.25
413,219,276750,5,8,0:0:0:0:
482,176,276847,2,0,L|470:74,1,81.25
233,196,276944,2,0,P|212:252|220:283,1,81.25
413,219,277138,1,8,0:0:0:0:
482,176,277236,2,0,L|470:74,1,81.25
309,168,277430,5,0,0:0:0:0:
347,96,277527,2,0,L|285:13,1,81.25,8|0,0:0|0:0,0:0:0:0:
193,175,277721,5,0,0:0:0:0:
190,94,277818,2,0,L|95:53,1,81.25,0|8,0:0|0:0,0:0:0:0:
188,323,278012,1,0,0:0:0:0:
193,175,278109,1,0,0:0:0:0:
190,94,278206,2,0,L|95:53,1,81.25,0|8,0:0|0:0,0:0:0:0:
188,323,278401,1,0,0:0:0:0:
262,288,278498,2,0,P|275:233|262:197,1,81.25
64,286,278692,5,8,0:0:0:0:
29,211,278789,2,0,P|54:160|87:141,1,81.25
188,323,278983,1,0,0:0:0:0:
255,367,279080,1,8,0:0:0:0:
29,211,279177,2,0,P|54:160|87:141,1,81.25
188,323,279371,5,0,0:0:0:0:
255,367,279469,1,8,0:0:0:0:
327,328,279566,1,0,0:0:0:0:
334,247,279663,5,0,0:0:0:0:
254,261,279760,1,0,0:0:0:0:
176,234,279857,1,8,0:0:0:0:
135,163,279954,1,0,0:0:0:0:
138,81,280051,2,0,P|176:37|227:19,1,81.25
245,280,280245,2,0,P|190:266|153:234,1,81.25,8|0,2:0|2:0,2:0:0:0:
135,163,280342,1,0,0:0:0:0:
138,81,280439,2,0,P|176:37|227:19,1,81.25
245,280,280634,2,0,P|190:266|153:234,1,81.25,8|0,2:0|2:0,2:0:0:0:
302,65,280828,5,0,0:0:0:0:
379,40,280925,1,0,0:0:0:0:
441,91,281022,1,8,0:0:0:0:
364,117,281119,5,0,0:0:0:0:
414,181,281216,1,0,0:0:0:0:
370,249,281313,1,0,0:0:0:0:
404,322,281410,1,8,0:0:0:0:
364,117,281507,1,0,0:0:0:0:
414,181,281604,1,0,0:0:0:0:
370,249,281702,1,0,0:0:0:0:
404,322,281799,1,8,0:0:0:0:
446,252,281896,1,0,0:0:0:0:
320,185,281993,6,0,B|254:288|75:249|66:144|66:144|171:169|189:263|130:377,1,568.75,12|0,0:0|0:0,0:0:0:0:
66,144,282770,2,0,B|174:167|174:261|147:337,1,243.75,12|0,0:0|0:0,0:0:0:0:
215,164,283158,2,0,B|176:105|111:81|111:81|217:121|336:72,1,341.250013017655,12|0,0:0|0:0,0:0:0:0:
167,96,283935,2,0,B|215:118|311:81,1,146.250005578995,12|0,0:0|0:0,0:0:0:0:
372,41,284323,5,4,0:0:0:0:
263,371,284517,1,4,0:0:0:0:
467,117,284711,1,4,0:0:0:0:
168,295,284905,1,4,0:0:0:0:
467,117,285099,1,4,0:0:0:0:
168,295,285293,1,4,0:0:0:0:
50,114,287235,5,4,0:0:0:0:
50,114,287623,1,4,0:0:0:0:
474,237,287818,1,4,0:0:0:0:
21,289,288012,1,4,0:0:0:0:
490,69,288206,1,4,0:0:0:0:
256,192,290730,12,0,291119,0:0:0:0:
256,192,291119,12,0,293546,0:0:0:0:
265,57,293643,6,0,P|316:64|350:90,1,65,4|0,0:0|0:0,0:0:0:0:
174,311,294031,2,0,P|122:303|88:277,1,65,4|0,0:0|0:0,0:0:0:0:
174,311,294420,2,0,P|122:303|88:277,1,65,4|0,0:0|0:0,0:0:0:0:
265,28,296556,5,4,0:0:0:0:
265,28,296944,1,4,0:0:0:0:
328,364,297138,1,4,0:0:0:0:
338,64,297332,1,4,0:0:0:0:
237,383,297526,1,4,0:0:0:0:
160,50,297721,6,0,P|117:61|88:90,1,65
237,383,297915,1,4,0:0:0:0:
160,50,298109,2,0,P|117:61|88:90,1,65
176,280,298497,1,0,0:0:0:0:
218,210,298691,1,0,0:0:0:0:
178,138,298886,1,0,0:0:0:0:
218,210,299080,1,0,0:0:0:0:
178,138,299274,1,0,0:0:0:0:
257,281,299468,5,0,0:0:0:0:
288,287,299662,1,0,0:0:0:0:
319,282,299856,2,0,P|340:234|332:205,1,65
319,282,300245,2,0,P|340:234|332:205,1,65
114,76,300633,5,0,0:0:0:0:
346,48,300827,1,0,0:0:0:0:
114,76,301022,2,0,P|90:109|89:143,1,65
114,76,301410,2,0,P|90:109|89:143,1,65
398,308,301798,5,0,0:0:0:0:
58,351,301992,1,0,0:0:0:0:
398,308,302187,2,0,P|431:261|416:219,1,97.50000371933
398,308,302575,2,0,P|431:261|416:219,1,97.50000371933
268,36,302963,6,0,P|219:33|178:50,1,81.25
101,159,303157,1,8,0:0:0:0:
46,175,303255,2,0,P|34:113|39:80,1,81.25
204,244,303449,1,0,0:0:0:0:
259,260,303546,2,0,P|271:198|266:165,1,81.25,8|0,0:0|0:0,0:0:0:0:
35,95,303740,1,0,0:0:0:0:
204,244,303837,1,0,0:0:0:0:
259,260,303934,2,0,P|271:198|266:165,1,81.25,8|0,0:0|0:0,0:0:0:0:
109,309,304128,2,0,P|154:332|202:337,1,81.25
402,182,304323,2,0,P|368:202|341:232,1,81.25,8|0,0:0|0:0,0:0:0:0:
145,373,304517,2,0,P|195:370|239:350,1,81.25
466,219,304711,2,0,P|426:220|388:233,1,81.25,8|0,0:0|0:0,0:0:0:0:
145,373,304905,2,0,P|195:370|239:350,1,81.25
466,219,305099,2,0,P|426:220|388:233,1,81.25,8|0,0:0|0:0,0:0:0:0:
152,240,305293,6,0,L|170:151,1,81.25
395,97,305488,2,0,L|377:8,1,81.25,8|0,0:0|0:0,0:0:0:0:
85,184,305682,2,0,L|67:95,1,81.25
238,198,305876,2,0,L|256:109,1,81.25,8|0,0:0|0:0,0:0:0:0:
85,184,306070,2,0,L|67:95,1,81.25
238,198,306264,2,0,L|256:109,1,81.25,8|0,0:0|0:0,0:0:0:0:
219,298,306458,6,0,P|268:320|303:316,1,81.25
361,241,306653,2,0,P|396:221|436:220,1,81.25,8|0,0:0|0:0,0:0:0:0:
266,347,306847,2,0,P|319:341|347:320,1,81.25
408,249,307041,2,0,P|448:249|483:269,1,81.25,8|0,0:0|0:0,0:0:0:0:
266,347,307235,2,0,P|319:341|347:320,1,81.25
408,249,307429,2,0,P|448:249|483:269,1,81.25,8|0,0:0|0:0,0:0:0:0:
413,368,307623,5,0,0:0:0:0:
419,103,307818,6,0,B|412:48|412:48|391:26,1,81.25,8|0,0:0|0:0,0:0:0:0:
243,147,308012,2,0,B|226:94|226:94|235:65,1,81.25
493,149,308206,1,8,0:0:0:0:
243,147,308400,2,0,B|226:94|226:94|235:65,1,81.25
493,149,308594,1,8,0:0:0:0:
156,123,308789,2,0,P|160:31|243:-1,1,162.5,0|8,0:0|0:0,0:0:0:0:
333,163,309177,2,0,P|329:255|246:287,1,162.5,0|8,0:0|0:0,0:0:0:0:
333,163,309565,2,0,P|329:255|246:287,1,162.5,0|8,0:0|0:0,0:0:0:0:
281,33,309954,5,0,0:0:0:0:
176,296,310148,2,0,B|87:284|87:284|27:228,1,162.5,8|0,0:0|0:0,0:0:0:0:
316,118,310536,2,0,B|348:176|429:164,1,97.50000371933,4|0,0:0|0:0,0:0:0:0:
33,234,310730,1,0,0:0:0:0:
316,118,310924,2,0,B|348:176|435:184|475:133|475:133|419:183|385:260|429:346,1,390.00001487732,4|0,0:0|0:0,0:0:0:0:
417,220,311895,2,0,B|400:268|416:315,1,97.50000371933,4|0,0:0|0:0,0:0:0:0:
402,67,312284,6,0,P|359:38|315:30,1,81.25,8|0,0:0|0:0,0:0:0:0:
118,172,312478,2,0,L|91:69,1,81.25,8|0,0:0|0:0,0:0:0:0:
267,253,312672,2,0,P|237:280|200:296,1,81.25,8|0,0:0|0:0,0:0:0:0:
232,155,312866,2,0,L|334:183,1,81.25,8|0,0:0|0:0,0:0:0:0:
267,253,313060,2,0,P|237:280|200:296,1,81.25,8|0,0:0|0:0,0:0:0:0:
232,155,313255,2,0,L|334:183,1,81.25,8|0,0:0|0:0,0:0:0:0:
402,67,313449,6,0,P|359:38|315:30,1,81.25,8|0,0:0|0:0,0:0:0:0:
118,172,313643,2,0,L|91:69,1,81.25,8|0,0:0|0:0,0:0:0:0:
267,253,313837,2,0,P|237:280|200:296,1,81.25,8|0,0:0|0:0,0:0:0:0:
232,155,314031,2,0,L|334:183,1,81.25,8|0,0:0|0:0,0:0:0:0:
267,253,314225,2,0,P|237:280|200:296,1,81.25,8|0,0:0|0:0,0:0:0:0:
232,155,314420,2,0,L|334:183,1,81.25,8|0,0:0|0:0,0:0:0:0:
491,227,314614,5,0,0:0:0:0:
336,25,314808,6,0,P|283:31|250:52,1,81.25,8|0,0:0|0:0,0:0:0:0:
238,277,315002,2,0,P|197:273|161:255,1,81.25,8|0,0:0|0:0,0:0:0:0:
17,116,315196,2,0,B|27:240|27:240|64:303,1,162.5,8|0,0:0|0:0,0:0:0:0:
238,277,315390,2,0,P|197:273|161:255,1,81.25,8|0,0:0|0:0,0:0:0:0:
17,116,315585,2,0,B|27:240|27:240|64:303,1,162.5,8|0,0:0|0:0,0:0:0:0:
394,199,315973,2,0,B|342:312|342:312|285:358,1,162.5,8|0,0:0|0:0,0:0:0:0:
223,93,316361,1,0,0:0:0:0:
312,335,316556,1,0,0:0:0:0:
223,93,316750,1,0,0:0:0:0:
228,334,316944,6,0,L|322:320,1,81.25,8|0,0:0|0:0,0:0:0:0:
427,355,317138,2,0,L|333:341,1,81.25,8|0,0:0|0:0,0:0:0:0:
115,317,317332,2,0,L|209:303,1,81.25,8|0,0:0|0:0,0:0:0:0:
507,336,317526,2,0,P|509:251|453:194,1,162.5,8|0,0:0|0:0,0:0:0:0:
115,317,317721,2,0,L|209:303,1,81.25,8|0,0:0|0:0,0:0:0:0:
507,336,317915,2,0,P|509:251|453:194,1,162.5,8|0,0:0|0:0,0:0:0:0:
236,156,318303,5,4,0:0:0:0:
266,107,318400,1,4,0:0:0:0:
304,196,318497,1,4,0:0:0:0:
246,57,318594,1,4,0:0:0:0:
348,126,318691,5,4,0:0:0:0:
304,196,318886,1,4,0:0:0:0:
246,57,318983,1,4,0:0:0:0:
348,126,319080,1,4,0:0:0:0:
37,38,319468,1,4,0:0:0:0:
503,236,319856,1,4,0:0:0:0:
503,236,320245,1,4,0:0:0:0:
1,381,320633,1,4,0:0:0:0:
256,192,321022,12,0,321410,0:0:0:0:
256,192,321410,12,0,323837,0:0:0:0:
299,63,323934,6,0,P|359:72|402:101,1,97.50000371933,4|0,0:0|0:0,0:0:0:0:
458,224,324128,5,8,0:0:0:0:
409,285,324225,1,0,0:0:0:0:
342,244,324323,1,0,0:0:0:0:
278,199,324420,1,0,0:0:0:0:
339,322,324517,6,0,P|303:352|242:354,1,97.50000371933,8|0,0:0|0:0,0:0:0:0:
342,244,324711,1,0,0:0:0:0:
278,199,324808,1,0,0:0:0:0:
339,322,324905,2,0,P|303:352|242:354,1,97.50000371933,8|0,0:0|0:0,0:0:0:0:
83,277,325099,5,0,0:0:0:0:
141,226,325196,1,0,0:0:0:0:
171,154,325293,1,8,0:0:0:0:
93,164,325390,1,0,0:0:0:0:
35,113,325488,1,0,0:0:0:0:
5,41,325585,1,0,0:0:0:0:
19,188,325682,6,0,P|53:233|110:240,1,97.50000371933,8|0,0:0|0:0,0:0:0:0:
35,113,325876,1,0,0:0:0:0:
5,41,325973,1,0,0:0:0:0:
19,188,326070,2,0,P|53:233|110:240,1,97.50000371933,8|0,0:0|0:0,0:0:0:0:
108,88,326264,5,0,0:0:0:0:
173,45,326361,1,0,0:0:0:0:
245,74,326458,2,0,P|298:85|350:77,1,97.50000371933,8|0,0:0|0:0,0:0:0:0:
316,237,326653,2,0,P|363:211|398:171,1,97.50000371933
475,316,326847,2,0,P|495:265|496:213,1,97.50000371933,8|0,0:0|0:0,0:0:0:0:
316,237,327041,2,0,P|363:211|398:171,1,97.50000371933
475,316,327235,2,0,P|495:265|496:213,1,97.50000371933,8|0,0:0|0:0,0:0:0:0:
470,37,327429,2,0,B|420:23|420:23|370:41,1,97.50000371933
245,292,327623,2,0,P|306:322|359:315,1,97.50000371933,8|0,0:0|0:0,0:0:0:0:
227,79,327818,2,0,P|178:77|134:97,1,97.50000371933
290,354,328012,2,0,P|338:355|382:335,1,97.50000371933,8|0,0:0|0:0,0:0:0:0:
227,79,328206,2,0,P|178:77|134:97,1,97.50000371933
290,354,328400,2,0,P|338:355|382:335,1,97.50000371933,8|0,0:0|0:0,0:0:0:0:
322,166,328594,5,0,0:0:0:0:
243,161,328691,1,0,0:0:0:0:
196,223,328789,1,8,0:0:0:0:
122,249,328886,1,0,0:0:0:0:
50,218,328983,6,0,P|56:164|83:110,1,97.50000371933
288,30,329177,2,0,P|225:89|50:80,1,195.00000743866,8|0,0:0|0:0,0:0:0:0:
50,218,329371,2,0,P|56:164|83:110,1,97.50000371933
288,30,329565,2,0,P|162:109|18:55,1,292.50001115799,8|0,0:0|0:0,0:0:0:0:
213,9,329954,5,8,0:0:0:0:
288,30,330051,1,0,0:0:0:0:
335,91,330148,2,0,P|337:137|292:196,1,97.50000371933
364,19,330342,2,0,B|440:29|483:72|483:72|496:120|464:157|464:157|463:194,1,195.00000743866,8|0,0:0|0:0,0:0:0:0:
335,91,330536,2,0,P|337:137|292:196,1,97.50000371933
364,19,330730,2,0,B|440:29|483:72|483:72|496:120|464:157|464:157|463:194|489:255,1,292.50001115799,8|0,0:0|0:0,0:0:0:0:
496,324,331119,6,0,P|437:312|400:288,1,97.50000371933,8|0,0:0|0:0,0:0:0:0:
151,237,331313,2,0,P|210:245|253:236,1,97.50000371933
425,352,331507,2,0,P|373:320|347:285,1,97.50000371933,8|0,0:0|0:0,0:0:0:0:
151,237,331701,2,0,P|210:245|253:236,1,97.50000371933
425,352,331895,2,0,P|373:320|347:285,1,97.50000371933,8|0,0:0|0:0,0:0:0:0:
253,47,332089,6,0,P|188:36|141:50,1,97.50000371933
279,143,332284,1,8,0:0:0:0:
328,83,332381,2,0,P|328:13|310:-13,1,97.50000371933
104,162,332575,1,0,0:0:0:0:
193,123,332672,1,8,0:0:0:0:
115,182,332769,1,0,0:0:0:0:
314,0,332866,1,0,0:0:0:0:
104,162,332963,1,0,0:0:0:0:
193,123,333060,1,8,0:0:0:0:
115,182,333157,1,0,0:0:0:0:
175,106,333255,6,0,P|131:83|73:82,1,97.50000371933
43,246,333449,5,8,0:0:0:0:
87,309,333546,1,0,0:0:0:0:
163,293,333643,1,0,0:0:0:0:
225,246,333740,1,0,0:0:0:0:
300,351,333837,6,0,P|363:370|418:362,1,97.50000371933,8|0,0:0|0:0,0:0:0:0:
163,293,334031,1,0,0:0:0:0:
225,246,334128,1,0,0:0:0:0:
300,351,334225,2,0,P|363:370|418:362,1,97.50000371933,8|0,0:0|0:0,0:0:0:0:
474,208,334420,5,0,0:0:0:0:
416,154,334517,1,0,0:0:0:0:
491,130,334614,1,8,0:0:0:0:
442,191,334711,1,0,0:0:0:0:
369,217,334808,1,0,0:0:0:0:
293,200,334905,1,0,0:0:0:0:
428,267,335002,6,0,P|416:343|377:371,1,97.50000371933,8|0,0:0|0:0,0:0:0:0:
369,217,335196,1,0,0:0:0:0:
293,200,335293,1,0,0:0:0:0:
428,267,335390,2,0,P|416:343|377:371,1,97.50000371933,8|0,0:0|0:0,0:0:0:0:
236,259,335585,5,0,0:0:0:0:
214,184,335682,1,0,0:0:0:0:
262,123,335779,2,0,P|308:82|327:40,1,97.50000371933,8|0,0:0|0:0,0:0:0:0:
95,221,335973,2,0,P|107:281|134:318,1,97.50000371933
93,27,336167,2,0,P|34:7|-11:12,1,97.50000371933,8|0,0:0|0:0,0:0:0:0:
95,221,336361,2,0,P|107:281|134:318,1,97.50000371933
93,27,336556,2,0,P|34:7|-11:12,1,97.50000371933,8|0,0:0|0:0,0:0:0:0:
244,219,336750,2,0,L|363:208,1,97.50000371933
165,110,336944,2,0,L|46:121,1,97.50000371933,8|0,0:0|0:0,0:0:0:0:
276,244,337138,2,0,L|395:233,1,97.50000371933
39,272,337332,6,0,P|101:366|199:346,1,195.00000743866,8|0,0:0|0:0,0:0:0:0:
276,244,337526,2,0,L|395:233,1,97.50000371933
39,272,337721,2,0,P|101:366|199:346,1,195.00000743866,8|0,0:0|0:0,0:0:0:0:
431,285,338109,6,0,P|444:224|482:179,1,97.50000371933,8|0,0:0|0:0,0:0:0:0:
239,225,338303,2,0,P|258:165|247:107,1,97.50000371933
511,310,338497,2,0,P|450:372|348:301,1,195.00000743866,8|0,0:0|0:0,0:0:0:0:
239,225,338691,2,0,P|258:165|247:107,1,97.50000371933
511,310,338886,2,0,P|450:372|348:301,1,195.00000743866,8|0,0:0|0:0,0:0:0:0:
173,111,339274,2,0,P|234:49|336:120,1,195.00000743866,8|0,0:0|0:0,0:0:0:0:
75,352,339662,2,0,P|57:298|66:250,1,97.50000371933,8|0,0:0|0:0,0:0:0:0:
323,85,339856,1,0,0:0:0:0:
75,352,340051,2,0,P|57:298|66:250,1,97.50000371933,8|0,0:0|0:0,0:0:0:0:
173,190,340245,5,0,0:0:0:0:
216,210,340342,1,0,0:0:0:0:
249,245,340439,1,8,0:0:0:0:
260,292,340536,1,0,0:0:0:0:
321,214,340633,5,0,0:0:0:0:
317,282,340730,1,0,0:0:0:0:
279,338,340827,1,8,0:0:0:0:
216,365,340924,1,0,0:0:0:0:
321,214,341022,1,0,0:0:0:0:
317,282,341119,1,0,0:0:0:0:
279,338,341216,1,8,0:0:0:0:
216,365,341313,1,0,0:0:0:0:
333,373,341410,5,0,0:0:0:0:
246,358,341507,1,0,0:0:0:0:
178,300,341604,1,8,0:0:0:0:
144,219,341701,1,0,0:0:0:0:
157,132,341798,1,0,0:0:0:0:
209,61,341895,1,0,0:0:0:0:
291,31,341992,1,8,0:0:0:0:
377,47,342089,1,0,0:0:0:0:
157,132,342187,1,0,0:0:0:0:
209,61,342284,1,0,0:0:0:0:
291,31,342381,1,8,0:0:0:0:
377,47,342478,1,0,0:0:0:0:
444,101,342575,6,0,P|465:173|451:217,1,97.50000371933
275,113,342769,5,8,0:0:0:0:
342,151,342866,1,0,0:0:0:0:
326,227,342963,1,0,0:0:0:0:
399,252,343060,1,0,0:0:0:0:
341,304,343157,6,0,P|398:335|443:320,1,97.50000371933,8|0,0:0|0:0,0:0:0:0:
326,227,343352,1,0,0:0:0:0:
399,252,343449,1,0,0:0:0:0:
341,304,343546,2,0,P|398:335|443:320,1,97.50000371933,8|0,0:0|0:0,0:0:0:0:
421,171,343740,5,0,0:0:0:0:
342,170,343837,1,0,0:0:0:0:
285,223,343934,1,8,0:0:0:0:
233,164,344031,1,0,0:0:0:0:
209,238,344128,1,0,0:0:0:0:
261,295,344225,1,0,0:0:0:0:
157,181,344323,6,0,P|107:167|51:177,1,97.50000371933,8|0,0:0|0:0,0:0:0:0:
209,238,344517,1,0,0:0:0:0:
261,295,344614,1,0,0:0:0:0:
157,181,344711,2,0,P|107:167|51:177,1,97.50000371933,8|0,0:0|0:0,0:0:0:0:
198,342,344905,5,0,0:0:0:0:
261,295,345002,1,0,0:0:0:0:
333,323,345099,2,0,P|393:321|441:291,1,97.50000371933,8|0,0:0|0:0,0:0:0:0:
304,101,345293,2,0,P|244:103|196:133,1,97.50000371933
415,352,345488,2,0,P|459:311|477:258,1,97.50000371933,8|0,0:0|0:0,0:0:0:0:
304,101,345682,2,0,P|244:103|196:133,1,97.50000371933
415,352,345876,2,0,P|459:311|477:258,1,97.50000371933,8|0,0:0|0:0,0:0:0:0:
125,256,346070,2,0,B|132:333|132:333|161:308,1,97.50000371933
162,66,346264,2,0,P|109:37|52:39,1,97.50000371933,8|0,0:0|0:0,0:0:0:0:
264,209,346458,2,0,P|322:196|364:158,1,97.50000371933
87,63,346653,2,0,P|28:75|-13:113,1,97.50000371933,8|0,0:0|0:0,0:0:0:0:
264,209,346847,2,0,P|322:196|364:158,1,97.50000371933
87,63,347041,2,0,P|28:75|-13:113,1,97.50000371933,8|0,0:0|0:0,0:0:0:0:
205,137,347235,5,0,0:0:0:0:
272,99,347332,1,0,0:0:0:0:
314,33,347429,1,8,0:0:0:0:
376,78,347526,1,0,0:0:0:0:
432,24,347623,6,0,P|455:88|439:128,1,97.50000371933
344,235,347818,2,0,P|409:150|470:231,1,195.00000743866,8|0,0:0|0:0,0:0:0:0:
432,24,348012,2,0,P|455:88|439:128,1,97.50000371933
344,235,348206,2,0,P|409:150|441:275,1,292.50001115799,8|0,0:0|0:0,0:0:0:0:
306,303,348594,5,8,0:0:0:0:
344,235,348691,1,0,0:0:0:0:
269,210,348789,2,0,P|225:210|172:246,1,97.50000371933
383,301,348983,6,0,B|453:294|480:347|480:347|438:275|453:187,1,195.00000743866,8|0,0:0|0:0,0:0:0:0:
269,210,349177,2,0,P|225:210|172:246,1,97.50000371933
383,301,349371,2,0,B|453:294|480:347|480:347|436:276|453:187|489:142,1,292.50001115799,8|0,0:0|0:0,0:0:0:0:
511,108,349759,6,0,P|464:71|414:66,1,97.50000371933,8|0,0:0|0:0,0:0:0:0:
216,141,349954,2,0,P|207:200|228:246,1,97.50000371933
459,343,350148,2,0,P|467:283|446:237,1,97.50000371933,8|0,0:0|0:0,0:0:0:0:
216,141,350342,2,0,P|207:200|228:246,1,97.50000371933
459,343,350536,2,0,P|467:283|446:237,1,97.50000371933,8|0,0:0|0:0,0:0:0:0:
296,48,350730,6,0,L|178:58,1,97.50000371933
26,231,350924,1,8,0:0:0:0:
81,175,351022,2,0,L|199:185,1,97.50000371933
356,312,351216,1,0,0:0:0:0:
278,253,351313,1,8,0:0:0:0:
340,327,351410,1,0,0:0:0:0:
178,183,351507,1,0,0:0:0:0:
356,312,351604,1,0,0:0:0:0:
278,253,351701,1,8,0:0:0:0:
340,327,351798,1,0,0:0:0:0:
297,238,351895,6,0,P|305:190|334:135,1,97.50000371933
480,80,352089,5,8,0:0:0:0:
436,15,352187,1,0,0:0:0:0:
363,43,352284,1,0,0:0:0:0:
440,57,352381,1,0,0:0:0:0:
286,29,352478,6,0,P|219:41|173:80,1,97.50000371933,8|0,0:0|0:0,0:0:0:0:
363,43,352672,1,0,0:0:0:0:
440,57,352769,1,0,0:0:0:0:
286,29,352866,2,0,P|219:41|173:80,1,97.50000371933,8|0,0:0|0:0,0:0:0:0:
120,211,353060,5,0,0:0:0:0:
182,256,353157,1,0,0:0:0:0:
190,180,353255,1,8,0:0:0:0:
142,241,353352,5,0,0:0:0:0:
212,210,353449,1,0,0:0:0:0:
150,165,353546,1,0,0:0:0:0:
204,286,353643,6,0,P|263:270|287:228,1,97.50000371933,8|0,0:0|0:0,0:0:0:0:
212,210,353837,1,0,0:0:0:0:
150,165,353934,1,0,0:0:0:0:
204,286,354031,2,0,P|263:270|287:228,1,97.50000371933,8|0,0:0|0:0,0:0:0:0:
273,56,354225,5,0,0:0:0:0:
350,45,354323,1,0,0:0:0:0:
381,115,354420,2,0,P|451:139|481:130,1,97.50000371933,8|0,0:0|0:0,0:0:0:0:
194,73,354614,2,0,P|124:46|107:20,1,97.50000371933
431,177,354808,2,0,P|500:150|517:124,1,97.50000371933,8|0,0:0|0:0,0:0:0:0:
194,73,355002,2,0,P|124:46|107:20,1,97.50000371933
431,177,355196,2,0,P|500:150|517:124,1,97.50000371933,8|0,0:0|0:0,0:0:0:0:
231,226,355390,2,0,L|216:340,1,97.50000371933
361,115,355585,2,0,L|373:18,1,97.50000371933,8|0,0:0|0:0,0:0:0:0:
360,253,355779,2,0,L|372:349,1,97.50000371933
250,41,355973,6,0,L|39:60,1,195.00000743866,8|0,0:0|0:0,0:0:0:0:
360,253,356167,2,0,L|372:349,1,97.50000371933
250,41,356361,2,0,L|39:60,1,195.00000743866,8|0,0:0|0:0,0:0:0:0:
262,343,356750,2,0,L|473:324,1,195.00000743866,8|0,0:0|0:0,0:0:0:0:
85,175,357138,2,0,P|53:288|78:382,1,195.00000743866,8|0,0:0|0:0,0:0:0:0:
456,325,357332,1,0,0:0:0:0:
85,175,357526,2,0,P|53:288|78:382,1,195.00000743866,8|0,0:0|0:0,0:0:0:0:
427,209,357915,2,0,P|459:96|434:2,1,195.00000743866,8|0,0:0|0:0,0:0:0:0:
64,73,358303,2,0,L|172:100,1,97.50000371933,8|0,0:0|0:0,0:0:0:0:
443,22,358497,1,0,0:0:0:0:
64,73,358691,2,0,L|172:100,1,97.50000371933,8|0,0:0|0:0,0:0:0:0:
332,126,358886,5,8,0:0:0:0:
340,183,358983,1,0,0:0:0:0:
322,239,359080,1,0,0:0:0:0:
274,273,359177,1,0,0:0:0:0:
188,218,359274,5,0,0:0:0:0:
180,275,359371,1,0,0:0:0:0:
198,331,359468,1,0,0:0:0:0:
246,365,359565,1,0,0:0:0:0:
188,218,359662,1,0,0:0:0:0:
180,275,359759,1,0,0:0:0:0:
198,331,359856,1,0,0:0:0:0:
246,365,359954,1,0,0:0:0:0:
368,295,360051,5,8,0:0:0:0:
378,217,360148,1,0,0:0:0:0:
334,152,360245,1,0,0:0:0:0:
263,119,360342,1,0,0:0:0:0:
186,138,360439,1,0,0:0:0:0:
138,199,360536,1,0,0:0:0:0:
134,277,360633,1,0,0:0:0:0:
171,344,360730,1,0,0:0:0:0:
186,138,360827,1,0,0:0:0:0:
138,199,360924,1,0,0:0:0:0:
134,277,361022,1,0,0:0:0:0:
171,344,361119,1,0,0:0:0:0:
246,365,361216,5,4,0:0:0:0:
209,297,361313,1,0,0:0:0:0:
134,277,361410,1,8,0:0:0:0:
66,236,361507,1,0,0:0:0:0:
45,161,361604,2,0,P|78:100|113:77,1,97.50000371933
308,140,361798,5,8,0:0:0:0:
261,201,361895,2,0,P|209:197|159:172,1,97.50000371933
45,161,361992,2,0,P|78:100|113:77,1,97.50000371933
308,140,362187,5,8,0:0:0:0:
261,201,362284,2,0,P|209:197|159:172,1,97.50000371933
385,233,362478,2,0,P|432:255|487:258,1,97.50000371933,0|8,0:0|0:0,0:0:0:0:
277,280,362672,1,0,0:0:0:0:
296,355,362769,2,0,P|353:377|401:371,1,97.50000371933
447,158,362963,5,8,0:0:0:0:
484,88,363060,2,0,L|470:-13,1,97.50000371933
296,355,363157,2,0,P|353:377|401:371,1,97.50000371933
447,158,363352,1,8,0:0:0:0:
484,88,363449,2,0,L|470:-13,1,97.50000371933
385,233,363643,5,0,0:0:0:0:
348,163,363740,2,0,L|362:62,1,97.50000371933,8|0,0:0|0:0,0:0:0:0:
227,265,363934,5,0,0:0:0:0:
264,195,364031,2,0,L|250:94,1,97.50000371933,0|8,0:0|0:0,0:0:0:0:
77,65,364225,5,0,0:0:0:0:
227,265,364323,1,0,0:0:0:0:
264,195,364420,2,0,L|250:94,1,97.50000371933,0|8,0:0|0:0,0:0:0:0:
77,65,364614,1,0,0:0:0:0:
40,133,364711,2,0,P|32:201|58:247,1,97.50000371933
264,195,364905,5,8,0:0:0:0:
262,117,365002,2,0,P|234:54|189:27,1,97.50000371933
112,176,365196,5,0,0:0:0:0:
175,221,365293,1,8,0:0:0:0:
205,292,365390,1,0,0:0:0:0:
212,37,365488,1,0,0:0:0:0:
112,176,365585,1,0,0:0:0:0:
175,221,365682,1,8,0:0:0:0:
205,292,365779,1,0,0:0:0:0:
196,369,365876,5,0,0:0:0:0:
164,297,365973,1,0,0:0:0:0:
206,231,366070,1,8,0:0:0:0:
284,224,366167,1,0,0:0:0:0:
327,288,366264,2,0,P|389:320|447:322,1,97.50000371933
461,87,366458,5,8,0:0:0:0:
403,34,366556,2,0,P|344:24|294:40,1,97.50000371933
327,288,366653,2,0,P|389:320|447:322,1,97.50000371933
461,87,366847,5,8,0:0:0:0:
403,34,366944,2,0,P|344:24|294:40,1,97.50000371933
396,230,367138,2,0,P|455:240|505:224,1,97.50000371933,0|8,0:0|0:0,0:0:0:0:
252,93,367332,1,0,0:0:0:0:
189,153,367429,2,0,P|141:162|94:151,1,97.50000371933
359,145,367623,6,0,B|378:229|378:229|362:284,1,130,12|0,0:0|0:0,0:0:0:0:
189,153,367818,2,0,P|141:162|94:151,1,97.50000371933
359,145,368012,2,0,B|378:229|378:229|362:284,1,130,12|0,0:0|0:0,0:0:0:0:
207,49,368206,5,0,0:0:0:0:
153,145,368303,2,0,B|134:229|134:229|150:284,1,130,12|0,0:0|0:0,0:0:0:0:
315,49,368497,5,0,0:0:0:0:
369,145,368594,2,0,B|388:229|388:229|372:284,1,130,12|0,0:0|0:0,0:0:0:0:
197,49,368789,5,0,0:0:0:0:
143,145,368886,2,0,B|124:229|124:229|140:284,1,130,12|0,0:0|0:0,0:0:0:0:
369,145,368983,2,0,B|388:229|388:229|372:284,1,130,12|0,0:0|0:0,0:0:0:0:
197,49,369177,1,0,0:0:0:0:
143,145,369274,2,0,B|124:229|124:229|140:284,1,130,12|0,0:0|0:0,0:0:0:0:
325,49,369468,5,0,0:0:0:0:
379,145,369565,2,0,B|398:229|398:229|382:284,1,130,12|0,0:0|0:0,0:0:0:0:
187,49,369759,5,0,0:0:0:0:
133,145,369856,2,0,B|114:229|114:229|130:284,1,130,12|0,0:0|0:0,0:0:0:0:
335,49,370051,5,0,0:0:0:0:
187,49,370148,1,0,0:0:0:0:
133,145,370245,2,0,B|114:229|114:229|130:284,1,130,12|0,0:0|0:0,0:0:0:0:
335,49,370439,1,0,0:0:0:0:
315,134,370536,5,4,0:0:0:0:
388,106,370633,1,0,0:0:0:0:
457,140,370730,1,8,0:0:0:0:
476,215,370827,1,0,0:0:0:0:
435,282,370924,2,0,P|379:290|318:276,1,97.50000371933
130,221,371119,5,8,0:0:0:0:
90,288,371216,2,0,P|135:336|191:348,1,97.50000371933
435,282,371313,2,0,P|379:290|318:276,1,97.50000371933
130,221,371507,1,8,0:0:0:0:
90,288,371604,2,0,P|135:336|191:348,1,97.50000371933
96,133,371798,2,0,P|47:128|3:146,1,97.50000371933,0|8,0:0|0:0,0:0:0:0:
252,251,371992,1,0,0:0:0:0:
314,204,372089,2,0,L|304:93,1,97.50000371933
157,60,372284,5,8,0:0:0:0:
222,18,372381,2,0,P|282:14|341:29,1,97.50000371933
314,204,372478,2,0,L|304:93,1,97.50000371933
157,60,372672,1,8,0:0:0:0:
222,18,372769,2,0,P|282:14|341:29,1,97.50000371933
339,283,372963,5,0,0:0:0:0:
274,325,373060,2,0,P|214:329|155:314,1,97.50000371933,8|0,0:0|0:0,0:0:0:0:
388,93,373255,5,0,0:0:0:0:
430,158,373352,2,0,P|434:218|419:277,1,97.50000371933,0|8,0:0|0:0,0:0:0:0:
219,128,373546,5,0,0:0:0:0:
388,93,373643,1,0,0:0:0:0:
430,158,373740,2,0,P|434:218|419:277,1,97.50000371933,0|8,0:0|0:0,0:0:0:0:
219,128,373934,1,0,0:0:0:0:
262,63,374031,2,0,L|374:42,1,97.50000371933
284,243,374225,5,8,0:0:0:0:
327,178,374323,2,0,L|439:157,1,97.50000371933
447,319,374517,5,0,0:0:0:0:
377,353,374614,1,8,0:0:0:0:
298,351,374711,1,0,0:0:0:0:
422,160,374808,1,0,0:0:0:0:
447,319,374905,1,0,0:0:0:0:
377,353,375002,1,8,0:0:0:0:
298,351,375099,1,0,0:0:0:0:
235,304,375196,5,0,0:0:0:0:
284,243,375293,1,0,0:0:0:0:
254,171,375390,2,0,P|200:145|114:145,1,97.50000371933,8|0,0:0|0:0,0:0:0:0:
16,210,375585,2,0,P|70:236|156:236,1,97.50000371933,8|0,0:0|0:0,0:0:0:0:
343,115,375779,2,0,P|263:60|86:49,1,195.00000743866,8|0,0:0|0:0,0:0:0:0:
16,210,375973,2,0,P|70:236|156:236,1,97.50000371933,8|0,0:0|0:0,0:0:0:0:
343,115,376167,2,0,P|263:60|86:49,1,195.00000743866,8|0,0:0|0:0,0:0:0:0:
233,342,376556,2,0,P|336:363|491:307,1,195.00000743866,8|0,0:0|0:0,0:0:0:0:
381,31,376944,2,0,P|308:31|250:78,1,97.50000371933,8|0,0:0|0:0,0:0:0:0:
423,346,377138,1,0,0:0:0:0:
381,31,377332,2,0,P|308:31|250:78,1,97.50000371933,8|0,0:0|0:0,0:0:0:0:
210,207,377526,5,12,0:0:0:0:
143,246,377623,1,0,0:0:0:0:
68,225,377721,1,0,0:0:0:0:
40,151,377818,1,0,0:0:0:0:
85,88,377915,1,0,0:0:0:0:
159,63,378012,1,0,0:0:0:0:
234,82,378109,1,0,0:0:0:0:
307,106,378206,1,0,0:0:0:0:
85,88,378303,1,0,0:0:0:0:
159,63,378400,1,0,0:0:0:0:
234,82,378497,1,0,0:0:0:0:
307,106,378594,1,0,0:0:0:0:
383,89,378691,5,12,0:0:0:0:
302,122,378789,1,0,0:0:0:0:
261,200,378886,1,0,0:0:0:0:
283,284,378983,1,0,0:0:0:0:
355,332,379080,1,0,0:0:0:0:
443,326,379177,1,0,0:0:0:0:
495,255,379274,1,0,0:0:0:0:
495,166,379371,1,0,0:0:0:0:
355,332,379468,1,0,0:0:0:0:
443,326,379565,1,0,0:0:0:0:
495,255,379662,1,0,0:0:0:0:
495,166,379759,1,0,0:0:0:0:
433,104,379856,5,4,0:0:0:0:
419,190,379954,1,0,0:0:0:0:
358,254,380051,1,0,0:0:0:0:
271,266,380148,1,0,0:0:0:0:
194,221,380245,2,0,P|137:204|69:207,1,97.50000371933
321,146,380439,5,8,0:0:0:0:
354,64,380536,2,0,P|288:24|240:24,1,97.50000371933,0|8,0:0|0:0,0:0:0:0:
194,221,380633,2,0,P|137:204|69:207,1,97.50000371933
321,146,380827,1,8,0:0:0:0:
354,64,380924,2,0,P|288:24|240:24,1,97.50000371933,0|8,0:0|0:0,0:0:0:0:
124,284,381119,2,0,P|190:324|238:324,1,97.50000371933,0|8,0:0|0:0,0:0:0:0:
188,107,381313,1,0,0:0:0:0:
132,37,381410,2,0,P|64:29|16:44,1,97.50000371933
244,223,381604,5,8,0:0:0:0:
282,144,381701,2,0,L|400:135,1,97.50000371933,0|8,0:0|0:0,0:0:0:0:
132,37,381798,2,0,P|64:29|16:44,1,97.50000371933
244,223,381992,1,8,0:0:0:0:
282,144,382089,2,0,L|400:135,1,97.50000371933,0|8,0:0|0:0,0:0:0:0:
202,325,382284,5,0,0:0:0:0:
164,246,382381,2,0,L|46:237,1,97.50000371933
311,291,382575,5,8,0:0:0:0:
349,212,382672,2,0,L|467:203,1,97.50000371933
370,363,382866,5,0,0:0:0:0:
311,291,382963,1,8,0:0:0:0:
349,212,383060,2,0,L|467:203,1,97.50000371933
370,363,383255,1,0,0:0:0:0:
282,371,383352,2,0,P|228:313|229:256,1,97.50000371933,8|0,0:0|0:0,0:0:0:0:
20,167,383546,5,0,0:0:0:0:
57,247,383643,2,0,P|134:264|183:235,1,97.50000371933,0|8,0:0|0:0,0:0:0:0:
305,71,383837,5,0,0:0:0:0:
263,147,383934,1,0,0:0:0:0:
217,222,384031,1,0,0:0:0:0:
149,259,384128,1,0,0:0:0:0:
305,71,384225,1,0,0:0:0:0:
263,147,384323,1,0,0:0:0:0:
217,222,384420,1,0,0:0:0:0:
168,294,384517,5,8,0:0:0:0:
245,254,384614,1,0,0:0:0:0:
331,271,384711,1,8,0:0:0:0:
414,246,384808,1,0,0:0:0:0:
465,174,384905,2,0,P|449:115|412:85,1,97.50000371933
179,149,385099,5,8,0:0:0:0:
147,66,385196,2,0,P|202:38|243:48,1,97.50000371933
465,174,385293,2,0,P|449:115|412:85,1,97.50000371933
179,149,385488,1,8,0:0:0:0:
147,66,385585,2,0,P|202:38|243:48,1,97.50000371933
231,346,385779,2,0,P|176:374|135:364,1,97.50000371933,0|8,0:0|0:0,0:0:0:0:
290,176,385973,1,0,0:0:0:0:
378,172,386070,2,0,L|358:281,1,97.50000371933
115,260,386264,1,8,0:0:0:0:
83,178,386361,1,0,0:0:0:0:
378,172,386458,2,0,L|358:281,1,97.50000371933
115,260,386653,1,8,0:0:0:0:
83,178,386750,1,0,0:0:0:0:
108,94,386847,5,0,0:0:0:0:
177,130,386944,2,0,P|239:118|273:95,1,97.50000371933,0|8,0:0|0:0,0:0:0:0:
378,172,387138,5,0,0:0:0:0:
374,247,387235,2,0,P|344:285|302:310,1,97.50000371933
83,178,387429,5,8,0:0:0:0:
71,254,387526,1,0,0:0:0:0:
374,247,387623,2,0,P|344:285|302:310,1,97.50000371933
83,178,387818,1,8,0:0:0:0:
71,254,387915,1,0,0:0:0:0:
97,327,388012,2,0,L|208:312,1,97.50000371933
469,275,388206,5,8,0:0:0:0:
443,348,388303,2,0,L|332:333,1,97.50000371933
277,240,388497,5,0,0:0:0:0:
272,162,388594,1,8,0:0:0:0:
303,91,388691,1,0,0:0:0:0:
346,334,388789,1,0,0:0:0:0:
277,240,388886,1,0,0:0:0:0:
272,162,388983,1,8,0:0:0:0:
303,91,389080,1,0,0:0:0:0:
370,51,389177,5,0,0:0:0:0:
325,114,389274,1,0,0:0:0:0:
248,132,389371,1,8,0:0:0:0:
176,102,389468,1,0,0:0:0:0:
150,28,389565,2,0,P|101:68|96:99,1,97.50000371933
238,244,389759,5,8,0:0:0:0:
313,224,389856,2,0,P|278:174|219:169,1,97.50000371933
150,28,389954,2,0,P|101:68|96:99,1,97.50000371933
238,244,390148,1,8,0:0:0:0:
313,224,390245,2,0,P|278:174|219:169,1,97.50000371933
114,313,390439,2,0,P|149:363|208:368,1,97.50000371933,0|8,0:0|0:0,0:0:0:0:
176,102,390633,1,0,0:0:0:0:
109,60,390730,2,0,L|11:80,1,97.50000371933
154,241,390924,5,8,0:0:0:0:
115,172,391022,2,0,P|46:164|3:183,1,97.50000371933
109,60,391119,2,0,L|11:80,1,97.50000371933
154,241,391313,1,8,0:0:0:0:
115,172,391410,2,0,P|46:164|3:183,1,97.50000371933
333,246,391604,5,0,0:0:0:0:
294,177,391701,2,0,P|225:169|182:188,1,97.50000371933,8|0,0:0|0:0,0:0:0:0:
512,251,391895,5,0,0:0:0:0:
473,182,391992,2,0,P|404:174|361:193,1,97.50000371933,0|8,0:0|0:0,0:0:0:0:
278,306,392187,5,0,0:0:0:0:
512,251,392284,1,0,0:0:0:0:
473,182,392381,2,0,P|404:174|361:193,1,97.50000371933,0|8,0:0|0:0,0:0:0:0:
278,306,392575,1,0,0:0:0:0:
346,342,392672,2,0,P|405:334|421:287,1,97.50000371933
283,129,392866,5,8,0:0:0:0:
217,169,392963,2,0,P|194:224|227:261,1,97.50000371933
375,158,393157,5,0,0:0:0:0:
383,80,393255,1,8,0:0:0:0:
328,25,393352,1,0,0:0:0:0:
211,252,393449,1,0,0:0:0:0:
375,158,393546,1,0,0:0:0:0:
383,80,393643,1,8,0:0:0:0:
328,25,393740,1,0,0:0:0:0:
253,50,393838,5,0,0:0:0:0:
308,105,393935,1,0,0:0:0:0:
300,183,394032,1,8,0:0:0:0:
238,230,394129,1,0,0:0:0:0:
162,211,394226,2,0,P|116:159|114:120,1,97.50000371933
375,158,394420,2,0,P|421:210|423:249,1,97.50000371933,8|0,0:0|0:0,0:0:0:0:
162,211,394614,2,0,P|116:159|114:120,1,97.50000371933
375,158,394808,2,0,P|421:210|423:249,1,97.50000371933,8|0,0:0|0:0,0:0:0:0:
377,345,395002,5,0,0:0:0:0:
328,311,395099,1,0,0:0:0:0:
270,300,395196,1,8,0:0:0:0:
212,306,395293,1,0,0:0:0:0:
161,336,395390,5,0,0:0:0:0:
151,258,395487,1,0,0:0:0:0:
74,244,395584,1,8,0:0:0:0:
115,177,395681,1,0,0:0:0:0:
161,336,395779,1,0,0:0:0:0:
151,258,395876,1,0,0:0:0:0:
74,244,395973,1,8,0:0:0:0:
115,177,396070,1,0,0:0:0:0:
47,138,396167,6,0,B|74:54|155:18|238:31|281:80|292:134|292:134|370:88|429:126|448:162|419:194|391:233|338:183,1,568.75,12|0,0:0|0:0,0:0:0:0:
290,130,396944,2,0,B|292:134|292:134|370:88|429:126|448:162|419:194|387:221|360:199,1,243.75,12|0,0:0|0:0,0:0:0:0:
404,49,397332,2,0,P|483:105|359:276,1,341.250013017655,12|0,0:0|0:0,0:0:0:0:
492,197,398109,2,0,P|451:256|383:278,1,146.250005578995,12|0,0:0|0:0,0:0:0:0:
277,255,398498,5,0,0:0:0:0:
248,188,398595,1,0,0:0:0:0:
253,115,398692,1,0,0:0:0:0:
286,49,398789,1,0,0:0:0:0:
372,89,398886,5,0,0:0:0:0:
329,129,398983,1,0,0:0:0:0:
271,136,399080,1,0,0:0:0:0:
217,112,399177,1,0,0:0:0:0:
372,89,399274,1,0,0:0:0:0:
329,129,399371,1,0,0:0:0:0:
271,136,399468,1,0,0:0:0:0:
217,112,399565,1,0,0:0:0:0:
147,44,399662,5,0,0:0:0:0:
130,99,399760,1,0,0:0:0:0:
112,50,399857,5,0,0:0:0:0:
114,93,399954,1,0,0:0:0:0:
83,75,400051,5,8,0:0:0:0:
110,151,400148,1,8,0:0:0:0:
186,124,400245,1,8,0:0:0:0:
159,48,400342,1,8,0:0:0:0:
83,75,400439,1,8,0:0:0:0:
110,151,400536,1,8,0:0:0:0:
186,124,400633,1,8,0:0:0:0:
159,48,400730,1,8,0:0:0:0:
171,203,400827,5,4,0:0:0:0:
256,192,400924,12,0,404323,0:0:0:0:
