osu file format v14

[General]
AudioFilename: 200000 Cuori Pixellati.mp3
AudioLeadIn: 0
PreviewTime: 51501
Countdown: 0
SampleSet: Soft
StackLeniency: 0.7
Mode: 0
LetterboxInBreaks: 1
StoryFireInFront: 0
EpilepsyWarning: 1
WidescreenStoryboard: 1

[Editor]
DistanceSpacing: 1.6
BeatDivisor: 4
GridSize: 8
TimelineZoom: 1

[Metadata]
Title:200.000 Cuori Pixellati
TitleUnicode:200.000 Cuori Pixellati
Artist:Manu
ArtistUnicode:Manu
Creator:fuji97
Version:Hard
Source:YouTube
Tags:Manu youtube Luke4316 Moon4316 Minecraft
BeatmapID:286014
BeatmapSetID:109596

[Difficulty]
HPDrainRate:6
CircleSize:4
OverallDifficulty:5
ApproachRate:7
SliderMultiplier:1.4
SliderTickRate:2

[Events]
//Background and Video events
0,0,"bg.jpg",0,0
//Break Periods
2,33702,50602
2,80203,83603
//Storyboard Layer 0 (Background)
//Storyboard Layer 1 (Fail)
//Storyboard Layer 2 (Pass)
//Storyboard Layer 3 (Foreground)
//Storyboard Sound Samples

[TimingPoints]
1500,500.025031257814,4,2,1,70,1,0
62378,-100,4,2,3,70,0,0
62628,-100,4,2,1,70,0,0
85379,-100,4,2,2,70,0,0
85629,-100,4,2,1,70,0,0
87379,-100,4,2,2,70,0,0
87629,-100,4,2,1,70,0,0
147507,-80,4,2,1,70,0,1
179508,-80,4,2,1,70,0,0

[Colours]
Combo1 : 255,255,128
Combo2 : 255,128,0
Combo3 : 128,128,255

[HitObjects]
144,64,1999,5,0,0:0:0:0:
192,112,2249,2,0,P|200:184|184:248,1,140
248,280,2999,1,0,0:0:0:0:
312,248,3249,2,0,P|304:176|328:104,1,140
320,112,3999,1,0,0:0:0:0:
264,72,4249,2,0,L|192:72,1,70
144,120,4749,1,0,0:0:0:0:
152,192,4999,1,0,0:0:0:0:
200,240,5249,1,0,0:0:0:0:
264,272,5499,1,0,0:0:0:0:
80,48,6000,6,0,P|88:104|88:144,1,70
216,64,6750,2,0,P|216:112|184:216,1,140
272,312,7750,1,0,0:0:0:0:
368,216,8250,1,0,0:0:0:0:
272,112,8750,1,0,0:0:0:0:
272,112,9000,2,0,L|304:104|344:88,2,70
304,280,10000,6,0,P|328:224|328:192,1,70
216,136,10750,1,0,0:0:0:0:
152,256,11250,1,0,0:0:0:0:
288,256,11750,1,0,0:0:0:0:
216,136,12250,2,0,P|240:88|312:40,1,140
448,48,13250,2,0,L|488:8,2,35
496,176,14000,5,0,0:0:0:0:
496,176,14250,2,0,P|464:232|400:280,1,140
264,288,15250,2,0,P|304:224|368:176,1,140
352,112,16000,1,0,0:0:0:0:
280,112,16250,2,0,P|240:176|184:208,1,140
136,80,17250,1,0,0:0:0:0:
112,328,18000,5,0,0:0:0:0:
152,272,18250,2,0,P|200:240|288:208,1,140
400,272,19250,2,0,P|432:208|400:128,1,140
416,72,20000,6,0,P|464:64|488:48,2,70
336,72,20750,2,0,P|288:88|264:104,1,70
264,184,21250,1,0,0:0:0:0:
328,264,22250,6,0,P|248:288|240:288,1,70
192,288,22750,2,0,P|120:288|48:256,1,140
80,128,23750,2,0,P|120:168|128:200,2,70
88,56,24500,2,0,B|136:56|160:32|232:24,1,140
304,152,26001,5,0,0:0:0:0:
304,224,26251,2,0,L|288:272|256:368,1,140
208,152,28001,1,0,0:0:0:0:
216,224,28251,2,0,P|248:296|272:352,1,140
360,88,29751,2,0,P|304:64|264:64,2,70
360,160,30501,2,0,P|320:176|288:176,2,70
416,120,31251,2,0,L|272:120,1,140
256,192,32001,12,0,33502,0:0:0:0:
120,72,51502,5,8,0:0:0:0:
120,72,51752,2,0,P|120:144|136:216,1,140
272,200,52502,2,0,P|280:136|264:48,1,140,4|0,0:0|0:0,0:0:0:0:
384,136,53252,1,8,0:0:0:0:
384,136,53502,1,8,0:0:0:0:
112,80,54002,2,0,P|104:152|120:224,1,140,0|4,0:0|0:0,0:0:0:0:
216,312,54752,5,0,0:0:0:0:
216,312,55002,1,0,0:0:0:0:
216,312,55252,1,0,0:0:0:0:
352,280,55502,2,0,P|416:264|448:192,1,140,8|0,0:0|0:0,0:0:0:0:
344,56,56502,2,0,P|304:120|304:144,1,70,4|0,0:0|0:0,0:0:0:0:
168,112,57002,2,0,P|144:64|112:48,2,70,0|8|8,0:0|0:0|0:0,0:0:0:0:
248,304,58002,6,0,P|304:280|336:272,1,70
288,144,58502,1,4,0:0:0:0:
288,144,58752,2,0,L|216:176,1,70
144,80,59502,5,8,0:0:0:0:
80,296,60002,1,0,0:0:0:0:
304,280,60502,1,4,0:0:0:0:
336,56,61002,1,0,0:0:0:0:
248,168,61252,2,8,P|280:192|304:216,1,70
424,40,62002,1,0,0:0:0:0:
424,40,62252,2,0,P|368:56|208:40,1,210
80,88,63502,5,8,0:0:0:0:
80,88,63752,2,2,P|88:152|96:176,1,70
232,152,64252,2,2,P|232:96|224:64,1,70
168,208,64752,1,2,0:0:0:0:
168,208,65002,2,2,P|184:288|192:352,1,140,2|10,0:0|0:0,0:0:0:0:
312,272,65753,5,2,0:0:0:0:
312,272,66003,2,2,P|320:216|312:184,1,70
416,104,66503,1,2,0:0:0:0:
416,104,66753,2,2,P|408:152|408:192,1,70
120,184,67503,5,8,0:0:0:0:
120,184,67753,2,0,P|144:128|168:104,1,70
264,200,68253,1,0,0:0:0:0:
264,200,68503,2,0,P|280:136|336:80,1,140,4|0,0:0|0:0,0:0:0:0:
424,192,69253,1,8,0:0:0:0:
424,192,69503,2,0,P|440:256|440:272,1,70,8|0,0:0|0:0,0:0:0:0:
304,248,70003,2,0,P|224:248|168:272,1,140,0|4,0:0|0:0,0:0:0:0:
88,160,70753,2,0,P|144:120|168:112,1,70
272,56,71253,1,0,0:0:0:0:
400,104,71503,2,0,P|400:152|384:248,1,140,8|0,0:0|0:0,0:0:0:0:
296,136,72253,5,0,0:0:0:0:
296,136,72503,2,0,L|224:192,1,70,4|0,0:0|0:0,0:0:0:0:
360,248,73003,2,0,P|296:272|264:272,1,70,0|8,0:0|0:0,0:0:0:0:
160,232,73503,1,8,0:0:0:0:
120,96,73753,1,0,0:0:0:0:
120,96,74003,2,0,P|192:120|208:128,2,70,0|0|4,0:0|0:0|0:0,0:0:0:0:
200,208,74753,1,0,0:0:0:0:
200,208,75003,2,0,P|104:224|40:208,1,140,0|8,0:0|0:0,0:0:0:0:
200,208,75753,1,0,0:0:0:0:
200,208,76003,2,0,P|216:128|216:56,1,140,0|4,0:0|0:0,0:0:0:0:
136,80,76753,5,0,0:0:0:0:
136,80,77003,1,0,0:0:0:0:
136,80,77253,1,8,0:0:0:0:
136,80,77503,2,0,P|144:160|168:224,1,140,8|0,0:0|0:0,0:0:0:0:
296,272,78253,2,0,P|288:208|272:176,1,70,0|4,0:0|0:0,0:0:0:0:
104,144,79003,6,0,P|88:80|80:56,1,70
208,144,79503,2,0,L|192:216|192:288,1,140,8|0,0:0|0:0,0:0:0:0:
384,64,84503,6,0,P|376:120|376:152,1,70,4|0,0:0|0:0,0:0:0:0:
240,88,85003,1,0,0:0:0:0:
240,88,85253,2,0,P|256:168|248:240,1,140,8|0,0:0|0:0,0:0:0:0:
144,272,86504,5,4,0:0:0:0:
144,272,86754,2,0,B|144:216|144:216|160:176,1,70
272,272,87254,2,0,B|272:192|272:192|312:144,1,140
384,72,88504,6,0,P|400:120|408:152,1,70,4|0,0:0|0:0,0:0:0:0:
280,72,89004,2,0,P|264:120|256:168,2,70,0|8|10,0:0|0:0|0:0,0:0:0:0:
256,240,90004,1,0,0:0:0:0:
416,192,90504,1,4,0:0:0:0:
296,72,91004,2,0,P|312:144|312:168,2,70,0|0|8,0:0|0:0|0:0,0:0:0:0:
184,192,92004,2,0,P|168:112|176:32,1,140,0|4,0:0|0:0,0:0:0:0:
88,72,92754,6,0,P|32:32|0:24,1,70
72,176,93254,1,8,0:0:0:0:
72,176,93504,2,0,P|48:248|48:320,1,140,8|0,0:0|0:0,0:0:0:0:
88,88,94504,2,0,P|104:144|104:176,1,70,4|0,0:0|0:0,0:0:0:0:
160,288,95004,2,0,P|176:224|176:200,1,70
288,136,95504,2,0,P|360:144|432:136,2,140,8|0|0,0:0|0:0|0:0,0:0:0:0:
160,72,96754,5,0,0:0:0:0:
160,72,97004,2,0,P|136:128|128:152,1,70,0|8,0:0|0:0,0:0:0:0:
8,72,97504,2,0,P|24:144|72:224,1,140,8|8,0:0|0:0,0:0:0:0:
216,240,98504,1,6,0:0:0:0:
352,136,99004,1,2,0:0:0:0:
216,40,99504,2,2,P|176:112|152:176,1,140,8|0,0:0|0:0,0:0:0:0:
312,232,100504,6,0,P|296:288|296:328,1,70,4|0,0:0|0:0,0:0:0:0:
208,296,101004,2,0,P|208:256|192:224,1,70,0|8,0:0|0:0,0:0:0:0:
112,208,101505,2,0,P|184:152|240:136,1,140,8|0,0:0|0:0,0:0:0:0:
384,72,102505,6,0,P|400:128|400:168,1,70,4|0,0:0|0:0,0:0:0:0:
352,272,103004,2,0,P|328:216|328:192,1,70
224,112,103504,2,0,P|208:192|208:264,2,140,8|0|4,0:0|0:0|0:0,0:0:0:0:
128,216,104754,5,0,0:0:0:0:
128,216,105004,2,0,P|120:272|112:296,2,70,0|8|8,0:0|0:0|0:0,0:0:0:0:
352,48,106005,2,0,P|368:120|368:208,1,140,2|4,0:0|0:0,0:0:0:0:
128,328,107005,2,0,P|112:224|112:176,1,140,0|8,0:0|0:0,0:0:0:0:
400,192,108505,6,0,P|352:168|320:160,1,70,4|0,0:0|0:0,0:0:0:0:
216,240,109005,2,0,P|272:208|304:200,1,70,0|8,0:0|0:0,0:0:0:0:
336,336,109505,2,0,P|320:240|296:176,1,140,8|0,0:0|0:0,0:0:0:0:
200,88,110505,2,0,P|128:88|64:112,1,140,4|0,0:0|0:0,0:0:0:0:
344,136,111505,1,8,0:0:0:0:
88,240,112005,1,0,0:0:0:0:
368,264,112505,5,4,0:0:0:0:
368,264,112755,2,0,P|392:208|392:184,1,70
264,136,113255,1,8,0:0:0:0:
264,136,113505,2,0,P|224:200|200:280,1,140,8|0,0:0|0:0,0:0:0:0:
80,192,114255,2,0,P|96:144|120:112,1,70,0|8,0:0|0:0,0:0:0:0:
120,264,114755,1,0,0:0:0:0:
120,264,115005,2,0,P|232:272|280:264,1,140,0|8,0:0|0:0,0:0:0:0:
432,152,116005,5,0,0:0:0:0:
376,104,116255,1,0,0:0:0:0:
312,144,116505,2,0,P|336:200|360:280,1,140,2|0,0:0|0:0,0:0:0:0:
280,264,117255,1,2,0:0:0:0:
280,264,117505,2,0,P|224:272|136:248,1,140,2|0,0:0|0:0,0:0:0:0:
88,112,118505,1,2,0:0:0:0:
88,112,118755,1,0,0:0:0:0:
88,112,119005,2,0,P|176:120|240:112,1,140,0|2,0:0|0:0,0:0:0:0:
360,160,120255,6,8,B|376:192|376:192|360:224,1,70
104,240,121755,6,0,L|104:200,2,35,0|0|8,0:0|0:0|0:0,0:0:0:0:
256,240,122505,1,8,0:0:0:0:
184,104,123005,1,8,0:0:0:0:
336,112,123505,6,0,P|360:184|352:256,1,140,8|0,0:0|0:0,0:0:0:0:
296,304,124255,1,0,0:0:0:0:
296,304,124505,2,0,P|384:320|440:304,1,140,4|0,0:0|0:0,0:0:0:0:
416,232,125255,2,8,L|416:160,1,70
312,48,126006,1,2,0:0:0:0:
160,56,126506,1,8,0:0:0:0:
160,56,126756,2,0,L|176:160,2,105
56,56,127881,2,0,L|40:176,1,105
216,280,129131,6,0,L|248:256,2,35
376,200,130006,1,0,0:0:0:0:
280,104,130506,1,0,0:0:0:0:
168,192,131006,2,0,L|144:120|96:48,1,140
72,200,132006,5,0,0:0:0:0:
72,200,132256,1,0,0:0:0:0:
72,200,132506,2,0,B|104:264|104:264|176:312,1,140,4|0,0:0|0:0,0:0:0:0:
232,304,133256,2,0,L|296:304,2,35,8|2|8,0:0|0:0|0:0,0:0:0:0:
320,192,134006,1,2,0:0:0:0:
144,80,134756,2,0,L|80:176,2,105
248,80,135881,2,0,L|312:176,1,105
264,312,137256,6,0,L|200:312,2,35,8|8|8,0:0|0:0|0:0,0:0:0:0:
336,192,138006,1,0,0:0:0:0:
256,80,138506,1,4,0:0:0:0:
168,192,139006,1,0,0:0:0:0:
168,192,139506,2,0,L|320:192,1,140,8|0,0:0|0:0,0:0:0:0:
392,80,140506,1,4,0:0:0:0:
256,80,141006,2,0,L|176:80,2,70,0|8|8,0:0|0:0|0:0,0:0:0:0:
128,32,142006,2,0,P|88:104|80:168,1,140,2|4,0:0|0:0,0:0:0:0:
112,296,143006,2,0,P|168:240|200:176,1,140,0|8,0:0|0:0,0:0:0:0:
304,96,144006,5,0,0:0:0:0:
352,224,144506,1,4,0:0:0:0:
224,168,145006,2,0,P|168:176|152:192,2,70,0|8|8,0:0|0:0|0:0,0:0:0:0:
160,288,146007,1,8,0:0:0:0:
296,312,146507,1,8,0:0:0:0:
280,176,147007,1,8,0:0:0:0:
160,88,147507,6,0,P|120:184|112:256,1,175,8|0,0:0|0:0,0:0:0:0:
240,312,148257,1,0,0:0:0:0:
240,312,148507,2,0,P|280:208|288:200,1,87.5,4|0,0:0|0:0,0:0:0:0:
368,136,149007,2,0,P|368:192|344:256,1,87.5,0|8,0:0|0:0,0:0:0:0:
320,88,149507,2,0,P|192:72|104:72,1,175,8|0,0:0|0:0,0:0:0:0:
128,208,150257,1,0,0:0:0:0:
128,208,150507,2,0,P|112:288|112:312,2,87.5,8|0|0,0:0|0:0|0:0,0:0:0:0:
384,320,151507,6,0,P|400:216|400:120,1,175,8|0,0:0|0:0,0:0:0:0:
312,40,152257,1,0,0:0:0:0:
312,40,152507,2,0,P|296:88|288:144,2,87.5,4|0|0,0:0|0:0|0:0,0:0:0:0:
200,120,153257,2,0,P|176:64|168:0,2,87.5,8|8|0,0:0|0:0|0:0,0:0:0:0:
80,56,154007,2,0,L|80:160,1,87.5
72,280,154507,2,0,P|168:264|264:280,1,175,4|0,0:0|0:0,0:0:0:0:
416,56,155507,6,0,P|424:152|408:240,2,175,8|0|4,0:0|0:0|0:0,0:0:0:0:
296,136,156757,1,0,0:0:0:0:
296,136,157007,2,0,P|232:160|184:160,1,87.5,0|8,0:0|0:0,0:0:0:0:
72,136,157507,2,0,P|144:96|248:64,1,175,8|0,0:0|0:0,0:0:0:0:
368,64,158257,1,0,0:0:0:0:
368,64,158507,2,0,P|376:184|360:256,1,175,4|0,0:0|0:0,0:0:0:0:
88,296,159507,6,0,P|80:192|104:112,1,175,8|2,0:0|0:0,0:0:0:0:
208,216,160257,1,2,0:0:0:0:
208,216,160507,2,2,P|264:264|288:272,1,87.5,6|2,0:0|0:0,0:0:0:0:
416,240,161007,1,2,0:0:0:0:
416,240,161257,1,10,0:0:0:0:
416,240,161507,2,0,B|328:160|336:168,1,87.5,8|2,0:0|0:0,0:0:0:0:
256,80,162007,1,2,0:0:0:0:
256,80,162257,1,2,0:0:0:0:
144,160,162507,2,2,P|248:200|256:200,2,87.5,6|2|2,0:0|0:0|0:0,0:0:0:0:
128,296,163257,1,2,0:0:0:0:
128,296,163507,2,0,P|240:272|304:272,2,175,10|0|0,0:0|0:0|0:0,0:0:0:0:
104,160,164757,5,0,0:0:0:0:
104,160,165007,2,0,P|176:192|208:200,1,87.5,0|8,0:0|0:0,0:0:0:0:
176,56,165508,2,0,P|288:80|344:144,1,175,8|0,0:0|0:0,0:0:0:0:
440,200,166258,1,0,0:0:0:0:
440,200,166508,2,0,P|424:120|400:88,1,87.5,4|0,0:0|0:0,0:0:0:0:
296,56,167008,2,0,P|280:168|280:240,1,175,0|8,0:0|0:0,0:0:0:0:
120,304,168008,2,0,P|120:208|136:112,1,175,0|4,0:0|0:0,0:0:0:0:
224,240,168758,5,0,0:0:0:0:
224,240,169008,2,0,P|304:272|328:272,1,87.5,0|8,0:0|0:0,0:0:0:0:
312,136,169508,2,0,P|360:176|376:208,1,87.5,8|0,0:0|0:0,0:0:0:0:
384,56,170008,2,0,P|312:56|272:64,1,87.5,8|0,0:0|0:0,0:0:0:0:
160,56,170508,2,0,P|120:128|96:232,2,175,4|0|8,0:0|0:0|0:0,0:0:0:0:
328,280,172008,6,0,P|216:192|184:136,1,175,0|4,0:0|0:0,0:0:0:0:
336,160,172758,1,0,0:0:0:0:
336,160,173008,2,0,L|408:104,1,87.5,0|8,0:0|0:0,0:0:0:0:
280,40,173508,2,0,P|184:48|104:32,1,175,8|0,0:0|0:0,0:0:0:0:
72,168,174258,1,0,0:0:0:0:
72,168,174508,2,0,P|152:232|224:256,1,175,4|0,0:0|0:0,0:0:0:0:
416,256,175508,6,0,P|376:168|360:56,1,175,8|0,0:0|0:0,0:0:0:0:
224,72,176258,1,2,0:0:0:0:
224,72,176508,2,2,P|152:48|112:48,1,87.5,6|2,0:0|0:0,0:0:0:0:
72,168,177008,2,0,P|136:208|160:216,2,87.5,2|10|8,0:0|0:0|0:0,0:0:0:0:
136,288,177758,5,2,0:0:0:0:
136,288,178008,1,10,0:0:0:0:
136,288,178258,2,2,P|208:288|232:280,1,87.5,0|4,0:0|0:0,0:0:0:0:
344,352,178758,2,2,P|328:272|336:248,1,87.5,2|14,0:0|0:0,0:0:0:0:
256,192,179508,12,14,183508,0:0:0:0:
