osu file format v14

[General]
AudioFilename: audio.mp3
AudioLeadIn: 0
PreviewTime: 74609
Countdown: 0
SampleSet: Normal
StackLeniency: 0.7
Mode: 1
LetterboxInBreaks: 0
WidescreenStoryboard: 0

[Editor]
Bookmarks: 93322,102643,111963
DistanceSpacing: 1
BeatDivisor: 4
GridSize: 32
TimelineZoom: 1.8

[Metadata]
Title:Anubis
TitleUnicode:Anubis
Artist:Mantis
ArtistUnicode:Mantis
Creator:Lime717
Version:God of the Dead
Source:
Tags:
BeatmapID:2233168
BeatmapSetID:1066535

[Difficulty]
HPDrainRate:5
CircleSize:5
OverallDifficulty:7
ApproachRate:5
SliderMultiplier:1.4
SliderTickRate:1

[Events]
//Background and Video events
0,0,"3776.jpg",0,0
//Break Periods
2,37600,45520
2,46920,54841
2,109833,128239
//Storyboard Layer 0 (Background)
//Storyboard Layer 1 (Fail)
//Storyboard Layer 2 (Pass)
//Storyboard Layer 3 (Foreground)
//Storyboard Layer 4 (Overlay)
//Storyboard Sound Samples

[TimingPoints]
119,291.26213592233,4,1,0,100,1,0
74682,-100,4,1,0,100,0,1
130604,-100,4,1,0,100,0,0
205167,-100,4,1,0,100,0,1
261089,-100,4,1,0,100,0,0

[HitObjects]
256,192,119,5,0,0:0:0:0:
256,192,555,1,8,0:0:0:0:
256,192,1284,1,8,0:0:0:0:
256,192,1720,1,8,0:0:0:0:
256,192,1866,1,0,0:0:0:0:
256,192,2157,1,8,0:0:0:0:
256,192,2885,1,8,0:0:0:0:
256,192,3614,1,8,0:0:0:0:
256,192,4051,1,8,0:0:0:0:
256,192,4196,1,0,0:0:0:0:
256,192,4269,1,0,0:0:0:0:
256,192,4342,1,0,0:0:0:0:
256,192,4487,1,8,0:0:0:0:
256,192,5216,1,8,0:0:0:0:
256,192,5944,1,8,0:0:0:0:
256,192,6381,1,8,0:0:0:0:
256,192,6526,1,0,0:0:0:0:
256,192,6672,1,0,0:0:0:0:
256,192,6818,1,8,0:0:0:0:
256,192,7546,1,8,0:0:0:0:
256,192,8274,1,8,0:0:0:0:
256,192,8419,1,8,0:0:0:0:
256,192,8565,1,8,0:0:0:0:
256,192,8711,1,8,0:0:0:0:
256,192,8856,1,0,0:0:0:0:
256,192,8929,1,0,0:0:0:0:
256,192,9002,1,0,0:0:0:0:
256,192,9148,1,8,0:0:0:0:
256,192,9293,1,0,0:0:0:0:
256,192,9439,1,12,0:0:0:0:
256,192,9730,1,8,0:0:0:0:
256,192,9876,1,0,0:0:0:0:
256,192,10021,1,8,0:0:0:0:
256,192,10167,1,8,0:0:0:0:
256,192,10313,1,0,0:0:0:0:
256,192,10604,1,0,0:0:0:0:
256,192,10895,1,0,0:0:0:0:
256,192,11041,1,0,0:0:0:0:
256,192,11186,1,8,0:0:0:0:
256,192,11478,1,0,0:0:0:0:
256,192,11623,1,0,0:0:0:0:
256,192,11769,1,8,0:0:0:0:
256,192,11915,1,8,0:0:0:0:
256,192,12206,1,8,0:0:0:0:
256,192,12352,1,8,0:0:0:0:
256,192,12643,1,8,0:0:0:0:
256,192,12788,1,0,0:0:0:0:
256,192,12934,1,8,0:0:0:0:
256,192,13080,1,8,0:0:0:0:
256,192,13371,1,8,0:0:0:0:
256,192,13517,1,8,0:0:0:0:
256,192,13662,1,8,0:0:0:0:
256,192,13808,1,0,0:0:0:0:
256,192,13953,1,0,0:0:0:0:
256,192,14099,1,8,0:0:0:0:
256,192,14390,1,8,0:0:0:0:
256,192,14536,1,0,0:0:0:0:
256,192,14681,1,8,0:0:0:0:
256,192,14827,1,8,0:0:0:0:
256,192,14973,1,0,0:0:0:0:
256,192,15264,1,0,0:0:0:0:
256,192,15555,1,0,0:0:0:0:
256,192,15701,1,0,0:0:0:0:
256,192,15846,1,8,0:0:0:0:
256,192,16138,1,0,0:0:0:0:
256,192,16283,1,0,0:0:0:0:
256,192,16429,1,8,0:0:0:0:
256,192,16575,1,8,0:0:0:0:
256,192,16866,1,8,0:0:0:0:
256,192,17012,1,8,0:0:0:0:
256,192,17303,1,8,0:0:0:0:
256,192,17448,1,0,0:0:0:0:
256,192,17594,1,8,0:0:0:0:
256,192,17667,1,8,0:0:0:0:
256,192,17740,1,0,0:0:0:0:
256,192,17885,1,0,0:0:0:0:
256,192,18031,1,0,0:0:0:0:
256,192,18177,1,8,0:0:0:0:
256,192,18250,1,8,0:0:0:0:
256,192,18322,1,8,0:0:0:0:
256,192,18468,1,0,0:0:0:0:
256,192,18759,1,4,0:0:0:0:
256,192,19051,1,8,0:0:0:0:
256,192,19196,1,0,0:0:0:0:
256,192,19342,1,8,0:0:0:0:
256,192,19487,1,0,0:0:0:0:
256,192,19560,1,0,0:0:0:0:
256,192,19633,1,0,0:0:0:0:
256,192,19924,1,0,0:0:0:0:
256,192,20070,1,8,0:0:0:0:
256,192,20216,1,0,0:0:0:0:
256,192,20361,1,0,0:0:0:0:
256,192,20507,1,8,0:0:0:0:
256,192,20580,1,8,0:0:0:0:
256,192,20652,1,0,0:0:0:0:
256,192,20725,1,0,0:0:0:0:
256,192,20798,1,8,0:0:0:0:
256,192,20944,1,8,0:0:0:0:
256,192,21017,1,8,0:0:0:0:
256,192,21089,1,0,0:0:0:0:
256,192,21235,1,0,0:0:0:0:
256,192,21526,1,0,0:0:0:0:
256,192,21672,1,8,0:0:0:0:
256,192,21818,1,8,0:0:0:0:
256,192,21963,1,8,0:0:0:0:
256,192,22036,1,0,0:0:0:0:
256,192,22109,1,0,0:0:0:0:
256,192,22182,1,0,0:0:0:0:
256,192,22254,1,8,0:0:0:0:
250,186,22400,1,8,0:0:0:0:
256,192,22691,1,8,0:0:0:0:
256,192,22837,1,8,0:0:0:0:
256,192,22910,1,8,0:0:0:0:
256,192,22983,1,0,0:0:0:0:
256,192,23055,1,0,0:0:0:0:
256,192,23128,1,8,0:0:0:0:
256,192,23177,1,8,0:0:0:0:
256,192,23225,1,8,0:0:0:0:
256,192,23274,1,0,0:0:0:0:
256,192,23347,1,0,0:0:0:0:
256,192,23419,1,8,0:0:0:0:
256,192,23711,1,8,0:0:0:0:
256,192,23856,1,0,0:0:0:0:
256,192,24002,1,8,0:0:0:0:
256,192,24147,1,0,0:0:0:0:
256,192,24220,1,0,0:0:0:0:
256,192,24293,1,0,0:0:0:0:
256,192,24584,1,0,0:0:0:0:
256,192,24730,1,8,0:0:0:0:
256,192,24876,1,0,0:0:0:0:
256,192,25021,1,0,0:0:0:0:
256,192,25167,1,8,0:0:0:0:
256,192,25240,1,8,0:0:0:0:
256,192,25312,1,0,0:0:0:0:
256,192,25385,1,0,0:0:0:0:
256,192,25458,1,8,0:0:0:0:
256,192,25604,1,8,0:0:0:0:
256,192,25677,1,8,0:0:0:0:
256,192,25749,1,0,0:0:0:0:
256,192,25895,1,0,0:0:0:0:
256,192,26186,1,0,0:0:0:0:
256,192,26332,1,8,0:0:0:0:
256,192,26478,1,8,0:0:0:0:
256,192,26623,1,8,0:0:0:0:
256,192,26696,1,0,0:0:0:0:
256,192,26769,1,0,0:0:0:0:
256,192,26842,1,0,0:0:0:0:
256,192,26914,1,8,0:0:0:0:
250,186,27060,1,8,0:0:0:0:
256,192,27351,1,8,0:0:0:0:
256,192,27497,1,8,0:0:0:0:
256,192,27570,1,8,0:0:0:0:
256,192,27643,1,0,0:0:0:0:
256,192,27715,1,0,0:0:0:0:
256,192,27788,1,8,0:0:0:0:
256,192,27837,1,8,0:0:0:0:
256,192,27885,1,8,0:0:0:0:
256,192,27934,1,0,0:0:0:0:
256,192,28007,1,0,0:0:0:0:
256,192,28080,1,8,0:0:0:0:
256,192,28372,1,8,0:0:0:0:
256,192,28517,1,0,0:0:0:0:
256,192,28663,1,8,0:0:0:0:
256,192,28808,1,0,0:0:0:0:
256,192,28881,1,0,0:0:0:0:
256,192,28954,1,0,0:0:0:0:
256,192,29245,1,0,0:0:0:0:
256,192,29391,1,8,0:0:0:0:
256,192,29537,1,0,0:0:0:0:
256,192,29682,1,0,0:0:0:0:
256,192,29828,1,8,0:0:0:0:
256,192,29901,1,8,0:0:0:0:
256,192,29973,1,0,0:0:0:0:
256,192,30046,1,0,0:0:0:0:
256,192,30119,1,8,0:0:0:0:
256,192,30265,1,8,0:0:0:0:
256,192,30338,1,8,0:0:0:0:
256,192,30410,1,0,0:0:0:0:
256,192,30556,1,0,0:0:0:0:
256,192,30847,1,0,0:0:0:0:
256,192,30993,1,8,0:0:0:0:
256,192,31139,1,8,0:0:0:0:
256,192,31284,1,8,0:0:0:0:
256,192,31357,1,0,0:0:0:0:
256,192,31430,1,0,0:0:0:0:
256,192,31503,1,0,0:0:0:0:
256,192,31575,1,8,0:0:0:0:
250,186,31721,1,8,0:0:0:0:
256,192,32012,1,8,0:0:0:0:
256,192,32158,1,8,0:0:0:0:
256,192,32231,1,8,0:0:0:0:
256,192,32304,1,0,0:0:0:0:
256,192,32376,1,0,0:0:0:0:
256,192,32449,1,8,0:0:0:0:
256,192,32498,1,8,0:0:0:0:
256,192,32546,1,8,0:0:0:0:
256,192,32595,1,0,0:0:0:0:
256,192,32668,1,0,0:0:0:0:
256,192,32740,1,8,0:0:0:0:
256,192,33032,1,8,0:0:0:0:
256,192,33177,1,0,0:0:0:0:
256,192,33323,1,8,0:0:0:0:
256,192,33468,1,0,0:0:0:0:
256,192,33541,1,0,0:0:0:0:
256,192,33614,1,0,0:0:0:0:
256,192,33905,1,0,0:0:0:0:
256,192,34051,1,8,0:0:0:0:
256,192,34197,1,0,0:0:0:0:
256,192,34342,1,0,0:0:0:0:
256,192,34488,1,8,0:0:0:0:
256,192,34561,1,8,0:0:0:0:
256,192,34633,1,0,0:0:0:0:
256,192,34706,1,0,0:0:0:0:
256,192,34779,1,8,0:0:0:0:
256,192,34925,1,8,0:0:0:0:
256,192,34998,1,8,0:0:0:0:
256,192,35070,1,0,0:0:0:0:
256,192,35216,1,0,0:0:0:0:
256,192,35507,1,0,0:0:0:0:
256,192,35652,1,8,0:0:0:0:
256,192,35944,1,8,0:0:0:0:
256,192,36089,1,8,0:0:0:0:
256,192,36235,1,0,0:0:0:0:
256,192,36381,1,0,0:0:0:0:
256,192,36453,1,0,0:0:0:0:
256,192,36526,1,0,0:0:0:0:
256,192,36672,1,0,0:0:0:0:
256,192,36818,1,8,0:0:0:0:
256,192,36866,1,8,0:0:0:0:
256,192,36915,1,8,0:0:0:0:
256,192,36963,1,0,0:0:0:0:
256,192,37036,1,0,0:0:0:0:
256,192,37109,1,8,0:0:0:0:
256,192,37182,1,0,0:0:0:0:
256,192,37254,1,8,0:0:0:0:
256,192,37327,1,8,0:0:0:0:
256,192,37400,1,4,0:0:0:0:
256,192,46720,5,0,0:0:0:0:
256,192,56041,5,8,0:0:0:0:
256,192,57206,1,0,0:0:0:0:
256,192,58371,1,0,0:0:0:0:
256,192,59245,1,8,0:0:0:0:
256,192,59827,1,8,0:0:0:0:
256,192,60118,1,8,0:0:0:0:
256,192,60410,1,8,0:0:0:0:
256,192,60701,1,8,0:0:0:0:
256,192,61866,1,0,0:0:0:0:
256,192,63031,1,0,0:0:0:0:
256,192,64196,1,0,0:0:0:0:
256,192,65070,1,8,0:0:0:0:
256,192,65361,1,8,0:0:0:0:
256,192,65652,1,0,0:0:0:0:
256,192,65944,1,0,0:0:0:0:
256,192,66235,1,0,0:0:0:0:
256,192,66526,1,8,0:0:0:0:
256,192,66818,1,0,0:0:0:0:
256,192,67109,1,0,0:0:0:0:
256,192,67400,1,0,0:0:0:0:
256,192,67692,1,8,0:0:0:0:
256,192,67983,1,0,0:0:0:0:
256,192,68274,1,0,0:0:0:0:
256,192,68565,1,0,0:0:0:0:
256,192,68856,1,8,0:0:0:0:
256,192,69147,1,0,0:0:0:0:
256,192,69439,1,0,0:0:0:0:
256,192,69730,1,0,0:0:0:0:
256,192,70021,1,0,0:0:0:0:
256,192,70167,1,8,0:0:0:0:
256,192,70313,1,8,0:0:0:0:
256,192,70458,1,8,0:0:0:0:
256,192,70604,1,0,0:0:0:0:
256,192,70750,1,8,0:0:0:0:
256,192,70895,1,8,0:0:0:0:
256,192,71041,1,8,0:0:0:0:
256,192,71186,1,0,0:0:0:0:
256,192,71332,1,8,0:0:0:0:
256,192,71478,1,8,0:0:0:0:
256,192,71623,1,8,0:0:0:0:
256,192,71769,1,0,0:0:0:0:
256,192,71842,1,0,0:0:0:0:
256,192,71915,1,8,0:0:0:0:
256,192,71987,1,0,0:0:0:0:
256,192,72060,1,8,0:0:0:0:
256,192,72133,1,8,0:0:0:0:
256,192,72206,1,8,0:0:0:0:
256,192,72279,1,8,0:0:0:0:
256,192,72352,1,0,0:0:0:0:
256,192,72497,12,0,74390,0:0:0:0:
256,192,74682,5,12,0:0:0:0:
256,192,74973,1,8,0:0:0:0:
256,192,75264,1,0,0:0:0:0:
256,192,75555,1,0,0:0:0:0:
256,192,75592,1,0,0:0:0:0:
256,192,75701,1,8,0:0:0:0:
256,192,75738,1,8,0:0:0:0:
256,192,75847,1,8,0:0:0:0:
256,192,75884,1,8,0:0:0:0:
256,192,75992,1,0,0:0:0:0:
256,192,76029,1,0,0:0:0:0:
256,192,76138,1,8,0:0:0:0:
256,192,76175,1,8,0:0:0:0:
256,192,76284,1,8,0:0:0:0:
256,192,76321,1,8,0:0:0:0:
256,192,76429,1,8,0:0:0:0:
256,192,76502,1,8,0:0:0:0:
256,192,76575,1,0,0:0:0:0:
256,192,76648,1,0,0:0:0:0:
256,192,76720,1,8,0:0:0:0:
256,192,76793,1,8,0:0:0:0:
256,192,76866,1,0,0:0:0:0:
256,192,76939,1,0,0:0:0:0:
256,192,77012,1,8,0:0:0:0:
256,192,77048,1,8,0:0:0:0:
256,192,77157,1,8,0:0:0:0:
256,192,77193,1,8,0:0:0:0:
256,192,77303,1,0,0:0:0:0:
256,192,77339,1,0,0:0:0:0:
256,192,77449,1,8,0:0:0:0:
256,192,77485,1,8,0:0:0:0:
256,192,77594,1,8,0:0:0:0:
256,192,77630,1,8,0:0:0:0:
256,192,77740,1,0,0:0:0:0:
256,192,77776,1,0,0:0:0:0:
256,192,77885,1,8,0:0:0:0:
256,192,77934,1,0,0:0:0:0:
256,192,77983,1,0,0:0:0:0:
256,192,78031,1,8,0:0:0:0:
256,192,78177,1,12,0:0:0:0:
256,192,78468,1,4,0:0:0:0:
256,192,78759,1,8,0:0:0:0:
256,192,78832,1,8,0:0:0:0:
256,192,78905,1,0,0:0:0:0:
256,192,78978,1,0,0:0:0:0:
256,192,79051,1,8,0:0:0:0:
256,192,79099,1,8,0:0:0:0:
256,192,79148,1,8,0:0:0:0:
256,192,79196,1,0,0:0:0:0:
256,192,79269,1,0,0:0:0:0:
256,192,79342,1,12,0:0:0:0:
256,192,79633,1,8,0:0:0:0:
256,192,79924,1,0,0:0:0:0:
256,192,80216,1,0,0:0:0:0:
256,192,80253,1,0,0:0:0:0:
256,192,80362,1,8,0:0:0:0:
256,192,80399,1,8,0:0:0:0:
256,192,80508,1,8,0:0:0:0:
256,192,80545,1,8,0:0:0:0:
256,192,80653,1,0,0:0:0:0:
256,192,80690,1,0,0:0:0:0:
256,192,80799,1,8,0:0:0:0:
256,192,80836,1,8,0:0:0:0:
256,192,80945,1,8,0:0:0:0:
256,192,80982,1,8,0:0:0:0:
256,192,81090,1,8,0:0:0:0:
256,192,81163,1,8,0:0:0:0:
256,192,81236,1,0,0:0:0:0:
256,192,81309,1,0,0:0:0:0:
256,192,81381,1,8,0:0:0:0:
256,192,81454,1,8,0:0:0:0:
256,192,81527,1,0,0:0:0:0:
256,192,81600,1,0,0:0:0:0:
256,192,81673,1,8,0:0:0:0:
256,192,81709,1,8,0:0:0:0:
256,192,81818,1,8,0:0:0:0:
256,192,81854,1,8,0:0:0:0:
256,192,81964,1,0,0:0:0:0:
256,192,82000,1,0,0:0:0:0:
256,192,82110,1,8,0:0:0:0:
256,192,82146,1,8,0:0:0:0:
256,192,82255,1,8,0:0:0:0:
256,192,82291,1,8,0:0:0:0:
256,192,82401,1,0,0:0:0:0:
256,192,82436,1,0,0:0:0:0:
256,192,82546,1,8,0:0:0:0:
256,192,82581,1,8,0:0:0:0:
256,192,82691,1,0,0:0:0:0:
256,192,82726,1,0,0:0:0:0:
256,192,82837,1,8,0:0:0:0:
256,192,82872,1,8,0:0:0:0:
256,192,82983,1,8,0:0:0:0:
256,192,83018,1,8,0:0:0:0:
256,192,83128,1,0,0:0:0:0:
256,192,83163,1,0,0:0:0:0:
256,192,83274,1,0,0:0:0:0:
256,192,83309,1,0,0:0:0:0:
256,192,83419,1,8,0:0:0:0:
256,192,83492,1,8,0:0:0:0:
256,192,83565,1,0,0:0:0:0:
256,192,83638,1,0,0:0:0:0:
256,192,83711,1,8,0:0:0:0:
256,192,83759,1,8,0:0:0:0:
256,192,83808,1,8,0:0:0:0:
256,192,83856,1,0,0:0:0:0:
256,192,83929,1,0,0:0:0:0:
256,192,84002,1,12,0:0:0:0:
256,192,84293,1,8,0:0:0:0:
256,192,84585,1,0,0:0:0:0:
256,192,84876,1,0,0:0:0:0:
256,192,84912,1,0,0:0:0:0:
256,192,85021,1,8,0:0:0:0:
256,192,85057,1,8,0:0:0:0:
256,192,85167,1,8,0:0:0:0:
256,192,85203,1,8,0:0:0:0:
256,192,85313,1,0,0:0:0:0:
256,192,85349,1,0,0:0:0:0:
256,192,85458,1,8,0:0:0:0:
256,192,85531,1,0,0:0:0:0:
256,192,85604,1,8,0:0:0:0:
256,192,85750,1,8,0:0:0:0:
256,192,85822,1,8,0:0:0:0:
256,192,85895,1,0,0:0:0:0:
256,192,85968,1,0,0:0:0:0:
256,192,86041,1,8,0:0:0:0:
256,192,86114,1,8,0:0:0:0:
256,192,86186,1,8,0:0:0:0:
256,192,86259,1,0,0:0:0:0:
256,192,86332,1,8,0:0:0:0:
256,192,86368,1,8,0:0:0:0:
256,192,86477,1,8,0:0:0:0:
256,192,86513,1,8,0:0:0:0:
256,192,86623,1,0,0:0:0:0:
256,192,86659,1,0,0:0:0:0:
256,192,86769,1,8,0:0:0:0:
256,192,86805,1,8,0:0:0:0:
256,192,86914,1,8,0:0:0:0:
256,192,86950,1,8,0:0:0:0:
256,192,87060,1,0,0:0:0:0:
256,192,87095,1,0,0:0:0:0:
256,192,87205,1,8,0:0:0:0:
256,192,87240,1,8,0:0:0:0:
256,192,87352,1,8,0:0:0:0:
256,192,87424,1,0,0:0:0:0:
256,192,87497,1,8,0:0:0:0:
256,192,87643,1,8,0:0:0:0:
256,192,87679,1,8,0:0:0:0:
256,192,87788,1,0,0:0:0:0:
256,192,87825,1,0,0:0:0:0:
256,192,87934,1,8,0:0:0:0:
256,192,87970,1,8,0:0:0:0:
256,192,88080,1,8,0:0:0:0:
256,192,88128,1,8,0:0:0:0:
256,192,88177,1,8,0:0:0:0:
256,192,88225,1,0,0:0:0:0:
256,192,88298,1,0,0:0:0:0:
256,192,88371,1,8,0:0:0:0:
256,192,88419,1,8,0:0:0:0:
256,192,88468,1,8,0:0:0:0:
256,192,88517,1,0,0:0:0:0:
256,192,88589,1,0,0:0:0:0:
256,192,88662,1,8,0:0:0:0:
256,192,88699,1,8,0:0:0:0:
256,192,88808,1,8,0:0:0:0:
256,192,88844,1,8,0:0:0:0:
256,192,88953,1,0,0:0:0:0:
256,192,88989,1,0,0:0:0:0:
256,192,89099,1,8,0:0:0:0:
256,192,89135,1,8,0:0:0:0:
256,192,89245,1,8,0:0:0:0:
256,192,89281,1,8,0:0:0:0:
256,192,89390,1,0,0:0:0:0:
256,192,89426,1,0,0:0:0:0:
256,192,89536,1,8,0:0:0:0:
256,192,89572,1,8,0:0:0:0:
256,192,89682,1,0,0:0:0:0:
256,192,89718,1,0,0:0:0:0:
256,192,89827,1,8,0:0:0:0:
256,192,89863,1,8,0:0:0:0:
256,192,89973,1,8,0:0:0:0:
256,192,90009,1,8,0:0:0:0:
256,192,90118,1,0,0:0:0:0:
256,192,90191,1,8,0:0:0:0:
256,192,90264,1,0,0:0:0:0:
256,192,90410,1,8,0:0:0:0:
256,192,90483,1,8,0:0:0:0:
256,192,90555,1,0,0:0:0:0:
256,192,90628,1,0,0:0:0:0:
256,192,90701,1,8,0:0:0:0:
256,192,90774,1,8,0:0:0:0:
256,192,90847,1,8,0:0:0:0:
256,192,90919,1,0,0:0:0:0:
256,192,90992,1,8,0:0:0:0:
256,192,91029,1,8,0:0:0:0:
256,192,91138,1,8,0:0:0:0:
256,192,91175,1,8,0:0:0:0:
256,192,91284,1,0,0:0:0:0:
256,192,91321,1,0,0:0:0:0:
256,192,91429,1,8,0:0:0:0:
256,192,91466,1,8,0:0:0:0:
256,192,91575,1,8,0:0:0:0:
256,192,91612,1,8,0:0:0:0:
256,192,91720,1,0,0:0:0:0:
256,192,91757,1,0,0:0:0:0:
256,192,91866,1,8,0:0:0:0:
256,192,91903,1,8,0:0:0:0:
256,192,92012,1,0,0:0:0:0:
256,192,92049,1,0,0:0:0:0:
256,192,92157,1,0,0:0:0:0:
256,192,92230,1,0,0:0:0:0:
256,192,92303,1,8,0:0:0:0:
256,192,92376,1,0,0:0:0:0:
256,192,92449,1,8,0:0:0:0:
256,192,92521,1,8,0:0:0:0:
256,192,92594,1,0,0:0:0:0:
256,192,92667,1,0,0:0:0:0:
256,192,92740,1,8,0:0:0:0:
256,192,92788,1,8,0:0:0:0:
256,192,92837,1,8,0:0:0:0:
256,192,92885,1,0,0:0:0:0:
256,192,92958,1,0,0:0:0:0:
256,192,93031,1,8,0:0:0:0:
256,192,93080,1,0,0:0:0:0:
256,192,93128,1,0,0:0:0:0:
256,192,93177,1,8,0:0:0:0:
256,192,93225,1,0,0:0:0:0:
256,192,93274,1,0,0:0:0:0:
256,192,93322,1,12,0:0:0:0:
256,192,93614,1,8,0:0:0:0:
256,192,93905,1,0,0:0:0:0:
256,192,94196,1,0,0:0:0:0:
256,192,94232,1,0,0:0:0:0:
256,192,94342,1,8,0:0:0:0:
256,192,94378,1,8,0:0:0:0:
256,192,94488,1,8,0:0:0:0:
256,192,94524,1,8,0:0:0:0:
256,192,94633,1,0,0:0:0:0:
256,192,94669,1,0,0:0:0:0:
256,192,94779,1,8,0:0:0:0:
256,192,94815,1,8,0:0:0:0:
256,192,94925,1,0,0:0:0:0:
256,192,94961,1,0,0:0:0:0:
256,192,95070,1,8,0:0:0:0:
256,192,95142,1,8,0:0:0:0:
256,192,95215,1,8,0:0:0:0:
256,192,95288,1,0,0:0:0:0:
256,192,95361,1,8,0:0:0:0:
256,192,95434,1,8,0:0:0:0:
256,192,95506,1,8,0:0:0:0:
256,192,95579,1,0,0:0:0:0:
256,192,95652,1,8,0:0:0:0:
256,192,95689,1,8,0:0:0:0:
256,192,95798,1,8,0:0:0:0:
256,192,95835,1,8,0:0:0:0:
256,192,95944,1,0,0:0:0:0:
256,192,95981,1,0,0:0:0:0:
256,192,96089,1,8,0:0:0:0:
256,192,96126,1,8,0:0:0:0:
256,192,96235,1,8,0:0:0:0:
256,192,96272,1,8,0:0:0:0:
256,192,96380,1,0,0:0:0:0:
256,192,96417,1,0,0:0:0:0:
256,192,96526,1,8,0:0:0:0:
256,192,96563,1,8,0:0:0:0:
256,192,96818,1,0,0:0:0:0:
256,192,96854,1,0,0:0:0:0:
256,192,96963,1,8,0:0:0:0:
256,192,97000,1,8,0:0:0:0:
256,192,97109,1,0,0:0:0:0:
256,192,97182,1,8,0:0:0:0:
256,192,97254,1,0,0:0:0:0:
256,192,97400,1,8,0:0:0:0:
256,192,97473,1,8,0:0:0:0:
256,192,97546,1,0,0:0:0:0:
256,192,97618,1,0,0:0:0:0:
256,192,97691,1,8,0:0:0:0:
256,192,97740,1,8,0:0:0:0:
256,192,97788,1,8,0:0:0:0:
256,192,97837,1,0,0:0:0:0:
256,192,97910,1,0,0:0:0:0:
256,192,97983,1,12,0:0:0:0:
256,192,98274,1,8,0:0:0:0:
256,192,98565,1,0,0:0:0:0:
256,192,98856,1,0,0:0:0:0:
256,192,98893,1,0,0:0:0:0:
256,192,99002,1,8,0:0:0:0:
256,192,99039,1,8,0:0:0:0:
256,192,99148,1,8,0:0:0:0:
256,192,99185,1,8,0:0:0:0:
256,192,99293,1,0,0:0:0:0:
256,192,99330,1,0,0:0:0:0:
256,192,99439,1,8,0:0:0:0:
256,192,99476,1,8,0:0:0:0:
256,192,99585,1,8,0:0:0:0:
256,192,99622,1,8,0:0:0:0:
256,192,99730,1,8,0:0:0:0:
256,192,99803,1,8,0:0:0:0:
256,192,99876,1,8,0:0:0:0:
256,192,99949,1,0,0:0:0:0:
256,192,100021,1,8,0:0:0:0:
256,192,100094,1,8,0:0:0:0:
256,192,100167,1,8,0:0:0:0:
256,192,100240,1,0,0:0:0:0:
256,192,100313,1,8,0:0:0:0:
256,192,100349,1,8,0:0:0:0:
256,192,100458,1,8,0:0:0:0:
256,192,100494,1,8,0:0:0:0:
256,192,100604,1,0,0:0:0:0:
256,192,100640,1,0,0:0:0:0:
256,192,100750,1,8,0:0:0:0:
256,192,100786,1,8,0:0:0:0:
256,192,100895,1,8,0:0:0:0:
256,192,100931,1,8,0:0:0:0:
256,192,101041,1,0,0:0:0:0:
256,192,101077,1,0,0:0:0:0:
256,192,101186,1,8,0:0:0:0:
256,192,101259,1,0,0:0:0:0:
256,192,101332,1,8,0:0:0:0:
256,192,101478,1,8,0:0:0:0:
256,192,101514,1,8,0:0:0:0:
256,192,101623,1,8,0:0:0:0:
256,192,101659,1,8,0:0:0:0:
256,192,101769,1,0,0:0:0:0:
256,192,101805,1,0,0:0:0:0:
256,192,101915,1,8,0:0:0:0:
256,192,101951,1,8,0:0:0:0:
256,192,102060,1,8,0:0:0:0:
256,192,102109,1,0,0:0:0:0:
256,192,102157,1,0,0:0:0:0:
256,192,102206,1,8,0:0:0:0:
256,192,102352,1,8,0:0:0:0:
256,192,102400,1,8,0:0:0:0:
256,192,102449,1,8,0:0:0:0:
256,192,102497,1,0,0:0:0:0:
256,192,102570,1,0,0:0:0:0:
256,192,102643,1,12,0:0:0:0:
256,192,102934,1,8,0:0:0:0:
256,192,103225,1,0,0:0:0:0:
256,192,103517,1,0,0:0:0:0:
256,192,103554,1,0,0:0:0:0:
256,192,103663,1,8,0:0:0:0:
256,192,103700,1,8,0:0:0:0:
256,192,103809,1,8,0:0:0:0:
256,192,103846,1,8,0:0:0:0:
256,192,103954,1,0,0:0:0:0:
256,192,103991,1,0,0:0:0:0:
256,192,104100,1,8,0:0:0:0:
256,192,104137,1,8,0:0:0:0:
256,192,104246,1,8,0:0:0:0:
256,192,104283,1,8,0:0:0:0:
256,192,104391,1,8,0:0:0:0:
256,192,104464,1,8,0:0:0:0:
256,192,104537,1,0,0:0:0:0:
256,192,104610,1,0,0:0:0:0:
256,192,104682,1,8,0:0:0:0:
256,192,104755,1,8,0:0:0:0:
256,192,104828,1,0,0:0:0:0:
256,192,104901,1,0,0:0:0:0:
256,192,104974,1,8,0:0:0:0:
256,192,105010,1,8,0:0:0:0:
256,192,105119,1,8,0:0:0:0:
256,192,105155,1,8,0:0:0:0:
256,192,105265,1,0,0:0:0:0:
256,192,105301,1,0,0:0:0:0:
256,192,105411,1,8,0:0:0:0:
256,192,105447,1,8,0:0:0:0:
256,192,105556,1,8,0:0:0:0:
256,192,105592,1,8,0:0:0:0:
256,192,105702,1,0,0:0:0:0:
256,192,105738,1,0,0:0:0:0:
256,192,105847,1,8,0:0:0:0:
256,192,105919,1,8,0:0:0:0:
256,192,105992,1,0,0:0:0:0:
256,192,106065,1,0,0:0:0:0:
256,192,106138,1,8,0:0:0:0:
256,192,106174,1,8,0:0:0:0:
256,192,106284,1,8,0:0:0:0:
256,192,106320,1,8,0:0:0:0:
256,192,106429,1,8,0:0:0:0:
256,192,106465,1,8,0:0:0:0:
256,192,106575,1,0,0:0:0:0:
256,192,106611,1,0,0:0:0:0:
256,192,106720,1,8,0:0:0:0:
256,192,106768,1,8,0:0:0:0:
256,192,106817,1,8,0:0:0:0:
256,192,106865,1,0,0:0:0:0:
256,192,106938,1,0,0:0:0:0:
256,192,107011,1,8,0:0:0:0:
256,192,107060,1,0,0:0:0:0:
256,192,107109,1,0,0:0:0:0:
256,192,107157,1,8,0:0:0:0:
256,192,107206,1,0,0:0:0:0:
256,192,107254,1,0,0:0:0:0:
256,192,107302,1,8,0:0:0:0:
256,192,107449,1,8,0:0:0:0:
256,192,107485,1,8,0:0:0:0:
256,192,107594,1,8,0:0:0:0:
256,192,107630,1,8,0:0:0:0:
256,192,107740,1,0,0:0:0:0:
256,192,107776,1,0,0:0:0:0:
256,192,107885,1,8,0:0:0:0:
256,192,107921,1,8,0:0:0:0:
256,192,108031,1,0,0:0:0:0:
256,192,108067,1,0,0:0:0:0:
256,192,108177,1,0,0:0:0:0:
256,192,108213,1,0,0:0:0:0:
256,192,108322,1,8,0:0:0:0:
256,192,108358,1,8,0:0:0:0:
256,192,108468,1,0,0:0:0:0:
256,192,108504,1,0,0:0:0:0:
256,192,108614,1,8,0:0:0:0:
256,192,108650,1,8,0:0:0:0:
256,192,108759,1,8,0:0:0:0:
256,192,108795,1,8,0:0:0:0:
256,192,108905,1,0,0:0:0:0:
256,192,108941,1,0,0:0:0:0:
256,192,109051,1,8,0:0:0:0:
256,192,109123,1,0,0:0:0:0:
256,192,109196,1,8,0:0:0:0:
256,192,109269,1,0,0:0:0:0:
256,192,109342,1,8,0:0:0:0:
256,192,109415,1,8,0:0:0:0:
256,192,109487,1,8,0:0:0:0:
256,192,109560,1,0,0:0:0:0:
256,192,109633,1,8,0:0:0:0:
256,192,129439,5,0,0:0:0:0:
256,192,129512,1,0,0:0:0:0:
256,192,129585,1,8,0:0:0:0:
256,192,129657,1,0,0:0:0:0:
256,192,129730,1,8,0:0:0:0:
256,192,129803,1,8,0:0:0:0:
256,192,129876,1,0,0:0:0:0:
256,192,129949,1,0,0:0:0:0:
256,192,130021,1,8,0:0:0:0:
256,192,130070,1,8,0:0:0:0:
256,192,130118,1,8,0:0:0:0:
256,192,130167,1,0,0:0:0:0:
256,192,130240,1,0,0:0:0:0:
256,192,130313,1,8,0:0:0:0:
256,192,130361,1,0,0:0:0:0:
256,192,130410,1,0,0:0:0:0:
256,192,130458,1,8,0:0:0:0:
256,192,130507,1,0,0:0:0:0:
256,192,130555,1,0,0:0:0:0:
256,192,130604,1,12,0:0:0:0:
