osu file format v14

[General]
AudioFilename: (HD) Dubstep ~ Mantis & Rekoil - Trauma.mp3
AudioLeadIn: 0
PreviewTime: 102681
Countdown: 0
SampleSet: Soft
StackLeniency: 0.2
Mode: 0
LetterboxInBreaks: 0
WidescreenStoryboard: 1

[Editor]
Bookmarks: 18129,48818,60155,68591,100227,212258
DistanceSpacing: 0.6
BeatDivisor: 4
GridSize: 4
TimelineZoom: 5.799996

[Metadata]
Title:Trauma
TitleUnicode:Trauma
Artist:Mantis & Rekoil
ArtistUnicode:Mantis & Rekoil
Creator:Seni
Version:Senitoshi Collab
Source:
Tags:Akitoshi for president
BeatmapID:926143
BeatmapSetID:429222

[Difficulty]
HPDrainRate:4
CircleSize:4.2
OverallDifficulty:9.5
ApproachRate:9.7
SliderMultiplier:1.4
SliderTickRate:1

[Events]
//Background and Video events
0,0,"EK7z4Z5.png",0,0
//Break Periods
//Storyboard Layer 0 (Background)
//Storyboard Layer 1 (Fail)
//Storyboard Layer 2 (Pass)
//Storyboard Layer 3 (Foreground)
//Storyboard Sound Samples

[TimingPoints]
196,272.727272727273,4,2,1,40,1,0
14377,-166.666666666667,4,2,1,30,0,0
17241,-166.666666666667,4,2,1,5,0,0
17377,-100,4,2,1,60,0,0
17446,-100,4,2,1,5,0,0
17650,-125,4,2,1,40,0,0
17651,272.727272727273,4,2,1,40,1,0
18741,-121.951219512195,4,2,1,40,0,0
18946,-125,4,2,1,5,0,0
19014,-119.047619047619,4,2,1,45,0,0
19560,-133.333333333333,4,2,1,45,0,0
19832,-117.647058823529,4,2,1,45,0,0
20923,-100,4,2,1,45,0,0
21196,-117.647058823529,4,2,1,45,0,0
22014,-105.263157894737,4,2,1,48,0,0
22219,-133.333333333333,4,2,1,5,0,0
22287,-133.333333333333,4,2,1,48,0,0
22696,-117.647058823529,4,2,1,51,0,0
23105,-95.2380952380952,4,2,1,51,0,0
23241,-117.647058823529,4,2,1,51,0,0
23923,-133.333333333333,4,2,1,51,0,0
24196,-117.647058823529,4,2,1,53,0,0
25287,-100,4,2,1,53,0,0
25832,-83.3333333333333,4,2,1,55,0,0
26037,-83.3333333333333,4,2,1,5,0,0
26105,-111.111111111111,4,2,1,55,0,0
26309,-111.111111111111,4,2,1,5,0,0
26377,-83.3333333333333,4,2,1,55,0,0
26922,-111.111111111111,4,2,1,55,0,0
27468,-99.9999999999999,4,2,1,55,0,0
28287,-111.111111111111,4,2,1,55,0,0
29651,-83.3333333333333,4,2,1,55,0,0
30196,-111.111111111111,4,2,1,55,0,0
30741,-111.111111111111,4,2,1,55,0,0
30946,-111.111111111111,4,2,1,5,0,0
31014,-125,4,2,1,45,0,0
31219,-125,4,2,1,5,0,0
31287,-142.857142857143,4,2,1,35,0,0
31491,-142.857142857143,4,2,1,5,0,0
31560,-166.666666666667,4,2,1,25,0,0
31764,-166.666666666667,4,2,1,5,0,0
31832,-125,4,2,1,25,0,0
32037,-125,4,2,1,5,0,0
32105,-142.857142857143,4,2,1,20,0,0
32310,-142.857142857143,4,2,1,5,0,0
32376,-166.666666666667,4,2,1,15,0,0
32582,-166.666666666667,4,2,1,5,0,0
32651,-200,4,2,1,10,0,0
32855,-200,4,2,1,5,0,0
34014,-200,4,2,1,5,0,0
34832,-100,4,2,1,15,0,0
35105,-142.857142857143,4,2,1,55,0,0
35173,-142.857142857143,4,2,1,15,0,0
42741,-142.857142857143,4,2,1,10,0,0
43560,-125,4,2,1,15,0,0
43832,-125,4,2,1,65,0,0
43901,-125,4,2,1,15,0,0
48196,-117.647058823529,4,2,1,35,0,0
48264,-125,4,2,1,25,0,0
50378,-125,4,2,1,35,0,0
50514,-125,4,2,1,25,0,0
50651,-111.111111111111,4,2,1,25,0,0
51469,-111.111111111111,4,2,1,55,0,0
51605,-111.111111111111,4,2,1,5,0,0
52560,-111.111111111111,4,2,1,55,0,0
52628,-111.111111111111,4,2,1,35,0,0
54741,-111.111111111111,4,2,1,45,0,0
54810,-111.111111111111,4,2,1,35,0,0
56923,-111.111111111111,4,2,1,55,0,0
56991,-111.111111111111,4,2,1,35,0,0
57128,-111.111111111111,4,2,1,5,0,0
57196,-117.647058823529,4,2,1,30,0,0
57401,-117.647058823529,4,2,1,5,0,0
57469,-125,4,2,1,25,0,0
57673,-125,4,2,1,5,0,0
57741,-133.333333333333,4,2,1,20,0,0
57946,-133.333333333333,4,2,1,5,0,0
58014,-142.857142857143,4,2,1,15,0,0
58219,-142.857142857143,4,2,1,5,0,0
58287,-153.846153846154,4,2,1,10,0,0
58491,-153.846153846154,4,2,1,5,0,0
59037,-153.846153846154,4,2,1,5,0,0
59105,-111.111111111111,4,2,1,30,0,0
59310,-111.111111111111,4,2,1,5,0,0
59378,-111.111111111111,4,2,1,5,0,0
59651,-105.263157894737,4,2,1,15,0,0
59923,-100,4,2,1,25,0,0
60196,-95.2380952380952,4,2,1,35,0,0
60469,-90.9090909090909,4,2,1,40,0,0
60741,-90.9090909090909,4,2,1,45,0,0
61014,-90.9090909090909,4,2,1,50,0,0
61287,-125,4,2,1,55,0,0
61355,-125,4,2,1,15,0,0
62378,-125,4,2,1,55,0,0
62446,-125,4,2,1,15,0,0
63469,-111.111111111111,4,2,1,55,0,0
63537,-111.111111111111,4,2,1,15,0,0
63741,-105.263157894737,4,2,1,25,0,0
64014,-100,4,2,1,30,0,0
64560,-86.9565217391304,4,2,1,60,0,0
64628,-86.9565217391304,4,2,1,30,0,0
64832,-95.2380952380952,4,2,1,30,0,0
65105,-95.2380952380952,4,2,1,40,0,0
65651,-100,4,2,1,70,0,0
65719,-100,4,2,1,50,0,0
65855,-100,4,2,1,5,0,0
65923,-100,4,2,1,70,0,0
65991,-100,4,2,1,50,0,0
66196,-100,4,2,1,70,0,0
66264,-100,4,2,1,50,0,0
66401,-100,4,2,1,5,0,0
66469,-100,4,2,1,70,0,0
66537,-100,4,2,1,50,0,0
67287,-100,4,2,1,55,0,0
67832,-90.9090909090909,4,2,1,65,0,0
68377,-76.9230769230769,4,2,1,75,0,0
68651,-76.9230769230769,4,2,1,80,0,0
68923,-76.9230769230769,4,2,1,90,0,0
69196,-76.9230769230769,4,2,1,100,0,0
69469,-76.9230769230769,4,2,1,100,0,0
70014,-111.111111111111,4,2,1,90,0,1
70082,-111.111111111111,4,2,1,50,0,1
70560,-106.382978723404,4,2,1,70,0,1
70628,-106.382978723404,4,2,1,50,0,1
70764,-106.382978723404,4,2,1,5,0,1
70832,-111.111111111111,4,2,1,90,0,1
70901,-111.111111111111,4,2,1,60,0,1
71378,-83.3333333333333,4,2,1,60,0,1
72196,-111.111111111111,4,2,1,60,0,1
72401,-111.111111111111,4,2,1,5,0,1
72469,-111.111111111111,4,2,1,60,0,1
72741,-90.9090909090909,4,2,1,60,0,1
72946,-90.9090909090909,4,2,1,5,0,1
73014,-111.111111111111,4,2,1,60,0,1
73560,-111.111111111111,4,2,1,80,0,1
73628,-111.111111111111,4,2,1,60,0,1
73832,-111.111111111111,4,2,1,80,0,1
73901,-111.111111111111,4,2,1,60,0,1
74378,-111.111111111111,4,2,1,90,0,1
74446,-111.111111111111,4,2,1,60,0,1
74923,-83.3333333333333,4,2,1,80,0,1
74991,-83.3333333333333,4,2,1,60,0,1
75128,-83.3333333333333,4,2,1,5,0,1
75196,-83.3333333333333,4,2,1,80,0,1
75219,-83.3333333333333,4,2,1,25,0,1
75741,-83.3333333333333,4,2,1,80,0,1
75810,-83.3333333333333,4,2,1,70,0,1
76014,-83.3333333333333,4,2,1,80,0,1
76082,-83.3333333333333,4,2,1,60,0,1
76219,-83.3333333333333,4,2,1,5,0,1
76287,-83.3333333333333,4,2,1,80,0,1
76355,-83.3333333333333,4,2,1,60,0,1
76491,-83.3333333333333,4,2,1,5,0,1
76560,-76.9230769230769,4,2,1,80,0,1
76969,-76.9230769230769,4,2,1,85,0,1
77173,-76.9230769230769,4,2,1,65,0,1
77378,-71.4285714285714,4,2,1,65,0,1
77514,-71.4285714285714,4,2,1,85,0,1
77582,-71.4285714285714,4,2,1,65,0,1
77651,-76.9230769230769,4,2,1,65,0,1
77923,-76.9230769230769,4,2,1,85,0,1
78401,-76.9230769230769,4,2,1,65,0,1
78605,-76.9230769230769,4,2,1,85,0,1
78741,-100,4,2,1,85,0,1
78810,-100,4,2,1,65,0,1
78946,-76.9230769230769,4,2,1,5,0,1
79014,-76.9230769230769,4,2,1,65,0,1
79219,-76.9230769230769,4,2,1,5,0,1
79287,-76.9230769230769,4,2,1,85,0,1
79560,-100,4,2,1,85,0,1
79628,-100,4,2,1,45,0,1
80037,-100,4,2,1,5,0,1
80105,-100,4,2,1,65,0,1
80241,-100,4,2,1,85,0,1
80446,-100,4,2,1,65,0,1
80923,-100,4,2,1,85,0,1
81128,-100,4,2,1,5,0,1
81196,-100,4,2,1,65,0,1
81469,-83.3333333333333,4,2,1,85,0,1
81673,-83.3333333333333,4,2,1,5,0,1
81741,-100,4,2,1,85,0,1
81946,-100,4,2,1,5,0,1
82014,-100,4,2,1,65,0,1
82287,-100,4,2,1,85,0,1
82423,-100,4,2,1,65,0,1
82560,-100,4,2,1,85,0,1
82696,-100,4,2,1,65,0,1
83105,-100,4,2,1,85,0,1
83310,-100,4,2,1,5,0,1
83378,-76.9230769230769,4,2,1,65,0,1
83582,-76.9230769230769,4,2,1,5,0,1
83651,-71.4285714285714,4,2,1,65,0,1
83787,-71.4285714285714,4,2,1,65,0,1
83923,-100,4,2,1,45,0,1
83991,-100,4,2,1,25,0,1
84401,-100,4,2,1,5,0,1
84469,-66.6666666666667,4,2,1,65,0,1
84673,-66.6666666666667,4,2,1,5,0,1
84741,-62.5,4,2,1,65,0,1
84946,-62.5,4,2,1,5,0,1
85014,-62.5,4,2,1,45,0,1
85219,-62.5,4,2,1,5,0,1
85287,-76.9230769230769,4,2,1,75,0,1
85355,-76.9230769230769,4,2,1,45,0,1
85696,-76.9230769230769,4,2,1,75,0,1
85764,-76.9230769230769,4,2,1,45,0,1
86105,-76.9230769230769,4,2,1,75,0,1
86173,-76.9230769230769,4,2,1,45,0,1
86651,-76.9230769230769,4,2,1,75,0,1
87060,-76.9230769230769,4,2,1,45,0,1
87196,-76.9230769230769,4,2,1,85,0,1
87469,-90.9090909090909,4,2,1,75,0,1
87673,-90.9090909090909,4,2,1,5,0,1
87741,-62.5,4,2,1,55,0,1
87946,-62.5,4,2,1,5,0,1
88014,-62.5,4,2,1,75,0,1
88287,-90.9090909090909,4,2,1,55,0,1
88764,-90.9090909090909,4,2,1,5,0,1
88832,-71.4285714285714,4,2,1,65,0,1
88969,-71.4285714285714,4,2,1,85,0,1
89241,-71.4285714285714,4,2,1,65,0,1
89651,-90.9090909090909,4,2,1,85,0,1
89855,-90.9090909090909,4,2,1,5,0,1
89923,-90.9090909090909,4,2,1,65,0,1
90196,-83.3333333333333,4,2,1,85,0,1
90401,-83.3333333333333,4,2,1,5,0,1
90469,-90.9090909090909,4,2,1,75,0,1
90673,-90.9090909090909,4,2,1,5,0,1
90741,-90.9090909090909,4,2,1,65,0,1
91014,-90.9090909090909,4,2,1,85,0,1
91423,-90.9090909090909,4,2,1,65,0,1
91832,-90.9090909090909,4,2,1,75,0,1
92037,-90.9090909090909,4,2,1,5,0,1
92105,-66.6666666666667,4,2,1,65,0,1
92310,-66.6666666666667,4,2,1,5,0,1
92378,-66.6666666666667,4,2,1,85,0,1
92514,-66.6666666666667,4,2,1,5,0,1
92582,-66.6666666666667,4,2,1,85,0,1
92651,-66.6666666666667,4,2,1,45,0,1
93401,-66.6666666666667,4,2,1,5,0,1
93469,-76.9230769230769,4,2,1,85,0,1
93537,-76.9230769230769,4,2,1,65,0,1
93741,-83.3333333333333,4,2,1,75,0,1
94014,-62.5,4,2,1,65,0,1
94423,-62.5,4,2,1,85,0,1
94491,-62.5,4,2,1,65,0,1
94969,-62.5,4,2,1,85,0,1
95037,-62.5,4,2,1,55,0,1
95378,-62.5,4,2,1,85,0,1
96196,-83.3333333333333,4,2,1,85,0,1
96264,-83.3333333333333,4,2,1,65,0,1
96401,-83.3333333333333,4,2,1,5,0,1
96469,-71.4285714285714,4,2,1,75,0,1
96673,-71.4285714285714,4,2,1,5,0,1
96741,-71.4285714285714,4,2,1,85,0,1
97014,-90.9090909090909,4,2,1,85,0,1
97082,-90.9090909090909,4,2,1,65,0,1
97491,-90.9090909090909,4,2,1,5,0,1
97560,-66.6666666666667,4,2,1,65,0,1
97696,-66.6666666666667,4,2,1,85,0,1
97969,-66.6666666666667,4,2,1,65,0,1
98378,-83.3333333333333,4,2,1,85,0,1
98582,-83.3333333333333,4,2,1,5,0,1
98651,-83.3333333333333,4,2,1,75,0,1
98923,-66.6666666666667,4,2,1,65,0,1
99196,-90.9090909090909,4,2,1,85,0,1
99401,-90.9090909090909,4,2,1,65,0,1
99741,-90.9090909090909,4,2,1,85,0,1
100151,-66.6666666666667,4,2,1,75,0,1
100560,-76.9230769230769,4,2,1,85,0,1
100764,-76.9230769230769,4,2,1,5,0,1
100832,-66.6666666666667,4,2,1,65,0,1
101105,-58.8235294117647,4,2,1,85,0,1
101310,-58.8235294117647,4,2,1,5,0,1
101378,-58.8235294117647,4,2,1,45,0,1
101923,-76.9230769230769,4,2,1,85,0,1
102128,-76.9230769230769,4,2,1,5,0,1
102196,-100,4,2,1,85,0,1
102264,-100,4,2,1,65,0,1
102673,-100,4,2,1,5,0,1
102741,-76.9230769230769,4,2,1,85,0,0
103014,-76.9230769230769,4,2,1,75,0,0
103287,-76.9230769230769,4,2,1,65,0,0
103560,-76.9230769230769,4,2,1,55,0,0
103696,-76.9230769230769,4,2,1,85,0,0
103764,-76.9230769230769,4,2,1,65,0,0
103832,-66.6666666666667,4,2,1,85,0,0
103901,-66.6666666666667,4,2,1,65,0,0
104105,-76.9230769230769,4,2,1,85,0,0
104173,-76.9230769230769,4,2,1,65,0,0
104378,-76.9230769230769,4,2,1,95,0,0
104446,-76.9230769230769,4,2,1,5,0,0
104514,-76.9230769230769,4,2,1,95,0,0
104582,-76.9230769230769,4,2,1,5,0,0
104651,-76.9230769230769,4,2,1,100,0,0
104719,-76.9230769230769,4,2,1,5,0,0
104787,-76.9230769230769,4,2,1,100,0,0
104855,-76.9230769230769,4,2,1,5,0,0
104923,-71.4285714285714,4,2,1,100,0,1
104991,-76.9230769230769,4,2,1,65,0,1
105128,-76.9230769230769,4,2,1,5,0,1
105196,-76.9230769230769,4,2,1,65,0,1
105741,-76.9230769230769,4,2,1,90,0,1
105810,-76.9230769230769,4,2,1,65,0,1
106014,-76.9230769230769,4,2,1,90,0,1
106151,-76.9230769230769,4,2,1,65,0,1
106832,-76.9230769230769,4,2,1,90,0,1
106969,-76.9230769230769,4,2,1,65,0,1
107378,-76.9230769230769,4,2,1,90,0,1
107582,-76.9230769230769,4,2,1,65,0,1
107923,-76.9230769230769,4,2,1,90,0,1
107991,-76.9230769230769,4,2,1,65,0,1
108196,-76.9230769230769,4,2,1,90,0,1
108264,-76.9230769230769,4,2,1,65,0,1
109014,-76.9230769230769,4,2,1,90,0,1
109287,-100,4,2,1,90,0,1
109355,-100,4,2,1,65,0,1
109491,-76.9230769230769,4,2,1,5,0,1
109560,-100,4,2,1,75,0,1
109764,-100,4,2,1,5,0,1
109832,-66.6666666666667,4,2,1,75,0,1
110310,-66.6666666666667,4,2,1,5,0,1
110378,-66.6666666666667,4,2,1,75,0,1
110582,-66.6666666666667,4,2,1,5,0,1
110651,-66.6666666666667,4,2,1,75,0,1
112560,-133.333333333333,4,2,1,75,0,1
112832,-133.333333333333,4,2,1,65,0,1
113105,-133.333333333333,4,2,1,55,0,1
113378,-133.333333333333,4,2,1,40,0,1
113651,-66.6666666666667,4,2,1,75,0,1
114128,-66.6666666666667,4,2,1,5,0,1
114196,-66.6666666666667,4,2,1,75,0,1
116582,-66.6666666666667,4,2,1,5,0,1
116651,-100,4,2,1,75,0,1
116855,-100,4,2,1,5,0,1
116923,-66.6666666666667,4,2,1,75,0,1
117946,-66.6666666666667,4,2,1,5,0,1
118014,-66.6666666666667,4,2,1,75,0,1
118491,-66.6666666666667,4,2,1,5,0,1
118560,-66.6666666666667,4,2,1,75,0,1
119310,-66.6666666666667,4,2,1,5,0,1
119378,-66.6666666666667,4,2,1,75,0,1
121082,-100,4,2,1,75,0,1
121219,-100,4,2,1,5,0,1
121287,-66.6666666666667,4,2,1,75,0,1
122378,-100,4,2,1,75,0,1
122855,-100,4,2,1,5,0,1
122923,-66.6666666666667,4,2,1,75,0,1
123401,-66.6666666666667,4,2,1,5,0,1
123469,-66.6666666666667,4,2,1,75,0,1
126946,-66.6666666666667,4,2,1,5,0,1
127014,-66.6666666666667,4,2,1,75,0,1
127219,-66.6666666666667,4,2,1,5,0,1
127287,-66.6666666666667,4,2,1,75,0,1
127764,-66.6666666666667,4,2,1,5,0,1
127832,-66.6666666666667,4,2,1,75,0,1
128037,-66.6666666666667,4,2,1,5,0,1
128105,-66.6666666666667,4,2,1,75,0,1
129946,-66.6666666666667,4,2,1,5,0,1
130014,-133.333333333333,4,2,1,75,0,1
130287,-133.333333333333,4,2,1,65,0,1
130560,-133.333333333333,4,2,1,55,0,1
130832,-133.333333333333,4,2,1,45,0,1
131105,-66.6666666666667,4,2,1,75,0,1
131310,-66.6666666666667,4,2,1,5,0,1
131378,-66.6666666666667,4,2,1,75,0,1
131582,-66.6666666666667,4,2,1,5,0,1
131651,-66.6666666666667,4,2,1,75,0,1
134037,-66.6666666666667,4,2,1,5,0,1
134105,-66.6666666666667,4,2,1,75,0,1
135401,-66.6666666666667,4,2,1,5,0,1
135469,-66.6666666666667,4,2,1,75,0,1
135946,-66.6666666666667,4,2,1,5,0,1
136014,-66.6666666666667,4,2,1,75,0,1
136491,-66.6666666666667,4,2,1,5,0,1
136560,-66.6666666666667,4,2,1,75,0,1
136764,-66.6666666666667,4,2,1,5,0,1
136832,-66.6666666666667,4,2,1,75,0,1
137582,-66.6666666666667,4,2,1,5,0,1
137651,-66.6666666666667,4,2,1,75,0,1
137855,-66.6666666666667,4,2,1,5,0,1
137923,-66.6666666666667,4,2,1,75,0,1
138264,-66.6666666666667,4,2,1,5,0,1
138332,-66.6666666666667,4,2,1,75,0,1
138673,-66.6666666666667,4,2,1,5,0,1
138741,-100,4,2,1,75,0,1
138810,-100,4,2,1,5,0,0
139764,-100,4,2,1,5,0,0
139832,-66.6666666666667,4,2,1,75,0,0
140310,-66.6666666666667,4,2,1,5,0,0
140378,-76.9230769230769,4,2,1,75,0,0
140582,-76.9230769230769,4,2,1,5,0,0
140651,-66.6666666666667,4,2,1,75,0,0
141128,-66.6666666666667,4,2,1,5,0,0
141196,-76.9230769230769,4,2,1,75,0,0
141264,-76.9230769230769,4,2,1,5,0,0
141332,-76.9230769230769,4,2,1,75,0,0
141401,-76.9230769230769,4,2,1,5,0,0
141469,-76.9230769230769,4,2,1,75,0,0
141537,-76.9230769230769,4,2,1,5,0,0
141741,-76.9230769230769,4,2,1,75,0,0
141810,-76.9230769230769,4,2,1,5,0,0
141878,-76.9230769230769,4,2,1,75,0,0
141946,-76.9230769230769,4,2,1,5,0,0
142014,-66.6666666666667,4,2,1,75,0,0
142219,-66.6666666666667,4,2,1,5,0,0
142287,-76.9230769230769,4,2,1,75,0,0
142355,-76.9230769230769,4,2,1,5,0,0
142423,-76.9230769230769,4,2,1,75,0,0
142491,-76.9230769230769,4,2,1,5,0,0
142560,-76.9230769230769,4,2,1,75,0,0
142832,-66.6666666666667,4,2,1,75,0,0
143037,-66.6666666666667,4,2,1,5,0,0
143105,-76.9230769230769,4,2,1,75,0,0
143173,-76.9230769230769,4,2,1,5,0,0
143241,-76.9230769230769,4,2,1,75,0,0
143310,-76.9230769230769,4,2,1,5,0,0
143378,-76.9230769230769,4,2,1,75,0,0
143446,-76.9230769230769,4,2,1,5,0,0
143514,-76.9230769230769,4,2,1,75,0,0
143582,-76.9230769230769,4,2,1,5,0,0
143651,-76.9230769230769,4,2,1,75,0,0
143719,-76.9230769230769,4,2,1,5,0,0
143787,-76.9230769230769,4,2,1,75,0,0
144060,-76.9230769230769,4,2,1,75,0,0
144196,-66.6666666666667,4,2,1,75,0,0
144673,-66.6666666666667,4,2,1,5,0,0
144741,-76.9230769230769,4,2,1,75,0,0
144946,-76.9230769230769,4,2,1,5,0,0
145014,-100,4,2,1,45,0,0
145560,-76.9230769230769,4,2,1,75,0,0
145764,-76.9230769230769,4,2,1,5,0,0
145832,-66.6666666666667,4,2,1,75,0,0
146310,-66.6666666666667,4,2,1,5,0,0
146378,-76.9230769230769,4,2,1,75,0,0
146446,-76.9230769230769,4,2,1,5,0,0
146514,-76.9230769230769,4,2,1,75,0,0
146582,-76.9230769230769,4,2,1,5,0,0
146651,-76.9230769230769,4,2,1,75,0,0
146719,-76.9230769230769,4,2,1,5,0,0
146787,-76.9230769230769,4,2,1,75,0,0
147196,-66.6666666666667,4,2,1,75,0,0
147264,-66.6666666666667,4,2,1,5,0,0
147332,-66.6666666666667,4,2,1,75,0,0
147469,-76.9230769230769,4,2,1,75,0,0
147537,-76.9230769230769,4,2,1,5,0,0
147605,-76.9230769230769,4,2,1,75,0,0
147673,-76.9230769230769,4,2,1,5,0,0
147741,-76.9230769230769,4,2,1,75,0,0
147810,-76.9230769230769,4,2,1,5,0,0
147878,-76.9230769230769,4,2,1,75,0,0
148355,-76.9230769230769,4,2,1,5,0,0
148423,-76.9230769230769,4,2,1,75,0,0
148491,-76.9230769230769,4,2,1,5,0,0
148560,-66.6666666666667,4,2,1,75,0,0
149037,-66.6666666666667,4,2,1,5,0,0
149105,-76.9230769230769,4,2,1,75,0,0
149310,-76.9230769230769,4,2,1,5,0,0
149378,-66.6666666666667,4,2,1,75,0,0
149923,-76.9230769230769,4,2,1,75,0,0
149991,-76.9230769230769,4,2,1,5,0,0
150060,-76.9230769230769,4,2,1,75,0,0
150128,-76.9230769230769,4,2,1,5,0,0
150196,-76.9230769230769,4,2,1,75,0,0
150264,-76.9230769230769,4,2,1,5,0,0
150332,-76.9230769230769,4,2,1,75,0,0
150401,-76.9230769230769,4,2,1,5,0,0
150469,-76.9230769230769,4,2,1,75,0,0
150537,-76.9230769230769,4,2,1,5,0,0
150605,-76.9230769230769,4,2,1,75,0,0
150673,-76.9230769230769,4,2,1,5,0,0
150741,-66.6666666666667,4,2,1,75,0,0
150946,-66.6666666666667,4,2,1,5,0,0
151014,-76.9230769230769,4,2,1,75,0,0
151082,-76.9230769230769,4,2,1,5,0,0
151151,-76.9230769230769,4,2,1,75,0,0
151219,-76.9230769230769,4,2,1,5,0,0
151287,-100,4,2,1,75,0,0
151560,-66.6666666666667,4,2,1,75,0,0
151764,-66.6666666666667,4,2,1,5,0,0
151832,-76.9230769230769,4,2,1,75,0,0
151901,-76.9230769230769,4,2,1,5,0,0
151969,-76.9230769230769,4,2,1,75,0,0
152037,-76.9230769230769,4,2,1,5,0,0
152105,-76.9230769230769,4,2,1,75,0,0
152173,-76.9230769230769,4,2,1,5,0,0
152241,-76.9230769230769,4,2,1,75,0,0
152310,-76.9230769230769,4,2,1,5,0,0
152378,-76.9230769230769,4,2,1,75,0,0
152514,-76.9230769230769,4,2,1,75,0,0
152923,-66.6666666666667,4,2,1,75,0,0
153401,-66.6666666666667,4,2,1,5,0,0
153469,-76.9230769230769,4,2,1,75,0,0
153673,-76.9230769230769,4,2,1,5,0,0
153741,-100,4,2,1,45,0,0
154287,-76.9230769230769,4,2,1,75,0,0
154491,-76.9230769230769,4,2,1,5,0,0
154560,-66.6666666666667,4,2,1,75,0,0
155037,-66.6666666666667,4,2,1,5,0,0
155105,-76.9230769230769,4,2,1,75,0,0
157287,-66.6666666666667,4,2,1,75,0,0
157764,-66.6666666666667,4,2,1,5,0,0
157832,-76.9230769230769,4,2,1,75,0,0
158037,-76.9230769230769,4,2,1,5,0,0
158105,-66.6666666666667,4,2,1,75,0,0
158582,-66.6666666666667,4,2,1,5,0,0
158651,-76.9230769230769,4,2,1,75,0,0
158719,-76.9230769230769,4,2,1,5,0,0
158787,-76.9230769230769,4,2,1,75,0,0
158855,-76.9230769230769,4,2,1,5,0,0
158923,-76.9230769230769,4,2,1,75,0,0
158991,-76.9230769230769,4,2,1,5,0,0
159060,-76.9230769230769,4,2,1,75,0,0
159128,-76.9230769230769,4,2,1,5,0,0
159196,-76.9230769230769,4,2,1,75,0,0
159264,-76.9230769230769,4,2,1,5,0,0
159332,-76.9230769230769,4,2,1,75,0,0
159401,-76.9230769230769,4,2,1,5,0,0
159469,-66.6666666666667,4,2,1,75,0,0
159673,-66.6666666666667,4,2,1,5,0,0
159741,-76.9230769230769,4,2,1,75,0,0
159810,-76.9230769230769,4,2,1,5,0,0
159878,-76.9230769230769,4,2,1,75,0,0
159946,-76.9230769230769,4,2,1,5,0,0
160014,-76.9230769230769,4,2,1,75,0,0
160287,-66.6666666666667,4,2,1,75,0,0
160491,-66.6666666666667,4,2,1,5,0,0
160560,-76.9230769230769,4,2,1,75,0,0
160628,-76.9230769230769,4,2,1,5,0,0
160696,-76.9230769230769,4,2,1,75,0,0
160764,-76.9230769230769,4,2,1,5,0,0
160832,-76.9230769230769,4,2,1,75,0,0
160901,-76.9230769230769,4,2,1,5,0,0
160969,-76.9230769230769,4,2,1,75,0,0
161037,-76.9230769230769,4,2,1,5,0,0
161105,-76.9230769230769,4,2,1,75,0,0
161651,-66.6666666666667,4,2,1,75,0,0
162128,-66.6666666666667,4,2,1,5,0,0
162196,-76.9230769230769,4,2,1,75,0,0
162469,-66.6666666666667,4,2,1,45,0,0
163014,-76.9230769230769,4,2,1,75,0,0
163219,-76.9230769230769,4,2,1,5,0,0
163287,-66.6666666666667,4,2,1,75,0,0
163764,-66.6666666666667,4,2,1,5,0,0
163832,-66.6666666666667,4,2,1,75,0,0
163901,-66.6666666666667,4,2,1,5,0,0
163969,-66.6666666666667,4,2,1,75,0,0
164037,-66.6666666666667,4,2,1,5,0,0
164105,-66.6666666666667,4,2,1,75,0,0
164310,-66.6666666666667,4,2,1,5,0,0
164378,-66.6666666666667,4,2,1,75,0,0
164446,-66.6666666666667,4,2,1,5,0,0
164514,-66.6666666666667,4,2,1,75,0,0
164991,-66.6666666666667,4,2,1,5,0,0
165060,-66.6666666666667,4,2,1,75,0,0
165810,-66.6666666666667,4,2,1,5,0,0
165878,-66.6666666666667,4,2,1,75,0,0
165946,-66.6666666666667,4,2,1,5,0,0
166014,-66.6666666666667,4,2,1,75,0,0
166491,-66.6666666666667,4,2,1,5,0,0
166560,-76.9230769230769,4,2,1,75,0,0
166764,-76.9230769230769,4,2,1,5,0,0
166832,-66.6666666666667,4,2,1,75,0,0
167310,-66.6666666666667,4,2,1,5,0,0
167378,-76.9230769230769,4,2,1,75,0,0
167446,-76.9230769230769,4,2,1,5,0,0
167514,-76.9230769230769,4,2,1,75,0,0
167582,-76.9230769230769,4,2,1,5,0,0
167651,-76.9230769230769,4,2,1,75,0,0
167719,-76.9230769230769,4,2,1,5,0,0
167787,-76.9230769230769,4,2,1,75,0,0
167855,-76.9230769230769,4,2,1,5,0,0
167923,-76.9230769230769,4,2,1,75,0,0
167991,-76.9230769230769,4,2,1,5,0,0
168060,-76.9230769230769,4,2,1,75,0,0
168128,-76.9230769230769,4,2,1,5,0,0
168196,-66.6666666666667,4,2,1,75,0,0
168401,-66.6666666666667,4,2,1,5,0,0
168469,-76.9230769230769,4,2,1,75,0,0
168537,-76.9230769230769,4,2,1,5,0,0
168605,-76.9230769230769,4,2,1,75,0,0
168673,-76.9230769230769,4,2,1,5,0,0
168741,-100,4,2,1,75,0,0
169014,-66.6666666666667,4,2,1,75,0,0
169219,-66.6666666666667,4,2,1,5,0,0
169287,-76.9230769230769,4,2,1,75,0,0
169355,-76.9230769230769,4,2,1,5,0,0
169423,-76.9230769230769,4,2,1,75,0,0
169491,-76.9230769230769,4,2,1,5,0,0
169560,-76.9230769230769,4,2,1,75,0,0
169628,-76.9230769230769,4,2,1,5,0,0
169696,-76.9230769230769,4,2,1,75,0,0
169764,-76.9230769230769,4,2,1,5,0,0
169832,-76.9230769230769,4,2,1,75,0,0
170378,-66.6666666666667,4,2,1,75,0,0
170855,-66.6666666666667,4,2,1,5,0,0
170923,-76.9230769230769,4,2,1,75,0,0
171128,-76.9230769230769,4,2,1,5,0,0
171196,-66.6666666666667,4,2,1,45,0,0
171741,-76.9230769230769,4,2,1,75,0,0
171946,-76.9230769230769,4,2,1,5,0,0
172014,-66.6666666666667,4,2,1,75,0,0
172491,-66.6666666666667,4,2,1,5,0,0
172560,-133.333333333333,4,2,1,75,0,0
173105,-100,4,2,1,75,0,0
173651,-76.9230769230769,4,2,1,75,0,0
174196,-66.6666666666667,4,2,1,75,0,0
174741,357.568533969011,4,2,1,75,1,0
174741,-133.333333333333,4,2,1,75,0,0
174830,-133.333333333333,4,2,1,5,0,0
178942,-133.333333333333,4,2,1,5,0,0
179121,-133.333333333333,4,2,1,5,0,0
181802,-133.333333333333,4,2,1,5,0,0
181892,-100,4,2,1,20,0,0
182249,-100,4,2,1,40,0,0
182607,-100,4,2,1,60,0,0
182875,-66.6666666666667,4,2,1,75,0,0
183233,-66.6666666666667,4,2,1,5,0,0
183322,-133.333333333333,4,2,1,20,0,0
183412,-133.333333333333,4,2,1,5,0,0
184305,-133.333333333333,4,2,1,40,0,0
184395,-133.333333333333,4,2,1,5,0,0
186451,-133.333333333333,4,2,1,5,0,0
186808,-133.333333333333,4,2,1,5,0,0
189133,-133.333333333333,4,2,1,5,0,0
189222,-100,4,2,1,5,0,0
189580,-100,4,2,1,30,0,0
189758,-100,4,2,1,60,0,0
190027,437.956204379562,4,2,1,75,1,0
190027,-66.6666666666667,4,2,1,75,0,0
190872,422.535211267606,4,2,1,75,1,0
191717,408.163265306122,4,2,1,45,1,0
191717,-66.6666666666667,4,2,1,45,0,0
192533,394.736842105263,4,2,1,25,1,0
193322,-100,4,2,1,75,0,0
193618,-100,4,2,1,5,0,0
193717,-100,4,2,1,45,0,0
194901,382.165605095541,4,2,1,75,1,0
195187,-100,4,2,1,5,0,0
195283,-100,4,2,1,55,0,0
196429,-100,4,2,1,75,0,0
197193,370.37037037037,4,2,1,75,1,0
197933,-100,4,2,1,55,0,0
198674,-100,4,2,1,75,0,0
199375,359.281437125748,4,2,1,75,1,0
200812,348.837209302326,4,2,1,85,1,0
201509,-100,4,2,1,95,0,0
201858,-100,4,2,1,100,0,0
202204,342.857142857143,4,2,1,70,1,0
202204,-100,4,2,1,100,0,0
202289,-100,4,2,1,70,0,0
202461,-100,4,2,1,5,0,0
202546,-100,4,2,1,70,0,0
202804,-100,4,2,1,5,0,0
202889,-100,4,2,1,100,0,0
202975,-100,4,2,1,70,0,0
203146,-100,4,2,1,5,0,0
203232,-100,4,2,1,70,0,0
203404,-100,4,2,1,90,0,0
203489,-100,4,2,1,70,0,0
203918,-100,4,2,1,90,0,0
204089,-100,4,2,1,70,0,0
204261,-100,4,2,1,90,0,0
204346,-100,4,2,1,70,0,0
204604,-100,4,2,1,90,0,0
204689,-100,4,2,1,70,0,0
204946,-100,4,2,1,90,0,0
205118,-100,4,2,1,70,0,0
205461,-100,4,2,1,90,0,0
205718,-100,4,2,1,70,0,0
205975,-100,4,2,1,90,0,0
206061,-100,4,2,1,70,0,0
206318,-76.9230769230769,4,2,1,70,0,0
206404,-76.9230769230769,4,2,1,5,0,0
206489,-76.9230769230769,4,2,1,70,0,0
206575,-76.9230769230769,4,2,1,5,0,0
206661,-76.9230769230769,4,2,1,70,0,0
206746,-76.9230769230769,4,2,1,5,0,0
206832,-76.9230769230769,4,2,1,70,0,0
206918,-76.9230769230769,4,2,1,5,0,0
207004,-100,4,2,1,70,0,0
207346,-100,4,2,1,100,0,0
207775,-100,4,2,1,70,0,0
207946,-100,4,2,1,5,0,0
208032,-100,4,2,1,70,0,0
208204,-100,4,2,1,90,0,0
208461,-100,4,2,1,70,0,0
208632,-100,4,2,1,5,0,0
208718,-100,4,2,1,70,0,0
208889,-100,4,2,1,90,0,0
209061,-100,4,2,1,70,0,0
209404,-100,4,2,1,90,0,0
209575,-100,4,2,1,70,0,0
209746,-100,4,2,1,90,0,0
209832,-100,4,2,1,70,0,0
210089,-100,4,2,1,90,0,0
210175,-100,4,2,1,70,0,0
210432,-100,4,2,1,90,0,0
210604,-100,4,2,1,70,0,0
210946,-100,4,2,1,90,0,0
211204,-100,4,2,1,70,0,0
211461,-100,4,2,1,90,0,0
211546,-100,4,2,1,70,0,0
211889,-100,4,2,1,5,0,0
211975,-100,4,2,1,70,0,0
212061,-100,4,2,1,5,0,0
212146,-100,4,2,1,70,0,0
212232,-100,4,2,1,5,0,0
212315,-100,4,2,1,70,0,0
212404,-100,4,2,1,5,0,0
212489,-100,4,2,1,70,0,0
212832,-100,4,2,1,100,0,0
213432,-100,4,2,1,5,0,0
213518,-83.3333333333333,4,2,1,100,0,0
213775,-83.3333333333333,4,2,1,5,0,0
213861,-100,4,2,1,100,0,0
214118,-100,4,2,1,5,0,0
214204,-100,4,2,1,100,0,0
215232,-83.3333333333333,4,2,1,100,0,0
215489,-83.3333333333333,4,2,1,5,0,0
215575,-100,4,2,1,100,0,0
216261,-83.3333333333333,4,2,1,100,0,0
216518,-83.3333333333333,4,2,1,5,0,0
216604,-71.4285714285714,4,2,1,100,0,0
216689,-71.4285714285714,4,2,1,5,0,0
216775,-71.4285714285714,4,2,1,100,0,0
216861,-71.4285714285714,4,2,1,5,0,0
216946,-71.4285714285714,4,2,1,100,0,0
217204,-71.4285714285714,4,2,1,5,0,0
217289,-71.4285714285714,4,2,1,100,0,0
218661,-58.8235294117647,4,2,1,100,0,0
218918,-58.8235294117647,4,2,1,5,0,0
219004,-71.4285714285714,4,2,1,100,0,0
219261,-71.4285714285714,4,2,1,5,0,0
219346,-71.4285714285714,4,2,1,100,0,0
219604,-71.4285714285714,4,2,1,5,0,0
219689,-71.4285714285714,4,2,1,100,0,0
220975,-71.4285714285714,4,2,1,5,0,0
221061,-71.4285714285714,4,2,1,100,0,0
222004,-71.4285714285714,4,2,1,5,0,0
222089,-71.4285714285714,4,2,1,100,0,0
222175,-71.4285714285714,4,2,1,5,0,0
222261,-71.4285714285714,4,2,1,100,0,0
222346,-71.4285714285714,4,2,1,5,0,0
222432,-71.4285714285714,4,2,1,100,0,0
222689,-71.4285714285714,4,2,1,5,0,0
222775,-71.4285714285714,4,2,1,100,0,0
224146,-83.3333333333333,4,2,1,100,0,0
224404,-83.3333333333333,4,2,1,5,0,0
224489,-71.4285714285714,4,2,1,100,0,0
224746,-71.4285714285714,4,2,1,5,0,0
224832,-55.5555555555556,4,2,1,100,0,0
225089,-55.5555555555556,4,2,1,5,0,0
225175,-50,4,2,1,100,0,0
225518,-71.4285714285714,4,2,1,100,0,0
226204,-58.8235294117647,4,2,1,100,0,0
226461,-58.8235294117647,4,2,1,5,0,0
226546,-52.6315789473684,4,2,1,100,0,0
227061,-71.4285714285714,4,2,1,100,0,0
227575,-55.5555555555556,4,2,1,100,0,0
227832,-55.5555555555556,4,2,1,5,0,0
227918,-55.5555555555556,4,2,1,100,0,0
228004,-55.5555555555556,4,2,1,5,0,0
228089,-55.5555555555556,4,2,1,100,0,0
228175,-55.5555555555556,4,2,1,5,0,0
228261,-55.5555555555556,4,2,1,100,0,0
228346,-55.5555555555556,4,2,1,5,0,0
228432,-55.5555555555556,4,2,1,100,0,0
228604,-50,4,2,1,100,0,0
228861,-50,4,2,1,5,0,0
228946,-71.4285714285714,4,2,1,100,0,0
229204,-71.4285714285714,4,2,1,5,0,0
229289,-71.4285714285714,4,2,1,100,0,0
229632,-58.8235294117647,4,2,1,100,0,0
229889,-58.8235294117647,4,2,1,5,0,0
229975,-71.4285714285714,4,2,1,100,0,0
230232,-71.4285714285714,4,2,1,5,0,0
230318,-62.5,4,2,1,100,0,0
230404,-62.5,4,2,1,5,0,0
230489,-62.5,4,2,1,100,0,0
230575,-62.5,4,2,1,5,0,0
230661,-62.5,4,2,1,100,0,0
231089,-62.5,4,2,1,5,0,0
231175,-62.5,4,2,1,100,0,0
231261,-62.5,4,2,1,5,0,0
231346,-62.5,4,2,1,100,0,0
231775,-62.5,4,2,1,5,0,0
231861,-62.5,4,2,1,100,0,0
231946,-62.5,4,2,1,5,0,0
232032,-62.5,4,2,1,100,0,0
232289,-62.5,4,2,1,5,0,0
232375,-66.6666666666667,4,2,1,100,0,0
232632,-66.6666666666667,4,2,1,5,0,0
232718,-50,4,2,1,100,0,0
232975,-50,4,2,1,5,0,0
233061,-50,4,2,1,100,0,0
233404,-62.5,4,2,1,100,0,0
233661,-62.5,4,2,1,5,0,0
233746,-62.5,4,2,1,100,0,0
234004,-62.5,4,2,1,5,0,0
234089,-62.5,4,2,1,100,0,0
235118,-55.5555555555556,4,2,1,100,0,0
235375,-55.5555555555556,4,2,1,5,0,0
235461,-62.5,4,2,1,100,0,0
235718,-62.5,4,2,1,5,0,0
235804,-62.5,4,2,1,100,0,0
235889,-62.5,4,2,1,5,0,0
235975,-62.5,4,2,1,100,0,0
236061,-62.5,4,2,1,5,0,0
236146,-62.5,4,2,1,100,0,0
237089,-62.5,4,2,1,5,0,0
237175,-62.5,4,2,1,100,0,0
237261,-62.5,4,2,1,5,0,0
237346,-62.5,4,2,1,100,0,0
237432,-62.5,4,2,1,5,0,0
237518,-62.5,4,2,1,100,0,0
238461,-62.5,4,2,1,5,0,0
238546,-62.5,4,2,1,100,0,0
238632,-62.5,4,2,1,5,0,0
238718,-62.5,4,2,1,100,0,0
238804,-62.5,4,2,1,5,0,0
238889,-62.5,4,2,1,100,0,0
239232,-50,4,2,1,100,0,0
239575,-55.5555555555556,4,2,1,100,0,0
239832,-55.5555555555556,4,2,1,5,0,0
239918,-55.5555555555556,4,2,1,100,0,0
240604,-71.4285714285714,4,2,1,100,0,0
240861,-71.4285714285714,4,2,1,5,0,0
240946,-71.4285714285714,4,2,1,100,0,0
241204,-71.4285714285714,4,2,1,5,0,0
241289,-71.4285714285714,4,2,1,100,0,0
241375,-71.4285714285714,4,2,1,5,0,0
241461,-71.4285714285714,4,2,1,100,0,0
241546,-71.4285714285714,4,2,1,5,0,0
241632,-71.4285714285714,4,2,1,100,0,0
241889,-71.4285714285714,4,2,1,5,0,0
241975,-71.4285714285714,4,2,1,100,0,0
242061,-71.4285714285714,4,2,1,5,0,0
242146,-71.4285714285714,4,2,1,100,0,0
242232,-71.4285714285714,4,2,1,5,0,0
242318,-71.4285714285714,4,2,1,100,0,0
242575,-71.4285714285714,4,2,1,5,0,0
242661,-62.5,4,2,1,100,0,0
242746,-62.5,4,2,1,5,0,0
242832,-62.5,4,2,1,100,0,0
242918,-62.5,4,2,1,5,0,0
243004,-62.5,4,2,1,100,0,0
243261,-62.5,4,2,1,5,0,0
243346,-62.5,4,2,1,100,0,0
243604,-62.5,4,2,1,5,0,0
243689,-62.5,4,2,1,100,0,0
243946,-62.5,4,2,1,5,0,0
244032,-62.5,4,2,1,100,0,0
244632,-62.5,4,2,1,5,0,0
244718,-62.5,4,2,1,100,0,0
245318,-62.5,4,2,1,5,0,0
245404,-62.5,4,2,1,100,0,0
246004,-62.5,4,2,1,5,0,0
246089,-62.5,4,2,1,100,0,0
246475,-62.5,4,2,1,5,0,0
246775,-55.5555555555556,4,2,1,100,0,0
246861,-55.5555555555556,4,2,1,5,0,0
246946,-55.5555555555556,4,2,1,100,0,0
247032,-55.5555555555556,4,2,1,5,0,0
247118,-55.5555555555556,4,2,1,100,0,0
247204,-55.5555555555556,4,2,1,5,0,0
247289,-55.5555555555556,4,2,1,100,0,0
247375,-55.5555555555556,4,2,1,5,0,0
247461,-55.5555555555556,4,2,1,100,0,0
247718,-55.5555555555556,4,2,1,5,0,0
247804,-55.5555555555556,4,2,1,100,0,0
248061,-55.5555555555556,4,2,1,5,0,0
248146,-55.5555555555556,4,2,1,100,0,0
248232,-55.5555555555556,4,2,1,5,0,0
248318,-55.5555555555556,4,2,1,100,0,0
248404,-55.5555555555556,4,2,1,5,0,0
248489,-55.5555555555556,4,2,1,100,0,0
248575,-55.5555555555556,4,2,1,5,0,0
248661,-55.5555555555556,4,2,1,100,0,0
248746,-55.5555555555556,4,2,1,5,0,0
248832,-55.5555555555556,4,2,1,100,0,0
249089,-55.5555555555556,4,2,1,5,0,0
249175,-55.5555555555556,4,2,1,100,0,0
249432,-55.5555555555556,4,2,1,5,0,0
249518,-55.5555555555556,4,2,1,100,0,0
249604,-55.5555555555556,4,2,1,5,0,0
249689,-55.5555555555556,4,2,1,100,0,0
249775,-55.5555555555556,4,2,1,5,0,0
249861,-55.5555555555556,4,2,1,100,0,0
249946,-55.5555555555556,4,2,1,5,0,0
250032,-55.5555555555556,4,2,1,100,0,0
250118,-55.5555555555556,4,2,1,5,0,0
250204,-66.6666666666667,4,2,1,100,0,0
250461,-66.6666666666667,4,2,1,5,0,0
250546,-66.6666666666667,4,2,1,100,0,0
250804,-66.6666666666667,4,2,1,5,0,0
250889,-55.5555555555556,4,2,1,100,0,0
250975,-66.6666666666667,4,2,1,5,0,0
251061,-55.5555555555556,4,2,1,100,0,0
251146,-66.6666666666667,4,2,1,5,0,0
251232,-55.5555555555556,4,2,1,100,0,0
251318,-66.6666666666667,4,2,1,5,0,0
251404,-55.5555555555556,4,2,1,100,0,0
251489,-66.6666666666667,4,2,1,5,0,0
251575,-66.6666666666667,4,2,1,100,0,0
251832,-66.6666666666667,4,2,1,5,0,0
251918,-50,4,2,1,100,0,0
252346,-50,4,2,1,5,0,0
252432,-50,4,2,1,100,0,0
252518,-50,4,2,1,5,0,0
252604,-50,4,2,1,100,0,0
252689,-50,4,2,1,5,0,0
252775,-50,4,2,1,100,0,0
252861,-50,4,2,1,5,0,0
252946,-50,4,2,1,100,0,0
253375,-50,4,2,1,5,0,0
253461,-50,4,2,1,100,0,0
253546,-50,4,2,1,5,0,0
253632,-50,4,2,1,100,0,0
254232,-50,4,2,1,5,0,0
254318,-50,4,2,1,100,0,0
254575,-50,4,2,1,5,0,0
254661,-50,4,2,1,100,0,0
254746,-50,4,2,1,5,0,0
254832,-50,4,2,1,100,0,0
254918,-50,4,2,1,5,0,0
255004,-50,4,2,1,100,0,0
255261,-50,4,2,1,5,0,0
255346,-50,4,2,1,100,0,0
255432,-50,4,2,1,5,0,0
255518,-50,4,2,1,100,0,0
255604,-50,4,2,1,5,0,0
255689,-50,4,2,1,90,0,0
255946,-50,4,2,1,5,0,0
256032,-50,4,2,1,90,0,0
256289,-50,4,2,1,5,0,0
256375,-50,4,2,1,90,0,0
257061,-62.5,4,2,1,100,0,0
257318,-62.5,4,2,1,5,0,0
257404,-50,4,2,1,100,0,0
257446,-50,4,2,1,5,0,0
257575,-50,4,2,1,90,0,0
257832,-50,4,2,1,5,0,0
257918,-50,4,2,1,90,0,0
258004,-50,4,2,1,5,0,0
258089,-50,4,2,1,90,0,0
258175,-50,4,2,1,5,0,0
258261,-50,4,2,1,90,0,0
258346,-50,4,2,1,5,0,0
258432,-55.5555555555556,4,2,1,90,0,0
258689,-55.5555555555556,4,2,1,5,0,0
258775,-52.6315789473684,4,2,1,90,0,0
259118,-50,4,2,1,90,0,0
259204,-50,4,2,1,5,0,0
259289,-50,4,2,1,90,0,0
259375,-50,4,2,1,5,0,0
259461,-50,4,2,1,90,0,0
259546,-50,4,2,1,5,0,0
259632,-50,4,2,1,90,0,0
259718,-50,4,2,1,5,0,0
259804,-55.5555555555556,4,2,1,90,0,0
260061,-55.5555555555556,4,2,1,5,0,0
260146,-52.6315789473684,4,2,1,90,0,0
260404,-52.6315789473684,4,2,1,5,0,0
260489,-50,4,2,1,90,0,0
260575,-50,4,2,1,5,0,0
260661,-50,4,2,1,90,0,0
260746,-50,4,2,1,5,0,0
260832,-50,4,2,1,90,0,0
260918,-50,4,2,1,5,0,0
261004,-50,4,2,1,90,0,0
261089,-50,4,2,1,5,0,0
261175,-58.8235294117647,4,2,1,90,0,0
261432,-58.8235294117647,4,2,1,5,0,0
261518,-50,4,2,1,90,0,0
261604,-50,4,2,1,5,0,0
261689,-50,4,2,1,90,0,0
261775,-50,4,2,1,5,0,0
261861,-50,4,2,1,90,0,0
262546,-58.8235294117647,4,2,1,90,0,0
262804,-58.8235294117647,4,2,1,5,0,0
262889,-58.8235294117647,4,2,1,90,0,0
263146,-58.8235294117647,4,2,1,5,0,0
263232,-50,4,2,1,90,0,0
263318,-50,4,2,1,5,0,0
263404,-50,4,2,1,90,0,0
263575,-58.8235294117647,4,2,1,90,0,0
264175,-58.8235294117647,4,2,1,5,0,0
264261,-50,4,2,1,90,0,0
264346,-50,4,2,1,5,0,0
264432,-50,4,2,1,90,0,0
264518,-50,4,2,1,5,0,0
264604,-58.8235294117647,4,2,1,90,0,0
264861,-58.8235294117647,4,2,1,5,0,0
264946,-58.8235294117647,4,2,1,90,0,0
265204,-58.8235294117647,4,2,1,5,0,0
265289,-58.8235294117647,4,2,1,90,0,0
265546,-58.8235294117647,4,2,1,5,0,0
265632,-58.8235294117647,4,2,1,90,0,0
265889,-58.8235294117647,4,2,1,5,0,0
265975,-50,4,2,1,90,0,0
266061,-50,4,2,1,5,0,0
266146,-50,4,2,1,90,0,0
266232,-50,4,2,1,5,0,0
266318,-58.8235294117647,4,2,1,90,0,0
266575,-58.8235294117647,4,2,1,5,0,0
266661,-58.8235294117647,4,2,1,90,0,0
266918,-58.8235294117647,4,2,1,5,0,0
267004,-58.8235294117647,4,2,1,90,0,0
267261,-58.8235294117647,4,2,1,5,0,0
267346,-66.6666666666667,4,2,1,70,0,0
267604,-66.6666666666667,4,2,1,5,0,0
267689,-83.3333333333333,4,2,1,40,0,0
267946,-83.3333333333333,4,2,1,5,0,0

[Colours]
Combo1 : 228,206,78
Combo2 : 186,29,29
Combo3 : 109,67,35

[HitObjects]
256,192,14377,12,0,17241,0:3:0:0:
62,98,17377,6,4,B|57:162,1,35,6|4,0:3|0:3,0:3:0:0:
76,140,17651,2,0,L|68:244,1,105,4|0,0:3|0:3,0:3:0:0:
213,205,17923,6,0,B|173:197|173:197|125:205,1,70,2|2,0:3|0:3,0:3:0:0:
173,277,18196,1,2,0:3:0:0:
325,312,18332,1,2,0:3:0:0:
259,272,18469,2,0,B|251:308|251:308|255:341,1,70,4|2,0:3|0:3,0:3:0:0:
410,324,18741,2,0,L|298:308,1,86.1000013137818,8|0,0:3|0:3,0:3:0:0:
372,184,19014,2,0,B|380:212|380:212|376:256,1,58.7999982055665,4|2,0:3|0:3,0:3:0:0:
280,92,19287,2,0,B|272:76|272:76|272:52,1,29.3999991027832,4|0,0:3|0:3,0:3:0:0:
344,32,19423,1,2,0:3:0:0:
484,104,19560,2,0,B|456:120|456:120|416:128,1,52.5000020027161,4|2,0:3|0:3,0:3:0:0:
280,92,19832,2,0,B|248:83|248:83|200:58,1,59.5000011348725,6|2,0:3|0:3,0:3:0:0:
88,136,20105,5,4,0:3:0:0:
224,70,20241,1,4,0:3:0:0:
220,220,20378,1,2,0:3:0:0:
88,136,20514,2,0,L|64:96,2,29.7500005674362,2|2|4,0:3|0:3|0:3,0:3:0:0:
224,70,20787,1,2,0:3:0:0:
220,220,20923,6,0,B|196:192|196:192|176:148,1,70,8|2,0:3|0:3,0:3:0:0:
292,120,21196,1,2,0:3:0:0:
220,220,21332,1,8,0:3:0:0:
368,204,21469,2,0,B|388:196|388:196|416:192,1,29.7500005674362,2|2,0:3|0:3,0:3:0:0:
472,240,21605,1,2,0:3:0:0:
428,92,21741,1,4,0:3:0:0:
368,204,21878,1,2,0:3:0:0:
316,48,22014,6,0,B|296:68|296:68|280:104|280:104|244:128,1,99.7499973363877,4|0,0:3|0:3,0:3:0:0:
312,176,22287,2,0,B|316:212|316:212|304:244,1,52.5000020027161,2|2,0:3|0:3,0:3:0:0:
408,308,22560,1,2,0:3:0:0:
232,260,22696,2,0,L|188:248,2,29.7500005674362,2|2|4,0:3|0:3|0:3,0:3:0:0:
400,224,22969,1,2,0:3:0:0:
272,332,23105,6,0,B|236:340|236:340|188:332,1,73.4999977569581,8|2,0:3|0:3,0:3:0:0:
124,288,23378,1,10,0:3:0:0:
232,260,23514,1,2,0:3:0:0:
72,224,23651,1,2,0:3:0:0:
72,224,23719,1,2,0:3:0:0:
72,224,23787,1,2,0:3:0:0:
284,172,23923,2,0,B|212:184,1,52.5000020027161,4|2,0:3|0:3,0:3:0:0:
20,160,24196,6,0,L|92:132,1,59.5000011348725,4|2,0:3|0:3,0:3:0:0:
200,28,24469,5,4,0:3:0:0:
232,180,24605,1,4,0:3:0:0:
80,56,24741,2,0,P|144:88|144:88,1,59.5000011348725,2|2,0:3|0:3,0:3:0:0:
133,82,24946,1,2,0:3:0:0:
133,82,25014,1,4,0:3:0:0:
292,128,25151,1,2,0:3:0:0:
112,184,25287,6,0,B|76:196|76:196|16:200,1,70,8|2,0:3|0:3,0:3:0:0:
224,144,25560,5,2,0:3:0:0:
256,304,25696,1,8,0:3:0:0:
112,184,25832,6,0,B|140:184|140:184|160:212|160:212|196:224|196:224|224:248,1,125.999996154785,4|0,0:3|0:3,0:3:0:0:
288,252,26105,2,0,B|288:224|288:224|276:196|276:196|292:160,1,94.499997116089,4|0,0:3|0:3,0:3:0:0:
384,52,26378,6,0,B|396:104|396:104|392:140,1,83.9999974365235,4|2,0:3|0:3,0:3:0:0:
288,252,26651,1,2,0:3:0:0:
480,200,26787,1,2,0:3:0:0:
230,151,26923,2,0,B|258:163|258:163|306:163,1,62.9999980773926,2|2,0:3|0:3,0:3:0:0:
290,163,27128,1,2,0:3:0:0:
290,163,27196,1,4,0:3:0:0:
432,124,27332,1,2,0:3:0:0:
260,64,27469,6,0,B|228:60|228:60|164:64,1,70,8|2,0:3|0:3,0:3:0:0:
48,128,27741,1,2,0:3:0:0:
192,64,27878,1,2,0:3:0:0:
72,224,28014,1,2,0:3:0:0:
72,224,28082,1,2,0:3:0:0:
72,224,28151,1,2,0:3:0:0:
276,112,28287,2,0,L|251:183,1,62.9999980773926,4|2,0:3|0:3,0:3:0:0:
284,304,28560,5,2,0:3:0:0:
424,224,28696,1,2,0:3:0:0:
248,156,28832,1,4,0:3:0:0:
224,168,28901,1,2,0:3:0:0:
200,180,28969,1,4,0:3:0:0:
368,288,29105,6,0,L|424:220,1,62.9999980773926,2|2,0:3|0:3,0:3:0:0:
408,239,29310,1,2,0:3:0:0:
408,239,29378,1,4,0:3:0:0:
344,84,29514,1,2,0:3:0:0:
244,208,29651,6,0,B|224:256|224:256|232:312,1,83.9999974365235,8|2,0:3|0:3,0:3:0:0:
140,336,29923,1,4,0:3:0:0:
312,264,30060,1,8,0:3:0:0:
104,188,30196,2,0,B|136:200|136:200|188:200,1,62.9999980773926,4|2,0:3|0:3,0:3:0:0:
240,172,30401,1,2,0:3:0:0:
240,172,30469,2,0,B|216:140|216:140|172:116,1,62.9999980773926,4|2,0:3|0:3,0:3:0:0:
232,64,30673,1,2,0:3:0:0:
232,64,30741,6,0,P|248:112|216:168,1,94.499997116089,4|0,0:3|0:3,0:3:0:0:
292,108,31014,6,0,P|308:156|284:204,1,84,4|0,0:3|0:3,0:3:0:0:
356,148,31287,6,0,P|368:200|352:232,1,73.4999977569581,4|0,0:3|0:3,0:3:0:0:
424,188,31560,6,0,P|432:224|416:264,1,62.9999980773926,4|0,0:3|0:3,0:3:0:0:
196,276,31832,6,0,L|280:328,1,84,4|0,0:3|0:3,0:3:0:0:
176,228,32105,6,0,L|264:232,1,73.4999977569581,4|0,0:3|0:3,0:3:0:0:
136,196,32378,6,0,L|200:164,1,62.9999980773926,4|0,0:3|0:3,0:3:0:0:
88,172,32651,6,0,L|120:124,1,52.5,4|0,0:3|0:3,0:3:0:0:
244,88,32923,5,4,0:3:0:0:
272,116,33196,5,4,0:3:0:0:
300,128,33469,5,4,0:3:0:0:
328,132,33741,5,4,0:3:0:0:
352,128,34014,6,0,P|400:160|380:280,1,192.5,2|0,0:3|0:3,0:3:0:0:
311,310,34832,2,0,B|299:278|299:278|311:246|311:246|307:202|307:202,1,105,0|0,0:3|0:3,0:3:0:0:
356,136,35105,6,0,L|404:120,2,48.9999985046387,4|0|4,0:3|0:3|0:3,0:3:0:0:
308,48,35514,2,0,L|260:28,2,48.9999985046387,0|0|0,0:3|0:3|0:3,0:3:0:0:
402,120,35923,2,0,L|426:172,2,48.9999985046387,0|0|0,0:3|0:3|0:3,0:3:0:0:
340,192,36332,2,0,L|324:240,2,48.9999985046387,0|0|0,0:3|0:3|0:3,0:3:0:0:
260,304,36741,2,0,L|308:336,2,48.9999985046387,0|0|0,0:3|0:3|0:3,0:3:0:0:
164,308,37151,1,0,0:3:0:0:
164,308,37287,6,0,L|108:280,2,48.9999985046387,0|0|0,0:3|0:3|0:3,0:3:0:0:
176,168,37696,2,0,L|200:216,2,48.9999985046387,0|0|0,0:3|0:3|0:3,0:3:0:0:
268,112,38105,2,0,L|280:64,2,48.9999985046387,0|0|0,0:3|0:3|0:3,0:3:0:0:
168,56,38514,2,0,L|156:8,2,48.9999985046387,0|0|0,0:3|0:3|0:3,0:3:0:0:
72,92,38923,2,0,L|60:140,2,48.9999985046387,0|0|0,0:3|0:3|0:3,0:3:0:0:
164,176,39332,1,0,0:3:0:0:
164,176,39469,6,0,L|176:224,2,48.9999985046387,0|0|0,0:3|0:3|0:3,0:3:0:0:
288,60,39878,1,0,0:3:0:0:
288,60,40014,1,0,0:3:0:0:
316,156,40151,2,0,B|324:188|324:188|336:212,1,48.9999985046387,0|0,0:3|0:3,0:3:0:0:
263,68,40423,1,0,0:3:0:0:
304,188,40560,2,0,B|318:218|318:218|334:239,1,48.9999985046387,0|0,0:3|0:3,0:3:0:0:
236,76,40832,1,0,0:3:0:0:
292,220,40969,2,0,B|310:247|310:247|330:265,1,48.9999985046387,0|0,0:3|0:3,0:3:0:0:
208,84,41241,1,0,0:3:0:0:
280,252,41378,2,0,B|303:275|303:275|326:290,1,48.9999985046387,0|0,0:3|0:3,0:3:0:0:
460,120,41651,5,0,0:3:0:0:
460,120,41787,1,0,0:3:0:0:
332,124,41923,2,0,L|348:184,1,48.9999985046387,0|0,0:3|0:3,0:3:0:0:
480,152,42196,1,0,0:3:0:0:
304,92,42332,2,0,L|287:151,1,48.9999985046387,0|0,0:3|0:3,0:3:0:0:
500,184,42605,1,0,0:3:0:0:
276,60,42741,6,0,L|249:91,3,24.4999992523194,2|0|0|0,0:3|0:3|0:3|0:3,0:3:0:0:
188,112,43014,2,0,L|190:153,3,24.4999992523194,2|0|0|0,0:3|0:3|0:3|0:3,0:3:0:0:
155,209,43287,2,0,L|186:235,3,24.4999992523194,2|0|0|0,0:3|0:3|0:3|0:3,0:3:0:0:
328,328,43560,2,0,B|304:332|304:332|284:332,3,28,8|0|0|0,0:3|0:3|0:3|0:3,0:3:0:0:
207,289,43832,6,0,P|199:316|200:344,2,56,4|0|0,0:3|0:3|0:3,0:3:0:0:
292,204,44241,1,0,0:3:0:0:
201,264,44378,2,0,P|181:283|168:308,2,56,0|0|0,0:3|0:3|0:3,0:3:0:0:
308,224,44787,1,0,0:3:0:0:
186,250,44923,2,0,P|159:257|136:272,2,56,0|0|0,0:3|0:3|0:3,0:3:0:0:
204,160,45332,2,0,P|234:167|265:191,2,56,0|0|0,0:3|0:3|0:3,0:3:0:0:
88,184,45741,2,0,P|58:177|27:153,1,56,0|0,0:3|0:3,0:3:0:0:
96,104,46014,5,0,0:3:0:0:
186,250,46150,1,0,0:3:0:0:
304,112,46287,2,0,L|240:92,1,56,0|0,0:3|0:3,0:3:0:0:
120,124,46560,5,0,0:3:0:0:
324,96,46696,2,0,L|260:76,1,56,0|0,0:3|0:3,0:3:0:0:
144,144,46969,1,0,0:3:0:0:
348,80,47105,2,0,L|284:60,1,56,0|0,0:3|0:3,0:3:0:0:
168,164,47378,1,0,0:3:0:0:
372,64,47514,2,0,L|308:44,1,56,0|0,0:3|0:3,0:3:0:0:
320,164,47787,1,0,0:3:0:0:
116,64,47923,2,0,L|180:44,1,56,0|0,0:3|0:3,0:3:0:0:
320,164,48196,5,0,0:3:0:0:
200,232,48332,1,0,0:3:0:0:
304,352,48469,2,0,L|232:356,1,56,0|0,0:3|0:3,0:3:0:0:
404,316,48741,1,0,0:3:0:0:
284,340,48878,2,0,L|212:344,1,56,0|0,0:3|0:3,0:3:0:0:
416,288,49151,1,0,0:3:0:0:
256,328,49287,2,0,L|184:332,1,56,0|0,0:3|0:3,0:3:0:0:
428,260,49560,1,0,0:3:0:0:
232,312,49696,2,0,L|160:316,1,56,0|0,0:3|0:3,0:3:0:0:
92,196,49969,1,0,0:3:0:0:
288,248,50105,2,0,L|360:252,1,56,0|0,0:3|0:3,0:3:0:0:
156,72,50378,5,2,0:3:0:0:
260,168,50514,1,0,0:3:0:0:
89,258,50651,2,0,L|93:170,1,62.9999980773926,0|0,0:3|0:3,0:3:0:0:
156,72,50923,1,0,0:3:0:0:
260,168,51060,2,0,L|256:256,1,62.9999980773926,0|0,0:3|0:3,0:3:0:0:
178,322,51332,1,0,0:3:0:0:
408,290,51469,5,2,0:3:0:0:
256,192,51537,12,0,52423,0:3:0:0:
200,64,52560,6,0,P|160:96|128:184,1,125.999996154785,4|2,0:3|0:3,0:3:0:0:
256,180,53105,1,2,0:3:0:0:
256,180,53378,1,2,0:3:0:0:
256,180,53651,2,0,P|296:148|328:60,1,125.999996154785,2|2,0:3|0:3,0:3:0:0:
200,64,54196,1,2,0:3:0:0:
200,64,54469,1,2,0:3:0:0:
272,240,54741,6,0,P|301:281|388:318,1,125.999996154785,4|2,0:3|0:3,0:3:0:0:
390,190,55287,1,2,0:3:0:0:
390,190,55560,1,2,0:3:0:0:
390,190,55832,2,0,P|360:148|273:111,1,125.999996154785,2|2,0:3|0:3,0:3:0:0:
188,126,56378,1,6,0:3:0:0:
188,126,56651,1,6,0:3:0:0:
110,76,56923,6,0,B|97:127|97:127|112:176,1,94.499997116089,4|0,0:3|0:3,0:3:0:0:
199,206,57196,2,0,B|207:250|207:250|196:307,1,89.2500017023087,2|0,0:3|0:3,0:3:0:0:
292,201,57469,2,0,B|284:157|284:157|295:98,1,84,2|0,0:3|0:3,0:3:0:0:
439,170,57741,2,0,L|360:160,1,78.7500030040742,2|0,0:3|0:3,0:3:0:0:
292,201,58014,2,0,B|280:234|280:234|282:279,1,73.4999977569581,2|0,0:3|0:3,0:3:0:0:
202,193,58287,2,0,B|213:159|213:159|211:118,1,68.2499968757631,0|0,0:3|0:3,0:3:0:0:
134,149,58560,5,4,0:3:0:0:
134,149,58696,1,0,0:3:0:0:
191,47,58832,2,0,P|228:47|260:62,1,68.2499968757631,2|0,0:3|0:3,0:3:0:0:
323,129,59105,6,0,P|347:93|343:29,1,94.499997116089,4|0,0:3|0:3,0:3:0:0:
191,47,59378,2,0,P|167:35|159:27,3,31.4999990386963,2|0|0|0,0:3|0:3|0:3|0:3,0:3:0:0:
74,74,59651,2,0,P|66:118|74:134,3,33.2499991121292,2|0|0|0,0:3|0:3|0:3|0:3,0:3:0:0:
30,195,59923,2,0,P|46:219|62:235,3,35,2|0|0|0,0:3|0:3|0:3|0:3,0:3:0:0:
130,303,60196,2,0,P|154:283|170:259,3,36.749998878479,2|0|2|0,0:3|0:3|0:3|0:3,0:3:0:0:
272,296,60469,5,2,0:3:0:0:
284,300,60537,1,0,0:3:0:0:
296,304,60605,1,0,0:3:0:0:
308,308,60673,1,0,0:3:0:0:
320,312,60741,1,2,0:3:0:0:
339,315,60810,1,0,0:3:0:0:
361,313,60878,1,2,0:3:0:0:
384,299,60946,1,0,0:3:0:0:
398,272,61014,1,2,0:3:0:0:
394,237,61082,1,0,0:3:0:0:
365,210,61151,1,2,0:3:0:0:
322,208,61219,1,2,0:3:0:0:
293,225,61287,6,0,P|305:281|277:347,1,112,4|2,0:3|0:3,0:3:0:0:
208,276,61832,1,2,0:3:0:0:
208,276,62105,1,2,0:3:0:0:
123,327,62378,6,0,P|111:271|139:205,1,112,4|2,0:3|0:3,0:3:0:0:
208,276,62923,1,2,0:3:0:0:
208,276,63196,2,0,L|232:220,1,56,2|0,0:3|0:3,0:3:0:0:
320,68,63469,6,0,L|348:148,1,62.9999980773926,4|0,0:3|0:3,0:3:0:0:
344,240,63741,2,0,L|318:300,2,33.2499991121292,2|0|0,0:3|0:3|0:3,0:3:0:0:
488,176,64014,2,0,L|420:196,1,70,2|2,0:3|0:3,0:3:0:0:
420,195,64219,1,2,0:3:0:0:
420,195,64287,1,4,0:3:0:0:
256,160,64423,1,2,0:3:0:0:
372,296,64560,6,0,B|340:316|340:316|276:320,1,80.5000015354157,4|2,0:3|0:3,0:3:0:0:
104,280,64832,2,0,B|136:260|136:260|204:252,1,73.4999977569581,2|2,0:3|0:3,0:3:0:0:
384,184,65105,2,0,L|300:176,1,73.4999977569581,4|2,0:3|0:3,0:3:0:0:
310,177,65310,1,2,0:3:0:0:
310,177,65378,1,4,0:3:0:0:
144,164,65514,1,2,0:3:0:0:
308,56,65651,6,0,L|440:72,1,105,4|0,0:3|0:3,0:3:0:0:
452,160,65923,2,0,L|352:148,1,70,4|2,0:3|0:3,0:3:0:0:
220,184,66196,6,0,L|88:200,1,105,4|0,0:3|0:3,0:3:0:0:
76,288,66469,2,0,L|176:276,1,70,4|2,0:3|0:3,0:3:0:0:
304,332,66741,5,4,0:3:0:0:
216,184,66878,1,2,0:3:0:0:
408,248,67014,1,4,0:3:0:0:
408,248,67082,1,2,0:3:0:0:
408,248,67151,1,2,0:3:0:0:
145,279,67287,6,0,L|236:256,1,70,4|2,0:3|0:3,0:3:0:0:
212,261,67491,1,2,0:3:0:0:
212,261,67560,1,4,0:3:0:0:
400,168,67696,1,2,0:3:0:0:
236,96,67832,6,0,L|160:115,1,77.0000023498536,4|2,0:3|0:3,0:3:0:0:
344,116,68105,1,4,0:3:0:0:
74,187,68241,1,2,0:3:0:0:
312,252,68378,1,4,0:3:0:0:
158,236,68514,5,2,0:3:0:0:
158,236,68582,1,2,0:3:0:0:
158,236,68651,1,4,0:3:0:0:
364,139,68787,1,2,0:3:0:0:
100,110,68923,5,4,0:3:0:0:
404,224,69060,1,4,0:3:0:0:
46,262,69196,5,12,0:3:0:0:
457,154,69332,1,12,0:3:0:0:
0,118,69469,5,12,0:3:0:0:
0,118,70014,6,0,B|32:142|48:162|48:162|88:149|88:149|128:182|188:162,1,188.999994232178,4|0,0:3|0:3,0:3:0:0:
227,222,70491,1,0,0:3:0:0:
227,222,70560,2,0,B|210:271|210:271|227:323,1,98.6999984939576,8|0,0:3|0:3,0:3:0:0:
378,369,70832,6,0,B|418:329|418:329|402:285|402:285|434:245|418:193,1,188.999994232178,4|0,0:3|0:3,0:3:0:0:
341,231,71310,1,0,0:3:0:0:
341,231,71378,5,2,0:3:0:0:
86,290,71514,1,4,0:3:0:0:
332,308,71651,5,8,0:3:0:0:
40,207,71787,1,2,0:3:0:0:
320,165,71923,5,2,0:3:0:0:
28,64,72059,1,2,0:3:0:0:
375,95,72196,6,0,B|398:126|398:126|406:162|406:162|426:202|426:202,1,94.499997116089,4|0,0:3|0:3,0:3:0:0:
323,255,72469,1,2,0:3:0:0:
245,93,72605,1,2,0:3:0:0:
492,221,72741,2,0,P|460:257|368:253,1,115.50000352478,8|0,0:3|0:3,0:3:0:0:
236,279,73014,6,0,B|271:280|271:280|295:261|295:261|344:247,1,94.499997116089,4|0,0:3|0:3,0:3:0:0:
414,179,73287,5,2,0:3:0:0:
167,212,73423,1,2,0:3:0:0:
336,329,73560,5,4,0:3:0:0:
80,204,73696,1,2,0:3:0:0:
432,108,73832,5,8,0:3:0:0:
213,331,73969,1,2,0:3:0:0:
213,331,74037,1,2,0:3:0:0:
213,331,74105,1,2,0:3:0:0:
112,54,74241,1,2,0:3:0:0:
360,32,74378,6,0,B|396:24|396:24|360:76|360:76|348:124|348:124|312:156,1,188.999994232178,4|0,0:3|0:3,0:3:0:0:
250,96,74855,1,0,0:3:0:0:
250,96,74923,2,0,P|231:152|282:228,1,125.999996154785,8|0,0:3|0:3,0:3:0:0:
253,283,75196,6,0,L|238:300,14,20.9999993591309,4|0|0|0|2|0|0|0|2|0|0|0|2|0|0,3:3|0:3|0:3|0:3|0:3|0:3|0:3|0:3|0:3|0:3|0:3|0:3|0:3|0:3|0:3,0:3:0:0:
322,251,75741,6,0,B|370:231|370:231|390:179,1,83.9999974365235,4|0,0:3|0:3,0:3:0:0:
438,123,75946,1,0,0:3:0:0:
438,123,76014,2,0,P|474:175|462:251,1,125.999996154785,8|0,0:3|0:3,0:3:0:0:
354,363,76287,2,0,P|318:311|330:235,1,125.999996154785,0|0,0:3|0:3,0:3:0:0:
359,164,76560,6,0,B|312:157|312:157|243:178,1,90.9999958343508,2|2,0:3|0:3,0:3:0:0:
212,224,76832,1,2,0:3:0:0:
436,208,76969,5,4,0:3:0:0:
168,122,77105,1,8,0:3:0:0:
416,40,77241,1,2,0:3:0:0:
128,36,77378,6,0,B|156:72|156:72|172:136,1,97.9999970092774,2|4,0:3|0:3,0:3:0:0:
232,176,77582,1,0,0:3:0:0:
232,176,77651,2,0,B|252:136|252:136|252:80,1,90.9999958343508,0|2,0:3|0:3,0:3:0:0:
84,216,77923,5,4,0:3:0:0:
344,112,78060,1,4,0:3:0:0:
52,124,78196,5,8,0:3:0:0:
304,308,78332,2,0,L|344:284,1,45.4999979171754,4|2,0:3|0:3,0:3:0:0:
400,88,78469,2,0,L|324:104,1,45.4999979171754,2|2,0:3|0:3,0:3:0:0:
200,312,78605,1,8,0:3:0:0:
400,60,78741,6,0,B|360:68|360:68|332:84|332:84|276:96,1,105,4|0,0:3|0:3,0:3:0:0:
240,152,79014,2,0,P|284:176|368:148,1,136.499993751526,0|0,0:3|0:3,0:3:0:0:
300,88,79287,2,0,B|284:156|284:156|292:192|292:192,1,90.9999958343508,8|0,0:3|0:3,0:3:0:0:
372,220,79491,1,0,0:3:0:0:
372,220,79560,2,0,B|324:220|324:220|292:200|292:200|244:216|184:200|184:200|224:168,1,245,4|0,0:3|0:3,0:3:0:0:
124,144,80105,5,2,0:3:0:0:
368,44,80241,1,4,0:3:0:0:
120,172,80378,5,4,0:3:0:0:
420,104,80514,1,2,0:3:0:0:
116,200,80651,5,2,0:3:0:0:
472,164,80787,1,2,0:3:0:0:
112,232,80923,6,0,B|172:248|172:248|236:236,1,105,4|0,0:3|0:3,0:3:0:0:
264,184,81196,1,2,0:3:0:0:
488,88,81332,1,2,0:3:0:0:
232,60,81469,2,0,B|276:104|276:104|348:140,1,125.999996154785,8|0,0:3|0:3,0:3:0:0:
396,80,81741,2,0,P|416:128|392:192,1,105,4|0,0:3|0:3,0:3:0:0:
352,252,82014,5,2,0:3:0:0:
68,216,82151,1,2,0:3:0:0:
324,72,82287,5,4,0:3:0:0:
200,340,82423,1,2,0:3:0:0:
152,40,82560,5,8,0:3:0:0:
412,248,82696,1,2,0:3:0:0:
412,248,82764,1,2,0:3:0:0:
412,248,82832,1,2,0:3:0:0:
85,335,82969,1,2,0:3:0:0:
268,57,83105,6,0,B|308:61|308:61|336:81|336:81|384:93|384:93,1,105,4|0,0:3|0:3,0:3:0:0:
444,113,83378,2,0,P|412:157|324:157,1,136.499993751526,0|0,0:3|0:3,0:3:0:0:
245,141,83651,5,8,0:3:0:0:
245,141,83923,6,0,B|225:121|225:121|213:177|265:225|265:225|269:285|269:285|317:305,1,244.999992523194,4|0,0:3|0:3,0:3:0:0:
428,277,84469,6,0,B|447:220|447:220|325:235,1,157.500006008148,4|0,0:3|0:3,0:3:0:0:
105,232,84741,2,0,B|63:237|63:237|114:274|114:274|218:262,1,168,8|0,0:3|0:3,0:3:0:0:
245,141,85014,2,0,B|256:97|256:97|245:64|245:64|260:20|260:20|200:-11,1,168,0|0,0:3|0:3,0:3:0:0:
36,105,85287,6,0,L|126:93,1,90.9999958343508,4|8,0:3|0:3,0:3:0:0:
329,64,85560,1,2,0:3:0:0:
451,269,85696,2,4,L|322:281,1,90.9999958343508,4|8,0:3|0:3,0:3:0:0:
82,301,85969,1,2,0:3:0:0:
244,13,86105,6,0,B|234:58|234:58|240:102,1,90.9999958343508,4|8,0:3|0:3,0:3:0:0:
280,328,86378,1,2,0:3:0:0:
435,110,86514,1,2,0:3:0:0:
92,56,86651,5,4,0:3:0:0:
401,191,86787,1,4,0:3:0:0:
60,231,86923,5,8,0:3:0:0:
344,40,87060,1,2,0:3:0:0:
344,40,87128,1,2,0:3:0:0:
344,40,87196,1,8,0:3:0:0:
380,358,87332,1,8,0:3:0:0:
28,144,87469,6,0,B|40:72|40:72|40:48|40:48|60:16,1,115.50000352478,4|0,0:3|0:3,0:3:0:0:
128,160,87741,2,0,B|116:208|116:208|136:248|116:308|116:308|148:292,1,168,0|0,0:3|0:3,0:3:0:0:
130,300,88014,1,8,0:3:0:0:
130,300,88287,6,0,B|116:308|116:308|139:244|109:192|109:192|143:143|143:143|99:107|99:107|143:95,1,269.500008224488,4|0,0:3|0:3,0:3:0:0:
179,31,88832,6,0,B|184:88,1,48.9999985046387,2|0,0:3|0:3,0:3:0:0:
197,204,88969,1,4,0:3:0:0:
317,79,89105,5,8,0:3:0:0:
30,57,89241,1,2,0:3:0:0:
387,173,89378,5,2,0:3:0:0:
52,150,89514,1,2,0:3:0:0:
457,267,89651,6,0,B|477:279|477:279|437:299|405:295|405:295|353:303,1,115.50000352478,4|0,0:3|0:3,0:3:0:0:
328,241,89923,1,2,0:3:0:0:
137,173,90060,1,2,0:3:0:0:
277,341,90196,2,0,B|273:305|273:305|245:265|245:265|241:213,1,125.999996154785,8|0,0:3|0:3,0:3:0:0:
195,336,90469,2,0,B|277:341|277:341|310:319,1,115.50000352478,4|0,0:3|0:3,0:3:0:0:
380,268,90741,5,2,0:3:0:0:
191,128,90878,1,2,0:3:0:0:
443,145,91014,5,4,0:3:0:0:
117,264,91151,1,4,0:3:0:0:
214,17,91287,1,8,0:3:0:0:
303,248,91423,6,0,L|246:268,1,38.5000011749268,2|2,0:3|0:3,0:3:0:0:
384,216,91560,1,2,0:3:0:0:
117,264,91696,1,2,0:3:0:0:
372,304,91832,6,0,P|424:296|468:232,1,115.50000352478,0|0,0:3|0:3,0:3:0:0:
448,320,92105,2,0,B|404:308|392:264|392:264|352:248|352:248|316:200,1,157.500006008148,0|0,0:3|0:3,0:3:0:0:
348,136,92378,2,0,P|299:69|247:62,1,105.000004005432,8|0,0:3|0:3,0:3:0:0:
196,48,92582,1,0,0:3:0:0:
196,48,92651,6,0,L|186:68,21,17.5,4|0|0|0|0|0|2|0|0|0|0|0|2|0|0|0|0|0|2|0|0|0,3:3|0:3|0:3|0:3|0:3|0:3|0:3|0:3|0:3|0:3|0:3|0:3|0:3|0:3|0:3|0:3|0:3|0:3|0:3|0:3|0:3|0:3,0:3:0:0:
196,48,93196,6,0,B|168:84|168:84|172:140|172:140|132:208,1,157.500006008148,4|0,0:3|0:3,0:3:0:0:
56,204,93469,2,0,P|92:260|140:276,1,90.9999958343508,8|0,0:3|0:3,0:3:0:0:
200,252,93673,1,0,0:3:0:0:
200,252,93741,2,0,B|248:236|248:236|256:188|316:164,1,125.999996154785,0|0,0:3|0:3,0:3:0:0:
332,252,94014,6,0,L|444:245,1,112,2|2,0:3|0:3,0:3:0:0:
186,176,94287,1,2,0:3:0:0:
385,147,94423,6,0,L|497:140,1,112,4|8,0:3|0:3,0:3:0:0:
239,71,94696,1,2,0:3:0:0:
456,104,94832,2,0,B|465:139|465:139|461:193,1,56,2|2,0:3|0:3,0:3:0:0:
310,188,94969,2,0,B|301:153|301:153|305:99,1,56,8|2,0:3|0:3,0:3:0:0:
512,233,95105,6,0,B|461:240|461:240|402:224,1,112,2|2,0:3|0:3,0:3:0:0:
239,71,95378,5,4,0:3:0:0:
463,158,95514,1,4,0:3:0:0:
278,316,95651,1,8,0:3:0:0:
347,63,95787,2,0,L|352:132,1,56,4|2,0:3|0:3,0:3:0:0:
163,280,95923,2,0,L|167:224,1,56,2|2,0:3|0:3,0:3:0:0:
182,45,96060,1,8,0:3:0:0:
371,207,96196,6,0,B|326:210|326:210|295:233|295:233|223:239,1,125.999996154785,4|0,0:3|0:3,0:3:0:0:
265,161,96469,2,0,P|273:105|385:73,1,146.999995513916,0|0,0:3|0:3,0:3:0:0:
440,56,96741,1,8,0:3:0:0:
440,56,97014,6,0,B|456:104|456:104|504:128|504:128|480:188|500:224|500:224|480:252|476:296,1,269.500008224488,4|0,0:3|0:3,0:3:0:0:
408,312,97560,6,0,L|336:328,1,52.5000020027161,2|0,0:3|0:3,0:3:0:0:
76,216,97696,1,4,0:3:0:0:
240,348,97832,5,8,0:3:0:0:
64,72,97969,1,2,0:3:0:0:
32,320,98105,5,2,0:3:0:0:
363,164,98241,1,2,0:3:0:0:
40,96,98378,2,0,B|8:121|8:121|117:151,1,125.999996154785,4|0,0:3|0:3,0:3:0:0:
168,108,98651,5,2,0:3:0:0:
272,320,98787,1,2,0:3:0:0:
440,152,98923,6,0,B|428:104|428:104|380:88|380:88|344:36,1,157.500006008148,8|0,0:3|0:3,0:3:0:0:
424,28,99196,2,0,P|408:96|356:120,1,115.50000352478,4|0,0:3|0:3,0:3:0:0:
264,100,99469,5,2,0:3:0:0:
464,264,99605,1,2,0:3:0:0:
88,132,99741,5,4,0:3:0:0:
347,40,99878,1,4,0:3:0:0:
76,300,100014,5,8,0:3:0:0:
160,64,100151,2,0,L|224:40,1,52.5000020027161,2|2,0:3|0:3,0:3:0:0:
356,228,100287,2,2,L|306:246,1,52.5000020027161,2|0,0:3|0:3,0:3:0:0:
56,112,100423,1,2,0:3:0:0:
324,328,100560,6,0,B|421:289|421:289|437:253,1,136.499993751526,4|0,0:3|0:3,0:3:0:0:
356,228,100832,2,0,B|360:192|360:192|388:164|388:164|400:104,1,105.000004005432,0|0,0:3|0:3,0:3:0:0:
364,60,101037,1,0,0:3:0:0:
364,60,101105,2,0,B|336:41|336:41|310:43|310:43|279:23|219:34|219:34|241:55,1,178.500003404617,8|0,0:3|0:3,0:3:0:0:
256,128,101378,6,0,L|267:147,25,17.5,6|0|0|0|0|0|0|0|0|0|0|0|0|0|0|0|0|0|0|0|0|0|0|0|0|0,3:3|0:3|0:3|0:3|0:3|0:3|0:3|0:3|0:3|0:3|0:3|0:3|0:3|0:3|0:3|0:3|0:3|0:3|0:3|0:3|0:3|0:3|0:3|0:3|0:3|0:3,0:3:0:0:
236,216,101923,2,0,B|184:248|184:248|128:256|128:256|96:292|96:292,1,136.499993751526,4|0,0:3|0:3,0:3:0:0:
192,316,102196,2,0,B|178:261|178:261|140:235|140:235|125:190|125:190|64:204|32:152,1,245,8|0,0:3|0:3,0:3:0:0:
100,120,102741,5,4,0:3:0:0:
398,55,102878,1,2,0:3:0:0:
184,128,103014,5,2,0:3:0:0:
417,196,103151,1,2,0:3:0:0:
268,132,103287,5,2,0:3:0:0:
313,303,103423,1,2,0:3:0:0:
352,136,103560,5,2,0:3:0:0:
290,221,103696,1,4,0:3:0:0:
290,221,103764,1,2,0:3:0:0:
290,221,103832,5,8,0:3:0:0:
417,196,103969,1,2,0:3:0:0:
268,132,104105,5,4,0:3:0:0:
313,303,104241,1,2,0:3:0:0:
356,79,104378,6,0,P|368:111|364:151,1,45.4999979171754,8|2,0:3|0:3,0:3:0:0:
221,315,104514,2,0,P|221:283|229:259,1,45.4999979171754,8|2,0:3|0:3,0:3:0:0:
495,248,104651,2,0,P|471:275|431:292,1,45.4999979171754,8|2,0:3|0:3,0:3:0:0:
47,124,104787,2,0,P|83:115|114:119,1,45.4999979171754,8|0,0:3|0:3,0:3:0:0:
472,44,104923,6,4,B|476:40|476:40|444:24|400:32|400:32|360:28|360:28|316:40,1,146.999995513916,4|4,0:3|0:3,0:3:0:0:
92,116,105196,2,0,B|72:124|72:124|128:148|128:148|188:148,1,136.499993751526,0|0,0:3|0:3,0:3:0:0:
488,176,105469,5,2,0:3:0:0:
176,232,105605,1,2,0:3:0:0:
392,88,105741,1,4,0:3:0:0:
392,88,105810,1,2,0:3:0:0:
392,88,105878,1,2,0:3:0:0:
168,40,106014,5,8,0:3:0:0:
416,264,106151,1,2,0:3:0:0:
60,136,106287,1,2,0:3:0:0:
332,40,106423,6,0,L|368:79,1,45.4999979171754,2|2,0:3|0:3,0:3:0:0:
428,216,106560,1,2,0:3:0:0:
249,159,106696,2,0,L|285:198,1,45.4999979171754,2|2,0:3|0:3,0:3:0:0:
346,335,106832,1,4,0:3:0:0:
216,36,106969,5,2,0:3:0:0:
108,296,107105,1,2,0:3:0:0:
108,296,107173,1,2,0:3:0:0:
108,296,107241,1,2,0:3:0:0:
384,164,107378,5,8,0:3:0:0:
64,116,107514,1,4,0:3:0:0:
64,116,107582,1,2,0:3:0:0:
64,116,107651,1,2,0:3:0:0:
192,340,107787,5,2,0:3:0:0:
160,112,107923,2,0,P|176:96|208:80,1,45.4999979171754,4|2,0:3|0:3,0:3:0:0:
360,32,108060,1,2,0:3:0:0:
472,228,108196,5,8,0:3:0:0:
160,112,108332,1,2,0:3:0:0:
404,344,108469,1,2,0:3:0:0:
340,48,108605,1,2,0:3:0:0:
340,48,108673,1,2,0:3:0:0:
340,48,108741,1,2,0:3:0:0:
72,88,108878,2,0,L|136:100,1,45.4999979171754,2|2,0:3|0:3,0:3:0:0:
512,104,109014,5,6,0:3:0:0:
0,259,109151,1,6,0:3:0:0:
431,336,109287,6,0,B|439:301|439:301|430:269|430:269|439:202,1,105,4|0,0:3|0:3,0:3:0:0:
437,216,109560,2,0,P|401:222|334:172,1,105,0|0,0:3|0:3,0:3:0:0:
325,170,109832,1,2,0:3:0:0:
132,343,109969,1,0,0:3:0:0:
198,89,110105,1,2,0:3:0:0:
198,89,110173,1,0,0:3:0:0:
198,89,110241,2,0,L|190:23,1,52.5000020027161,0|0,0:3|0:3,0:3:0:0:
47,226,110378,2,0,B|104:260|143:194|222:240,1,157.500006008148,12|0,0:3|0:3,0:3:0:0:
224,240,110651,5,2,0:3:0:0:
409,46,110787,1,0,0:3:0:0:
415,37,110855,1,0,0:3:0:0:
421,28,110923,1,2,0:3:0:0:
382,314,111060,1,0,0:3:0:0:
203,54,111196,1,2,0:3:0:0:
197,45,111264,1,0,0:3:0:0:
191,36,111332,1,0,0:3:0:0:
136,292,111469,6,0,L|149:363,1,52.5000020027161,8|0,0:3|0:3,0:3:0:0:
85,155,111605,1,0,0:3:0:0:
357,208,111741,1,2,0:3:0:0:
117,24,111878,1,0,0:3:0:0:
106,21,111946,1,0,0:3:0:0:
96,16,112014,1,2,0:3:0:0:
389,77,112151,1,0,0:3:0:0:
209,260,112287,1,2,0:3:0:0:
202,268,112355,1,0,0:3:0:0:
195,276,112423,1,0,0:3:0:0:
472,128,112560,5,0,0:3:0:0:
464,100,112696,1,0,0:3:0:0:
456,72,112832,1,0,0:3:0:0:
448,40,112969,1,0,0:3:0:0:
280,128,113105,5,0,0:3:0:0:
272,112,113241,1,0,0:3:0:0:
264,96,113378,1,0,0:3:0:0:
256,80,113514,1,0,0:3:0:0:
248,64,113651,6,0,B|171:17|136:102|50:41|50:41|62:157|18:92|35:197,1,367.500014019013,4|0,0:3|0:3,0:3:0:0:
40,217,114196,5,2,0:3:0:0:
304,156,114332,1,0,0:3:0:0:
103,342,114469,1,2,0:3:0:0:
96,350,114537,1,0,0:3:0:0:
89,357,114605,1,0,0:3:0:0:
240,132,114741,6,0,B|248:102|248:102|229:-4,1,105.000004005432,10|0,0:3|0:3,0:3:0:0:
32,160,115014,1,2,0:3:0:0:
272,208,115151,2,0,L|196:228,1,52.5000020027161,0|0,0:3|0:3,0:3:0:0:
16,272,115287,1,0,0:3:0:0:
264,324,115423,1,0,0:3:0:0:
274,323,115491,1,0,0:3:0:0:
284,321,115559,1,8,0:3:0:0:
32,160,115696,1,0,0:3:0:0:
288,48,115832,5,8,0:3:0:0:
296,41,115901,1,0,0:3:0:0:
303,34,115969,1,0,0:3:0:0:
364,296,116105,1,8,0:3:0:0:
144,148,116241,2,0,L|68:140,1,52.5000020027161,8|0,0:3|0:3,0:3:0:0:
154,287,116378,1,2,0:3:0:0:
273,53,116514,1,0,0:3:0:0:
357,275,116651,6,0,P|393:284|455:273,1,70,8|0,0:3|0:3,0:3:0:0:
127,122,116923,6,0,P|70:111|2:128,1,105.000004005432,12|0,0:3|0:3,0:3:0:0:
75,316,117196,1,2,0:3:0:0:
278,105,117332,2,0,L|272:52,1,52.5000020027161,0|0,0:3|0:3,0:3:0:0:
398,239,117469,1,2,0:3:0:0:
398,239,117605,2,0,L|392:186,1,52.5000020027161,0|0,0:3|0:3,0:3:0:0:
189,103,117741,2,0,B|146:89|146:89|83:106|83:106|137:126,1,157.500006008148,8|0,0:3|0:3,0:3:0:0:
242,166,118014,6,0,B|286:119|257:58|257:58|343:97|431:53|431:53|401:37|401:37|353:51,1,367.500014019013,4|0,0:3|0:3,0:3:0:0:
366,47,118560,5,2,0:3:0:0:
346,303,118696,1,0,0:3:0:0:
189,103,118832,1,2,0:3:0:0:
181,96,118901,1,0,0:3:0:0:
173,89,118969,1,0,0:3:0:0:
280,337,119105,2,0,B|389:322|389:322|320:292,1,157.500006008148,12|0,0:3|0:3,0:3:0:0:
345,303,119378,5,2,0:3:0:0:
467,138,119514,1,0,0:3:0:0:
475,132,119582,1,0,0:3:0:0:
483,125,119651,1,2,0:3:0:0:
476,363,119787,1,0,0:3:0:0:
332,144,119923,1,2,0:3:0:0:
324,138,119991,1,0,0:3:0:0:
316,131,120060,1,0,0:3:0:0:
26,65,120196,6,0,L|19:145,1,52.5000020027161,4|0,0:3|0:3,0:3:0:0:
3,332,120332,1,0,0:3:0:0:
147,85,120469,1,2,0:3:0:0:
147,85,120605,2,0,L|140:165,1,52.5000020027161,0|0,0:3|0:3,0:3:0:0:
124,352,120741,1,2,0:3:0:0:
10,226,120878,1,0,0:3:0:0:
215,179,121014,1,2,0:3:0:0:
221,177,121082,1,0,0:3:0:0:
227,175,121151,1,0,0:3:0:0:
434,325,121287,6,0,B|463:348|463:348|506:286|462:220,1,157.500006008148,12|0,0:3|0:3,0:3:0:0:
470,234,121560,1,2,0:3:0:0:
235,307,121696,1,0,0:3:0:0:
225,312,121764,1,0,0:3:0:0:
215,317,121832,1,2,0:3:0:0:
374,122,121969,1,0,0:3:0:0:
384,117,122037,1,0,0:3:0:0:
394,112,122105,1,2,0:3:0:0:
351,269,122241,1,0,0:3:0:0:
181,51,122378,6,0,B|141:45|101:67|101:67|55:48|55:48|4:63|4:63|71:110,1,245,4|0,0:3|0:3,0:3:0:0:
52,96,122923,1,2,0:3:0:0:
251,197,123060,1,0,0:3:0:0:
66,296,123196,1,8,0:3:0:0:
57,302,123264,1,0,0:3:0:0:
49,308,123332,1,0,0:3:0:0:
157,136,123469,1,12,0:3:0:0:
157,136,123878,5,0,0:3:0:0:
154,146,123946,1,0,0:3:0:0:
150,155,124014,1,2,0:3:0:0:
194,352,124151,1,0,0:3:0:0:
197,342,124219,1,0,0:3:0:0:
201,333,124287,1,2,0:3:0:0:
271,88,124423,1,0,0:3:0:0:
340,330,124560,2,0,P|372:329|410:322,1,52.5000020027161,8|0,0:3|0:3,0:3:0:0:
453,153,124696,1,0,0:3:0:0:
453,153,124969,5,0,0:3:0:0:
448,143,125037,1,0,0:3:0:0:
443,133,125105,1,2,0:3:0:0:
501,369,125241,1,0,0:3:0:0:
273,199,125378,1,8,0:3:0:0:
263,202,125446,1,0,0:3:0:0:
253,206,125514,1,0,0:3:0:0:
31,127,125651,6,0,B|21:91|21:91|39:-5,1,105.000004005432,12|0,0:3|0:3,0:3:0:0:
49,229,125923,1,2,0:3:0:0:
244,75,126060,1,0,0:3:0:0:
253,71,126128,1,0,0:3:0:0:
261,65,126196,1,2,0:3:0:0:
190,324,126332,1,0,0:3:0:0:
133,98,126469,1,8,0:3:0:0:
353,163,126605,1,0,0:3:0:0:
190,324,126741,6,0,B|106:350|106:350|24:323|6:224|39:138,1,315.000012016297,4|0,0:3|0:3,0:3:0:0:
314,23,127287,1,2,0:3:0:0:
213,213,127423,1,0,0:3:0:0:
99,36,127560,1,2,0:3:0:0:
88,34,127628,1,0,0:3:0:0:
77,32,127696,1,0,0:3:0:0:
312,139,127832,6,0,B|357:158|357:158|410:112|410:112|465:141,1,157.500006008148,12|0,0:3|0:3,0:3:0:0:
444,129,128105,1,2,0:3:0:0:
338,341,128241,1,0,0:3:0:0:
330,348,128310,1,0,0:3:0:0:
323,356,128378,1,2,0:3:0:0:
213,213,128514,1,0,0:3:0:0:
384,259,128651,2,0,L|422:221,1,52.5000020027161,2|0,0:3|0:3,0:3:0:0:
453,41,128787,1,0,0:3:0:0:
295,272,128923,5,4,0:3:0:0:
287,278,128991,1,0,0:3:0:0:
278,284,129060,1,0,0:3:0:0:
226,59,129196,1,2,0:3:0:0:
384,259,129332,1,0,0:3:0:0:
392,265,129400,1,0,0:3:0:0:
401,271,129469,1,2,0:3:0:0:
192,139,129605,1,0,0:3:0:0:
358,75,129741,1,2,0:3:0:0:
367,71,129810,1,0,0:3:0:0:
377,68,129878,2,0,L|434:63,1,52.5000020027161,0|0,0:3|0:3,0:3:0:0:
331,159,130014,5,0,0:3:0:0:
299,139,130151,1,0,0:3:0:0:
278,108,130287,1,0,0:3:0:0:
272,71,130423,1,0,0:3:0:0:
167,200,130560,5,0,0:3:0:0:
175,219,130696,1,0,0:3:0:0:
176,239,130832,1,0,0:3:0:0:
172,259,130969,1,0,0:3:0:0:
97,240,131105,6,0,B|46:147|132:78|132:78|189:95|189:95|91:155|131:224,1,367.500014019013,4|0,0:3|0:3,0:3:0:0:
119,190,131651,5,2,0:3:0:0:
274,242,131787,1,0,0:3:0:0:
377,121,131923,1,8,0:3:0:0:
386,117,131991,1,0,0:3:0:0:
395,113,132060,1,0,0:3:0:0:
468,255,132196,6,0,B|476:288|476:288|465:366,1,105.000004005432,12|0,0:3|0:3,0:3:0:0:
433,169,132469,1,2,0:3:0:0:
325,353,132605,1,0,0:3:0:0:
315,357,132673,1,0,0:3:0:0:
306,363,132741,1,2,0:3:0:0:
23,39,133014,1,2,0:3:0:0:
33,35,133082,1,0,0:3:0:0:
42,29,133150,1,0,0:3:0:0:
38,242,133287,5,4,0:3:0:0:
28,246,133355,1,0,0:3:0:0:
19,252,133423,1,0,0:3:0:0:
202,141,133560,1,2,0:3:0:0:
335,301,133696,2,0,L|322:363,1,52.5000020027161,0|0,0:3|0:3,0:3:0:0:
373,120,133832,1,2,0:3:0:0:
373,120,133969,2,0,L|360:58,1,52.5000020027161,0|0,0:3|0:3,0:3:0:0:
414,337,134105,1,8,0:3:0:0:
421,344,134173,1,0,0:3:0:0:
427,351,134241,1,0,0:3:0:0:
202,141,134378,6,0,B|167:128|167:128|81:142,1,105.000004005432,12|0,0:3|0:3,0:3:0:0:
170,339,134651,1,2,0:3:0:0:
288,157,134787,1,0,0:3:0:0:
296,150,134855,1,0,0:3:0:0:
304,143,134923,1,2,0:3:0:0:
324,352,135060,1,0,0:3:0:0:
316,359,135128,1,0,0:3:0:0:
307,368,135196,2,0,B|255:375|255:375|203:360,1,105.000004005432,8|0,0:3|0:3,0:3:0:0:
100,137,135469,6,0,B|85:64|156:20|156:20|210:49|210:49|191:122|282:172|345:113,1,367.500014019013,4|0,0:3|0:3,0:3:0:0:
314,132,136014,5,2,0:3:0:0:
204,360,136151,1,0,0:3:0:0:
100,137,136287,1,2,0:3:0:0:
96,127,136355,1,0,0:3:0:0:
91,117,136423,1,0,0:3:0:0:
286,232,136560,2,0,B|343:241|343:241|394:227|394:227|470:236,1,157.500006008148,12|0,0:3|0:3,0:3:0:0:
440,232,136832,5,2,0:3:0:0:
333,96,136969,1,0,0:3:0:0:
325,88,137037,1,0,0:3:0:0:
317,80,137105,1,2,0:3:0:0:
307,319,137241,1,0,0:3:0:0:
200,183,137378,1,2,0:3:0:0:
192,175,137446,1,0,0:3:0:0:
184,167,137514,1,0,0:3:0:0:
51,56,137651,6,0,P|21:104|26:180,1,105.000004005432,4|0,0:3|0:3,0:3:0:0:
76,330,137923,1,2,0:3:0:0:
200,183,138060,1,0,0:3:0:0:
206,175,138128,1,0,0:3:0:0:
213,167,138196,1,2,0:3:0:0:
240,375,138332,1,0,0:3:0:0:
364,228,138469,1,2,0:3:0:0:
370,220,138537,1,0,0:3:0:0:
377,212,138605,1,0,0:3:0:0:
202,34,138741,6,0,B|100:47|91:173|91:173|28:103|28:103|10:189|10:189|42:227|42:227|73:256|122:253|152:213,1,525,12|0,0:3|0:3,0:3:0:0:
131,232,139832,6,0,B|108:320|108:320|214:346|317:282|273:153,1,367.500014019013,4|0,0:3|0:3,0:3:0:0:
279,174,140378,2,0,P|232:163|275:92,1,136.499993751526,8|0,0:3|0:3,0:3:0:0:
249,93,140651,2,0,B|184:64|184:64|135:92|135:92|86:66|86:66|1:76|0:198|75:213,1,367.500014019013,4|0,0:3|0:3,0:3:0:0:
52,204,141196,6,0,L|41:260,1,45.4999979171754,2|0,0:3|0:3,0:3:0:0:
141,188,141332,2,0,L|129:243,1,45.4999979171754,2|0,0:3|0:3,0:3:0:0:
228,167,141469,2,0,L|216:222,1,45.4999979171754,14|0,0:3|0:3,0:3:0:0:
431,54,141741,2,0,L|442:109,1,45.4999979171754,2|0,0:3|0:3,0:3:0:0:
342,37,141877,2,0,L|353:92,1,45.4999979171754,2|0,0:3|0:3,0:3:0:0:
353,317,142014,6,0,B|284:358|268:294|194:328,1,157.500006008148,4|0,0:3|0:3,0:3:0:0:
200,325,142287,2,0,P|195:295|195:274,1,45.4999979171754,2|0,0:3|0:3,0:3:0:0:
228,167,142423,2,0,P|233:136|233:115,1,45.4999979171754,2|0,0:3|0:3,0:3:0:0:
85,126,142560,1,12,0:3:0:0:
85,126,142832,2,0,B|90:18|90:18|122:77,1,157.500006008148,0|0,0:3|0:3,0:3:0:0:
113,61,143105,6,0,L|177:55,1,45.4999979171754,2|0,0:3|0:3,0:3:0:0:
273,162,143241,2,0,L|227:166,1,45.4999979171754,2|0,0:3|0:3,0:3:0:0:
118,54,143378,2,0,L|182:53,1,45.4999979171754,8|0,0:3|0:3,0:3:0:0:
268,168,143514,2,0,L|222:169,1,45.4999979171754,2|0,0:3|0:3,0:3:0:0:
123,48,143651,2,0,L|187:53,1,45.4999979171754,14|0,0:3|0:3,0:3:0:0:
393,72,143787,1,0,0:3:0:0:
401,73,143855,1,0,0:3:0:0:
409,74,143923,1,2,0:3:0:0:
323,296,144060,1,0,0:3:0:0:
168,51,144196,6,0,B|148:9|148:9|63:50|99:146|99:146|128:223|59:292,1,367.500014019013,4|0,0:3|0:3,0:3:0:0:
61,289,144741,2,0,B|47:266|69:242|93:266|78:289|119:326|170:291,1,136.499993751526,8|0,0:3|0:3,0:3:0:0:
156,298,145014,2,2,L|162:268,15,17.5,2|2|2|2|2|2|2|2|2|2|2|2|2|2|2|2,0:3|0:3|0:3|0:3|0:3|0:3|0:3|0:3|0:3|0:3|0:3|0:3|0:3|0:3|0:3|0:3,0:3:0:0:
159,281,145560,6,0,P|201:326|282:288,1,136.499993751526,8|0,0:3|0:3,0:3:0:0:
268,309,145832,2,0,B|314:358|245:385|185:356|185:288|314:287|314:158|288:103|221:103|175:151|217:208|237:181,1,367.500014019013,8|0,0:3|0:3,0:3:0:0:
235,182,146378,6,0,L|170:188,1,45.4999979171754,2|0,0:3|0:3,0:3:0:0:
114,285,146514,2,0,L|178:278,1,45.4999979171754,2|0,0:3|0:3,0:3:0:0:
61,205,146651,2,0,L|-3:211,1,45.4999979171754,2|0,0:3|0:3,0:3:0:0:
139,367,146787,1,4,0:3:0:0:
118,109,146923,1,8,0:3:0:0:
118,109,147196,6,0,B|124:84|124:84|147:110,1,52.5000020027161,2|0,0:3|0:3,0:3:0:0:
268,309,147332,1,8,0:3:0:0:
232,56,147469,6,0,P|240:84|240:112,1,45.4999979171754,2|0,0:3|0:3,0:3:0:0:
152,260,147605,2,0,P|160:220|172:192,1,45.4999979171754,2|0,0:3|0:3,0:3:0:0:
384,96,147741,2,0,P|368:128|352:144,1,45.4999979171754,4|0,0:3|0:3,0:3:0:0:
118,109,147878,1,4,0:3:0:0:
420,32,148014,1,8,0:3:0:0:
156,288,148151,1,4,0:3:0:0:
256,36,148287,2,0,P|260:72|276:104,1,45.4999979171754,2|0,0:3|0:3,0:3:0:0:
484,208,148423,2,0,P|464:224|436:236,1,45.4999979171754,8|0,0:3|0:3,0:3:0:0:
225,328,148560,6,0,B|130:382|130:282|30:360|30:360|-1:255|95:238,1,367.500014019013,4|0,0:3|0:3,0:3:0:0:
91,238,149105,2,0,B|65:196|65:196|85:98,1,136.499993751526,8|0,0:3|0:3,0:3:0:0:
82,111,149378,2,0,B|82:166|20:166|-5:91|36:28|154:28|121:188|217:189|306:150|279:73,1,367.500014019013,4|0,0:3|0:3,0:3:0:0:
281,105,149923,6,0,L|274:48,1,45.4999979171754,2|0,0:3|0:3,0:3:0:0:
450,105,150060,2,0,L|456:48,1,45.4999979171754,2|0,0:3|0:3,0:3:0:0:
242,194,150196,2,0,L|219:143,1,45.4999979171754,14|0,0:3|0:3,0:3:0:0:
485,197,150332,2,0,L|506:143,1,45.4999979171754,2|0,0:3|0:3,0:3:0:0:
258,279,150469,2,0,L|205:256,1,45.4999979171754,2|0,0:3|0:3,0:3:0:0:
470,279,150605,2,0,L|522:256,1,45.4999979171754,2|0,0:3|0:3,0:3:0:0:
355,44,150741,6,0,B|302:35|302:35|249:53|249:53|154:42,1,157.500006008148,4|0,0:3|0:3,0:3:0:0:
201,47,151014,2,0,L|219:1,1,45.4999979171754,2|0,0:3|0:3,0:3:0:0:
77,121,151151,2,0,L|59:74,1,45.4999979171754,2|0,0:3|0:3,0:3:0:0:
196,205,151287,1,14,0:3:0:0:
196,205,151560,6,0,B|245:218|310:196|310:196|275:232,1,157.500006008148,4|0,0:3|0:3,0:3:0:0:
281,225,151832,2,0,L|290:294,1,45.4999979171754,2|0,0:3|0:3,0:3:0:0:
405,188,151969,2,0,L|396:119,1,45.4999979171754,2|0,0:3|0:3,0:3:0:0:
370,276,152105,2,0,L|378:344,1,45.4999979171754,8|0,0:3|0:3,0:3:0:0:
493,238,152242,2,0,L|484:169,1,45.4999979171754,2|0,0:3|0:3,0:3:0:0:
474,26,152378,5,12,0:3:0:0:
289,102,152514,1,2,0:3:0:0:
282,107,152582,1,0,0:3:0:0:
274,112,152651,2,0,B|239:115|239:115|161:102,1,90.9999958343508,2|0,0:3|0:3,0:3:0:0:
19,59,152923,6,0,P|89:27|11:128,1,367.500014019013,4|0,0:3|0:3,0:3:0:0:
26,152,153469,2,0,B|41:203|41:203|30:238|30:238|47:309,1,136.499993751526,8|0,0:3|0:3,0:3:0:0:
40,283,153741,2,2,L|14:295,15,17.5,2|2|2|2|2|2|2|2|2|2|2|2|2|2|2|2,0:3|0:3|0:3|0:3|0:3|0:3|0:3|0:3|0:3|0:3|0:3|0:3|0:3|0:3|0:3|0:3,0:3:0:0:
40,283,154287,6,0,P|125:299|175:267,1,136.499993751526,4|0,0:3|0:3,0:3:0:0:
166,275,154560,2,0,B|160:344|160:344|52:279|108:92|256:136,1,367.500014019013,8|0,0:3|0:3,0:3:0:0:
214,129,155105,5,4,0:3:0:0:
408,292,155241,1,8,0:3:0:0:
408,292,155378,1,2,0:3:0:0:
368,88,155514,5,4,0:3:0:0:
284,348,155651,1,8,0:3:0:0:
284,348,155788,1,2,0:3:0:0:
218,132,155923,2,0,P|213:89|227:28,1,90.9999958343508,4|8,0:3|0:3,0:3:0:0:
357,246,156196,6,0,P|362:289|348:350,1,90.9999958343508,2|2,0:3|0:3,0:3:0:0:
284,184,156469,1,4,0:3:0:0:
240,376,156605,1,4,0:3:0:0:
160,152,156741,1,8,0:3:0:0:
440,220,156878,1,8,0:3:0:0:
56,276,157014,1,8,0:3:0:0:
484,316,157151,1,8,0:3:0:0:
282,187,157287,6,0,B|239:157|177:186|177:186|122:212|81:186|81:186|139:139|127:53|66:40,1,367.500014019013,4|0,0:3|0:3,0:3:0:0:
89,50,157832,2,0,B|135:66|135:66|181:58|181:58|241:75,1,136.499993751526,8|0,0:3|0:3,0:3:0:0:
221,69,158105,2,0,B|243:20|243:20|281:117|281:117|243:184|243:184|289:243|266:331,1,367.500014019013,4|0,0:3|0:3,0:3:0:0:
270,310,158651,6,0,L|326:318,1,45.4999979171754,2|0,0:3|0:3,0:3:0:0:
441,218,158787,2,0,L|385:210,1,45.4999979171754,8|0,0:3|0:3,0:3:0:0:
199,179,158923,2,0,L|254:186,1,45.4999979171754,8|0,0:3|0:3,0:3:0:0:
369,86,159059,2,0,L|313:78,1,45.4999979171754,2|0,0:3|0:3,0:3:0:0:
486,224,159196,2,0,L|430:216,1,45.4999979171754,2|0,0:3|0:3,0:3:0:0:
316,317,159332,2,0,L|371:324,1,45.4999979171754,2|0,0:3|0:3,0:3:0:0:
324,79,159469,6,0,P|242:62|169:91,1,157.500006008148,4|0,0:3|0:3,0:3:0:0:
174,86,159741,2,0,L|172:16,1,45.4999979171754,2|0,0:3|0:3,0:3:0:0:
81,186,159878,2,0,L|83:256,1,45.4999979171754,2|0,0:3|0:3,0:3:0:0:
224,348,160014,1,8,0:3:0:0:
224,348,160287,6,0,B|281:338|281:338|325:349|325:349|387:338,1,157.500006008148,4|0,0:3|0:3,0:3:0:0:
378,339,160560,2,0,L|387:286,1,45.4999979171754,2|0,0:3|0:3,0:3:0:0:
272,176,160696,2,0,L|263:229,1,45.4999979171754,2|0,0:3|0:3,0:3:0:0:
483,300,160832,2,0,L|492:247,1,45.4999979171754,8|0,0:3|0:3,0:3:0:0:
377,137,160968,2,0,L|368:190,1,45.4999979171754,2|0,0:3|0:3,0:3:0:0:
224,348,161105,5,8,0:3:0:0:
144,157,161241,1,2,0:3:0:0:
140,148,161310,1,0,0:3:0:0:
135,140,161378,1,2,0:3:0:0:
332,244,161514,1,2,0:3:0:0:
200,48,161651,6,0,P|116:29|103:249,1,367.500014019013,4|0,0:3|0:3,0:3:0:0:
80,239,162196,2,0,B|108:209|108:209|145:237|139:302,1,136.499993751526,8|0,0:3|0:3,0:3:0:0:
139,294,162469,2,2,L|148:324,15,26.2500010013581,2|2|2|2|2|2|2|2|2|2|2|2|2|2|2|2,0:3|0:3|0:3|0:3|0:3|0:3|0:3|0:3|0:3|0:3|0:3|0:3|0:3|0:3|0:3|0:3,0:3:0:0:
139,294,163014,6,0,P|196:318|255:255,1,136.499993751526,4|0,0:3|0:3,0:3:0:0:
250,275,163287,2,0,B|292:279|326:324|326:324|379:267|345:193|345:193|423:154|482:233,1,367.500014019013,8|0,0:3|0:3,0:3:0:0:
466,214,163832,6,0,L|486:151,1,52.5000020027161,2|0,0:3|0:3,0:3:0:0:
416,4,163969,2,0,L|396:67,1,52.5000020027161,2|0,0:3|0:3,0:3:0:0:
344,192,164105,1,2,0:3:0:0:
194,104,164241,2,0,P|164:98|134:101,1,52.5000020027161,8|0,0:3|0:3,0:3:0:0:
18,231,164378,2,0,P|48:237|78:234,1,52.5000020027161,8|0,0:3|0:3,0:3:0:0:
273,210,164514,1,2,0:3:0:0:
164,13,164651,1,2,0:3:0:0:
136,296,164787,1,8,0:3:0:0:
292,32,164923,6,0,P|284:72|272:104,1,52.5000020027161,2|0,0:3|0:3,0:3:0:0:
164,196,165060,1,2,0:3:0:0:
384,224,165196,5,4,0:3:0:0:
84,84,165332,1,4,0:3:0:0:
400,80,165469,5,8,0:3:0:0:
232,344,165605,1,4,0:3:0:0:
212,128,165741,2,0,P|240:132|272:140,1,52.5000020027161,2|0,0:3|0:3,0:3:0:0:
452,256,165878,2,0,P|392:272|380:272,1,52.5000020027161,8|0,0:3|0:3,0:3:0:0:
192,227,166014,6,0,B|137:211|110:153|110:153|27:105|27:105|83:200|50:264,1,367.500014019013,4|0,0:3|0:3,0:3:0:0:
54,254,166560,2,0,P|91:282|75:364,1,136.499993751526,8|0,0:3|0:3,0:3:0:0:
76,362,166832,2,0,B|165:374|165:374|247:335|247:335|335:362|335:362|437:333,1,367.500014019013,4|0,0:3|0:3,0:3:0:0:
426,336,167378,6,0,P|434:307|434:278,1,45.4999979171754,2|0,0:3|0:3,0:3:0:0:
300,132,167514,2,0,P|302:154|308:176,1,45.4999979171754,2|0,0:3|0:3,0:3:0:0:
462,331,167651,2,0,P|461:300|454:272,1,45.4999979171754,8|0,0:3|0:3,0:3:0:0:
287,166,167787,2,0,P|294:187|306:206,1,45.4999979171754,2|0,0:3|0:3,0:3:0:0:
493,320,167923,2,0,P|485:290|470:265,1,45.4999979171754,2|0,0:3|0:3,0:3:0:0:
281,205,168059,2,0,P|294:223|310:239,1,45.4999979171754,2|0,0:3|0:3,0:3:0:0:
460,160,168196,6,0,P|411:88|341:57,1,157.500006008148,4|0,0:3|0:3,0:3:0:0:
349,58,168469,6,0,L|358:11,1,45.4999979171754,2|0,0:3|0:3,0:3:0:0:
181,209,168605,2,0,L|172:256,1,45.4999979171754,2|0,0:3|0:3,0:3:0:0:
265,114,168741,1,8,0:3:0:0:
265,114,169014,6,0,B|210:103|210:103|156:117|156:117|67:95,1,157.500006008148,4|0,0:3|0:3,0:3:0:0:
111,106,169287,6,0,P|106:83|107:53,1,45.4999979171754,2|0,0:3|0:3,0:3:0:0:
244,273,169423,2,0,P|249:296|248:326,1,45.4999979171754,2|0,0:3|0:3,0:3:0:0:
99,246,169560,2,0,P|75:251|45:250,1,45.4999979171754,8|0,0:3|0:3,0:3:0:0:
265,114,169696,2,0,P|288:108|318:109,1,45.4999979171754,2|0,0:3|0:3,0:3:0:0:
478,218,169832,5,8,0:3:0:0:
244,273,169969,1,2,0:3:0:0:
235,276,170037,1,0,0:3:0:0:
226,279,170105,1,2,0:3:0:0:
383,347,170241,1,0,0:3:0:0:
309,108,170378,6,0,B|253:65|169:65|119:122|119:122|51:138|11:46|81:16,1,367.500014019013,4|0,0:3|0:3,0:3:0:0:
67,23,170923,2,0,P|31:75|38:174,1,136.499993751526,8|0,0:3|0:3,0:3:0:0:
27,146,171196,2,2,L|10:175,15,26.2500010013581,2|2|2|2|2|2|2|2|2|2|2|2|2|2|2|2,0:3|0:3|0:3|0:3|0:3|0:3|0:3|0:3|0:3|0:3|0:3|0:3|0:3|0:3|0:3|0:3,0:3:0:0:
27,146,171741,6,0,B|96:157|96:157|138:220,1,136.499993751526,4|0,0:3|0:3,0:3:0:0:
132,212,172014,2,0,B|66:271|41:162|129:109|216:302|317:214|317:214|290:156,1,367.500014019013,8|0,0:3|0:3,0:3:0:0:
298,174,172560,6,0,P|287:144|286:113,1,52.5000020027161,8|0,0:3|0:3,0:3:0:0:
390,121,172832,2,0,P|400:150|402:182,1,52.5000020027161,2|0,0:3|0:3,0:3:0:0:
389,247,173105,1,2,0:3:0:0:
336,303,173241,1,0,0:3:0:0:
264,333,173378,1,2,0:3:0:0:
187,324,173514,1,8,0:3:0:0:
187,324,173582,1,0,0:3:0:0:
187,324,173651,6,0,L|86:338,1,90.9999958343508,12|0,0:3|0:3,0:3:0:0:
3,184,173923,2,0,L|104:170,1,90.9999958343508,2|0,0:3|0:3,0:3:0:0:
252,149,174196,5,10,1:3:0:0:
3,184,174332,1,10,1:3:0:0:
34,31,174469,5,10,1:3:0:0:
84,262,174605,1,10,1:3:0:0:
252,149,174741,6,0,B|220:76|140:60|140:60|47:130|47:130|181:132|184:229|184:229|83:262|83:262|180:316|180:316|226:299|226:299|266:277|264:228|264:228|386:323|500:288|524:182|466:84|368:115,1,1233.75004706383,4|0,0:3|0:3,0:3:0:0:
373,113,179031,6,0,B|396:57|396:57|478:45|478:45|437:165|437:165|516:267|427:373|427:373|394:258|246:204|157:284,1,813.7500310421,0|0,0:3|0:3,0:3:0:0:
174,270,181892,6,0,L|178:314,10,35,0|0|0|0|0|0|0|0|0|0|0,0:3|0:3|0:3|0:3|0:3|0:3|0:3|0:3|0:3|0:3|0:3,0:3:0:0:
177,304,182875,6,0,B|173:224|173:224|149:185|149:185|140:76,1,210.000008010865,4|0,0:3|0:3,0:3:0:0:
148,88,183322,5,0,0:3:0:0:
156,76,183769,1,0,0:3:0:0:
164,60,184305,6,0,B|118:134|182:230|278:246|326:150|326:150|374:54|502:86|534:198|470:262,1,630.000024032594,2|0,0:3|0:3,0:3:0:0:
472,259,186630,6,0,B|362:231|388:127|388:127|392:75|367:-15|229:9|140:52|180:199|275:223|275:223|254:173|272:128|272:128|233:151,1,735.000028038026,0|0,0:3|0:3,0:3:0:0:
249,140,189222,6,0,B|226:207|226:207|272:262|272:262|267:359|167:361,1,280,2|0,0:3|0:3,0:3:0:0:
177,280,190027,6,0,B|146:279|146:279|103:289,3,52.5000020027161,4|0|0|0,0:3|0:3|0:3|0:3,0:3:0:0:
39,207,190464,2,0,B|70:208|70:208|113:198,3,52.5000020027161,0|0|0|0,0:3|0:3|0:3|0:3,0:3:0:0:
60,128,190872,1,0,0:3:0:0:
88,124,190977,1,0,0:3:0:0:
116,120,191083,1,0,0:3:0:0:
144,116,191188,1,0,0:3:0:0:
160,88,191294,1,0,0:3:0:0:
188,84,191399,1,0,0:3:0:0:
216,80,191505,1,0,0:3:0:0:
244,76,191610,1,0,0:3:0:0:
272,100,191717,6,0,L|338:104,3,52.5000020027161,4|0|0|0,0:3|0:3|0:3|0:3,0:3:0:0:
313,184,192125,2,0,L|379:188,3,52.5000020027161,0|0|0|0,0:3|0:3|0:3|0:3,0:3:0:0:
452,145,192533,2,0,P|455:126|453:86,3,35,0|0|0|0,0:3|0:3|0:3|0:3,0:3:0:0:
387,68,192927,2,0,P|384:49|386:9,3,35,0|0|0|0,0:3|0:3|0:3|0:3,0:3:0:0:
293,46,193322,6,0,B|169:36,1,105,4|0,0:3|0:3,0:3:0:0:
112,60,193717,2,0,B|96:97|96:97|99:142,1,70,0|0,0:3|0:3,0:3:0:0:
165,185,194111,2,0,B|181:148|181:148|178:103,1,70,0|0,0:3|0:3,0:3:0:0:
259,168,194506,2,0,B|243:205|243:205|246:250,1,70,0|0,0:3|0:3,0:3:0:0:
320,220,194901,6,0,B|444:210,1,105,4|0,0:3|0:3,0:3:0:0:
474,151,195283,2,0,B|474:111|474:111|457:74,1,70,0|0,0:3|0:3,0:3:0:0:
373,55,195665,2,0,B|373:95|373:95|390:132,1,70,0|0,0:3|0:3,0:3:0:0:
320,220,196047,2,0,B|320:180|320:180|303:143,1,70,4|0,0:3|0:3,0:3:0:0:
256,64,196429,6,0,B|232:67|232:67|195:61,3,35,4|0|0|0,0:3|0:3|0:3|0:3,0:3:0:0:
160,136,196811,2,0,B|184:133|184:133|221:139,3,35,0|0|0|0,0:3|0:3|0:3|0:3,0:3:0:0:
72,144,197193,5,4,0:3:0:0:
76,172,197285,1,0,0:3:0:0:
80,200,197378,1,0,0:3:0:0:
84,224,197470,1,0,0:3:0:0:
112,236,197563,1,0,0:3:0:0:
116,264,197655,1,0,0:3:0:0:
120,292,197748,1,0,0:3:0:0:
124,316,197840,1,0,0:3:0:0:
156,340,197933,6,0,L|192:336,3,35,4|0|0|0,0:3|0:3|0:3|0:3,0:3:0:0:
271,356,198304,2,0,L|307:352,3,35,0|0|0|0,0:3|0:3|0:3|0:3,0:3:0:0:
274,272,198674,6,0,B|324:266|324:266|359:283|359:283|429:276,1,140,0|0,0:3|0:3,0:3:0:0:
409,278,199375,5,4,0:3:0:0:
429,130,199555,1,0,0:3:0:0:
319,302,199734,5,4,0:3:0:0:
341,139,199914,1,0,0:3:0:0:
229,326,200093,5,4,0:3:0:0:
253,146,200273,1,0,0:3:0:0:
139,350,200452,5,4,0:3:0:0:
165,151,200632,1,0,0:3:0:0:
428,181,200812,5,4,0:3:0:0:
151,142,200986,1,8,0:3:0:0:
442,190,201160,5,4,0:3:0:0:
59,260,201334,1,12,0:3:0:0:
456,199,201509,5,4,0:3:0:0:
0,89,201684,1,8,0:3:0:0:
398,6,201858,1,8,1:3:0:0:
398,6,202204,6,0,B|413:59|413:59|399:120,1,105,4|0,0:3|0:3,0:3:0:0:
308,90,202546,2,0,B|321:144|321:144|300:218,1,105,2|0,0:3|0:3,0:3:0:0:
231,269,202889,2,0,B|270:263|270:263|301:272|301:272|359:263,1,105,8|0,0:3|0:3,0:3:0:0:
441,167,203232,6,0,L|383:176,1,35,2|0,0:3|0:3,0:3:0:0:
307,191,203404,1,4,0:3:0:0:
432,250,203575,5,0,0:3:0:0:
208,89,203746,1,2,0:3:0:0:
483,57,203918,5,4,0:3:0:0:
261,340,204089,1,2,0:3:0:0:
105,105,204261,2,0,B|137:96|137:96|174:97|174:97|230:83,1,105,8|0,0:3|0:3,0:3:0:0:
98,192,204604,6,0,L|131:183,1,35,4|0,0:3|0:3,0:3:0:0:
256,153,204775,1,2,0:3:0:0:
105,105,204946,5,4,0:3:0:0:
335,222,205118,1,2,0:3:0:0:
55,301,205289,5,2,0:3:0:0:
165,23,205461,1,4,0:3:0:0:
424,279,205632,2,0,B|384:284|384:284|357:297|357:297|320:299,1,105,8|0,0:3|0:3,0:3:0:0:
180,242,205975,6,0,L|241:235,1,35,4|0,0:3|0:3,0:3:0:0:
335,222,206146,1,2,0:3:0:0:
190,149,206318,6,0,L|114:159,1,45.4999979171754,2|0,0:3|0:3,0:3:0:0:
52,254,206489,2,0,L|128:244,1,45.4999979171754,2|0,0:3|0:3,0:3:0:0:
284,71,206661,6,0,L|208:81,1,45.4999979171754,4|0,0:3|0:3,0:3:0:0:
154,326,206832,2,0,L|230:316,1,45.4999979171754,2|0,0:3|0:3,0:3:0:0:
384,240,207004,5,8,0:3:0:0:
396,168,207089,1,2,0:3:0:0:
408,96,207175,1,2,0:3:0:0:
192,28,207346,5,4,0:3:0:0:
496,160,207518,1,8,0:3:0:0:
257,330,207689,6,0,B|219:332|219:332|184:324|184:324|153:325,1,105,4|0,0:3|0:3,0:3:0:0:
228,256,208032,1,0,0:3:0:0:
80,163,208204,1,4,0:3:0:0:
248,76,208375,2,0,B|263:130|263:130|246:201,1,105,8|0,0:3|0:3,0:3:0:0:
324,230,208718,6,0,L|340:166,1,35,2|0,0:3|0:3,0:3:0:0:
356,98,208889,1,4,0:3:0:0:
432,230,209061,5,2,0:3:0:0:
228,256,209232,1,2,0:3:0:0:
248,76,209404,5,4,0:3:0:0:
421,332,209575,1,2,0:3:0:0:
134,316,209746,2,0,B|142:286|142:286|134:249|134:249|149:205,1,105,8|0,0:3|0:3,0:3:0:0:
275,121,210089,6,0,L|260:170,1,35,4|0,0:3|0:3,0:3:0:0:
228,256,210261,1,2,0:3:0:0:
176,119,210432,5,4,0:3:0:0:
356,207,210604,1,2,0:3:0:0:
134,316,210775,5,2,0:3:0:0:
225,50,210946,1,4,0:3:0:0:
441,178,211118,2,0,B|449:208|449:208|441:245|441:245|456:289,1,105,8|0,0:3|0:3,0:3:0:0:
407,355,211461,6,0,L|391:309,1,35,4|0,0:3|0:3,0:3:0:0:
356,207,211632,1,2,0:3:0:0:
221,309,211804,2,0,L|269:312,1,35,2|0,0:3|0:3,0:3:0:0:
307,138,211975,2,0,L|259:141,1,35,2|0,0:3|0:3,0:3:0:0:
127,221,212146,2,0,L|175:224,1,35,2|0,0:3|0:3,0:3:0:0:
262,31,212318,2,0,L|214:34,1,35,4|0,0:3|0:3,0:3:0:0:
21,135,212489,5,8,0:3:0:0:
32,203,212575,1,2,0:3:0:0:
43,272,212661,1,4,0:3:0:0:
352,265,212832,5,8,0:3:0:0:
197,78,213004,1,8,0:3:0:0:
106,342,213175,2,0,B|159:356|159:356|223:341,1,105,4|0,0:3|0:3,0:3:0:0:
287,355,213518,2,0,B|292:336|292:336|279:302|279:302|302:236,1,125.999996154785,2|0,0:3|0:3,0:3:0:0:
362,302,213861,2,0,B|408:307|408:307|458:250|458:250,1,105,8|0,0:3|0:3,0:3:0:0:
436,176,214204,6,0,L|348:176,1,70,2|2,0:3|0:3,0:3:0:0:
251,41,214546,1,4,0:3:0:0:
413,103,214718,1,2,0:3:0:0:
307,241,214889,2,0,L|219:241,1,70,2|4,0:3|0:3,0:3:0:0:
102,94,215232,2,0,B|120:136|120:136|114:180|114:180|135:222,1,125.999996154785,8|0,0:3|0:3,0:3:0:0:
191,167,215575,1,2,0:3:0:0:
108,324,215746,1,4,0:3:0:0:
300,310,215918,6,0,L|308:219,1,70,4|2,0:3|0:3,0:3:0:0:
400,88,216261,2,0,L|384:237,1,125.999996154785,2|0,0:3|0:3,0:3:0:0:
227,197,216604,2,0,B|201:183|201:183|179:149,1,48.9999985046387,8|0,0:3|0:3,0:3:0:0:
275,38,216775,2,0,B|300:22|300:22|340:20,1,48.9999985046387,2|0,0:3|0:3,0:3:0:0:
434,281,216946,6,0,B|387:297|387:297|313:278|313:278|259:292,1,146.999995513916,2|0,0:3|0:3,0:3:0:0:
196,294,217289,6,0,B|157:257|157:257|89:244,1,97.9999970092774,4|2,0:3|0:3,0:3:0:0:
52,299,217546,1,2,0:3:0:0:
122,333,217632,1,2,0:3:0:0:
387,213,217804,1,2,0:3:0:0:
203,54,217975,2,0,B|192:109|192:109|207:161,1,97.9999970092774,4|2,0:3|0:3,0:3:0:0:
274,185,218232,1,2,0:3:0:0:
276,109,218318,1,2,0:3:0:0:
100,195,218489,1,2,0:3:0:0:
456,297,218661,6,0,B|468:305|468:305|404:329|372:313|372:313|324:333|264:305,1,178.500003404617,4|0,0:3|0:3,0:3:0:0:
180,209,219004,2,0,B|224:233|224:233|276:221|276:221|328:237,1,146.999995513916,2|0,0:3|0:3,0:3:0:0:
136,137,219346,2,0,P|100:193|136:281,1,146.999995513916,8|0,0:3|0:3,0:3:0:0:
220,125,219689,2,0,P|192:73|120:57,1,97.9999970092774,2|2,0:3|0:3,0:3:0:0:
120,265,220032,5,4,0:3:0:0:
325,233,220204,1,2,0:3:0:0:
136,137,220375,2,0,L|120:265,1,97.9999970092774,2|4,0:3|0:3,0:3:0:0:
325,233,220718,2,0,P|344:153|320:77,1,146.999995513916,8|0,0:3|0:3,0:3:0:0:
440,175,221061,2,0,B|380:183|380:183|336:175,1,97.9999970092774,2|4,0:3|0:3,0:3:0:0:
240,232,221404,5,4,0:3:0:0:
336,74,221575,1,2,0:3:0:0:
308,288,221746,2,0,P|232:320|164:272,1,146.999995513916,2|0,0:3|0:3,0:3:0:0:
112,228,222089,2,0,L|120:160,1,48.9999985046387,8|0,0:3|0:3,0:3:0:0:
232,56,222261,2,0,L|226:104,1,48.9999985046387,2|0,0:3|0:3,0:3:0:0:
308,288,222432,2,0,L|324:135,1,146.999995513916,2|0,0:3|0:3,0:3:0:0:
232,56,222775,5,4,0:3:0:0:
164,232,222946,1,8,0:3:0:0:
344,60,223118,1,8,0:3:0:0:
112,72,223289,5,4,0:3:0:0:
436,100,223461,1,8,0:3:0:0:
44,188,223632,1,2,0:3:0:0:
424,328,223804,5,4,0:3:0:0:
240,16,223975,1,8,0:3:0:0:
72,232,224146,6,0,P|96:284|172:304,1,125.999996154785,4|0,0:3|0:3,0:3:0:0:
152,224,224489,2,0,B|216:204|216:204|272:224|336:204,1,146.999995513916,2|0,0:3|0:3,0:3:0:0:
276,136,224832,2,0,P|356:160|344:272,1,188.999994232178,8|0,0:3|0:3,0:3:0:0:
276,136,225175,2,0,B|308:92|308:92|356:80|356:80|392:36,1,140,2|4,0:3|0:3,0:3:0:0:
361,253,225518,2,0,L|253:253,1,97.9999970092774,2|2,0:3|0:3,0:3:0:0:
396,136,225861,1,4,0:3:0:0:
304,348,226032,1,2,0:3:0:0:
168,176,226204,2,0,B|148:136|148:136|168:108|168:108|144:56|176:8,1,178.500003404617,8|0,0:3|0:3,0:3:0:0:
384,64,226546,6,0,L|232:64,1,132.999996448517,4|2,0:3|0:3,0:3:0:0:
76,92,226889,1,4,0:3:0:0:
284,156,227061,2,0,L|388:156,1,97.9999970092774,2|2,0:3|0:3,0:3:0:0:
304,304,227404,1,4,0:3:0:0:
440,208,227575,2,0,P|456:132|364:80,1,188.999994232178,8|0,0:3|0:3,0:3:0:0:
284,40,227918,1,4,0:3:0:0:
64,100,228089,1,2,0:3:0:0:
232,240,228261,6,0,P|180:268|96:224,1,125.999996154785,2|2,0:3|0:3,0:3:0:0:
184,64,228604,2,0,B|220:76|248:64|248:64|176:128|168:184,1,210,4|0,0:3|0:3,0:3:0:0:
40,324,228946,2,0,B|88:348|128:328|128:328|158:338|186:324,1,146.999995513916,8|0,0:3|0:3,0:3:0:0:
376,332,229289,1,4,0:3:0:0:
168,181,229461,1,8,0:3:0:0:
376,332,229632,6,0,B|404:308|404:308|388:272|412:232|412:232|400:192|400:192|416:124,1,178.500003404617,4|0,0:3|0:3,0:3:0:0:
350,100,229975,2,0,P|314:156|342:236,1,146.999995513916,2|0,0:3|0:3,0:3:0:0:
404,172,230318,2,0,L|468:128,1,56,8|0,0:3|0:3,0:3:0:0:
264,56,230489,2,0,L|217:87,1,56,2|0,0:3|0:3,0:3:0:0:
242,292,230661,2,0,L|346:220,1,112,2|4,0:3|0:3,0:3:0:0:
152,228,231004,6,0,L|156:308,1,56,2|0,0:3|0:3,0:3:0:0:
334,228,231175,2,0,L|331:172,1,56,2|0,0:3|0:3,0:3:0:0:
64,72,231346,2,0,L|72:216,1,112,4|2,0:3|0:3,0:3:0:0:
220,328,231689,6,0,B|188:332|188:332|124:324,1,56,8|0,0:3|0:3,0:3:0:0:
334,228,231861,2,0,B|302:219|302:219|238:218,1,56,2|0,0:3|0:3,0:3:0:0:
456,316,232032,2,0,P|484:264|456:144,1,168,4|0,0:3|0:3,0:3:0:0:
272,36,232375,6,0,B|248:60|248:60|236:96|236:96|176:124|188:204,1,157.500006008148,4|0,0:3|0:3,0:3:0:0:
268,172,232718,2,0,P|234:245|253:169,1,210,2|0,0:3|0:3,0:3:0:0:
324,120,233061,2,0,P|368:188|360:256,1,140,8|2,0:3|0:3,0:3:0:0:
328,324,233318,1,2,0:3:0:0:
328,324,233404,2,0,B|264:324|264:324|208:344|208:344|152:340,1,168,4|0,0:3|0:3,0:3:0:0:
80,264,233746,5,2,0:3:0:0:
80,264,233832,1,2,0:3:0:0:
80,264,233918,2,0,P|120:268|164:264,1,56,2|0,0:3|0:3,0:3:0:0:
268,216,234089,1,2,0:3:0:0:
140,116,234261,5,4,0:3:0:0:
352,192,234432,1,8,0:3:0:0:
48,192,234604,5,4,0:3:0:0:
448,80,234775,1,8,0:3:0:0:
24,36,234946,1,8,0:3:0:0:
388,260,235118,6,0,B|408:268|408:268|364:296|316:256|316:256|272:260|236:292,1,188.999994232178,4|0,0:3|0:3,0:3:0:0:
188,216,235461,2,0,B|124:228|124:228|168:260|164:324,1,168,2|0,0:3|0:3,0:3:0:0:
268,240,235804,6,0,P|264:180|244:160,1,56,8|0,0:3|0:3,0:3:0:0:
184,44,235975,2,0,P|144:80|132:112,1,56,2|0,0:3|0:3,0:3:0:0:
188,216,236146,1,2,0:3:0:0:
328,96,236318,1,2,0:3:0:0:
36,52,236489,5,4,0:3:0:0:
188,216,236661,1,2,0:3:0:0:
328,96,236832,2,0,B|308:168|336:236|336:236|356:216,1,168,2|0,0:3|0:3,0:3:0:0:
428,184,237175,2,0,P|400:152|364:136,1,56,8|0,0:3|0:3,0:3:0:0:
244,256,237346,2,0,P|260:304|280:332,1,56,2|0,0:3|0:3,0:3:0:0:
424,288,237518,1,2,0:3:0:0:
192,156,237689,1,4,0:3:0:0:
464,96,237861,6,0,P|376:102|354:121,1,112,2|2,0:3|0:3,0:3:0:0:
244,256,238204,2,0,P|320:212|308:129,1,168,2|0,0:3|0:3,0:3:0:0:
236,80,238546,2,0,P|220:108|216:144,1,56,8|0,0:3|0:3,0:3:0:0:
380,248,238718,2,0,P|404:224|424:192,1,56,2|0,0:3|0:3,0:3:0:0:
328,60,238889,1,2,0:3:0:0:
244,256,239061,1,2,0:3:0:0:
252,176,239232,6,0,P|312:216|312:296,1,140,4|2,0:3|0:3,0:3:0:0:
116,240,239575,6,0,B|176:200|156:140|156:140|200:120|208:56,1,188.999994232178,2|0,0:3|0:3,0:3:0:0:
120,64,239918,1,8,0:3:0:0:
201,87,240032,1,2,0:3:0:0:
284,92,240146,1,2,0:3:0:0:
399,39,240261,5,2,0:3:0:0:
364,159,240375,1,2,0:3:0:0:
426,268,240489,1,2,0:3:0:0:
333,342,240604,6,0,B|290:370|230:346|230:346|178:358,1,146.999995513916,4|0,0:3|0:3,0:3:0:0:
256,141,240946,2,0,B|298:186|298:186|282:278,1,146.999995513916,2|0,0:3|0:3,0:3:0:0:
192,355,241289,2,0,L|201:307,1,48.9999985046387,8|0,0:3|0:3,0:3:0:0:
382,186,241461,2,0,L|366:278,1,48.9999985046387,2|0,0:3|0:3,0:3:0:0:
256,141,241632,2,0,B|286:102|286:102|338:102|338:102|392:81,1,146.999995513916,2|0,0:3|0:3,0:3:0:0:
164,112,241975,6,0,L|176:200,1,48.9999985046387,4|0,0:3|0:3,0:3:0:0:
312,288,242146,2,0,L|316:228,1,48.9999985046387,2|0,0:3|0:3,0:3:0:0:
72,44,242318,2,0,L|60:212,1,146.999995513916,2|0,0:3|0:3,0:3:0:0:
260,208,242661,2,0,P|264:144|260:124,1,56,8|0,0:3|0:3,0:3:0:0:
140,264,242832,2,0,P|156:288|184:312,1,56,2|0,0:3|0:3,0:3:0:0:
352,296,243004,2,0,P|384:212|336:120,1,168,2|0,0:3|0:3,0:3:0:0:
214,55,243346,6,0,P|302:79|378:51,1,168,4|0,0:3|0:3,0:3:0:0:
146,3,243689,2,0,B|129:54|129:54|144:104|144:104|124:171,1,168,2|0,0:3|0:3,0:3:0:0:
219,162,244032,2,0,P|264:208|259:282,1,112,8|2,0:3|0:3,0:3:0:0:
204,348,244289,1,2,0:3:0:0:
204,348,244375,2,0,L|379:325,1,168,2|0,0:3|0:3,0:3:0:0:
435,258,244718,6,0,P|410:240|375:234,1,56,4|0,0:3|0:3,0:3:0:0:
303,225,244889,1,2,0:3:0:0:
485,98,245061,2,0,B|453:78|453:78|393:90|393:90|352:62|285:86,1,168,2|0,0:3|0:3,0:3:0:0:
192,39,245404,1,8,0:3:0:0:
344,153,245575,1,2,0:3:0:0:
130,254,245746,2,0,P|86:250|51:140,1,168,2|0,0:3|0:3,0:3:0:0:
117,179,246089,5,4,0:3:0:0:
117,179,246432,2,4,L|137:219,1,28,4|4,0:3|0:3,0:3:0:0:
129,204,246775,2,0,P|177:220|213:216,1,62.9999980773926,8|0,0:3|0:3,0:3:0:0:
292,107,246946,2,0,P|240:103|196:111,1,62.9999980773926,2|0,0:3|0:3,0:3:0:0:
304,296,247118,2,0,P|336:288|380:268,1,62.9999980773926,2|0,0:3|0:3,0:3:0:0:
413,30,247289,2,0,P|389:66|381:126,1,62.9999980773926,4|0,0:3|0:3,0:3:0:0:
432,348,247461,6,0,P|460:284|384:180,1,188.999994232178,2|0,0:3|0:3,0:3:0:0:
216,148,247804,2,0,B|272:140|272:140|348:152|348:152|412:140,1,188.999994232178,4|0,0:3|0:3,0:3:0:0:
316,56,248146,2,0,B|272:48|272:48|224:52,1,62.9999980773926,8|0,0:3|0:3,0:3:0:0:
376,232,248318,2,0,L|437:218,1,62.9999980773926,2|0,0:3|0:3,0:3:0:0:
152,88,248489,2,0,P|128:140|136:184,1,62.9999980773926,4|0,0:3|0:3,0:3:0:0:
268,348,248661,2,0,P|280:312|284:260,1,62.9999980773926,2|0,0:3|0:3,0:3:0:0:
76,16,248832,6,0,B|81:52|62:87|62:87|76:128|76:128|47:194,1,188.999994232178,4|0,0:3|0:3,0:3:0:0:
96,324,249175,2,0,B|118:272|118:272|169:214|169:214|196:152,1,188.999994232178,2|0,0:3|0:3,0:3:0:0:
232,84,249518,2,0,P|272:128|280:168,1,62.9999980773926,8|0,0:3|0:3,0:3:0:0:
296,320,249689,2,0,P|276:280|272:244,1,62.9999980773926,2|0,0:3|0:3,0:3:0:0:
452,56,249861,2,0,P|464:128|456:168,1,62.9999980773926,4|0,0:3|0:3,0:3:0:0:
137,194,250032,2,0,P|165:174|205:158,1,62.9999980773926,2|0,0:3|0:3,0:3:0:0:
384,328,250204,6,0,P|312:296|204:296,1,157.500006008148,2|0,0:3|0:3,0:3:0:0:
468,260,250546,2,0,P|396:292|288:292,1,157.500006008148,4|0,0:3|0:3,0:3:0:0:
175,310,250889,2,0,P|211:294|270:294,1,62.9999980773926,8|0,0:3|0:3,0:3:0:0:
416,188,251061,2,0,P|380:184|316:192,1,62.9999980773926,2|0,0:3|0:3,0:3:0:0:
116,156,251232,2,0,P|150:167|212:172,1,62.9999980773926,4|0,0:3|0:3,0:3:0:0:
448,104,251404,2,0,P|460:64|456:16,1,62.9999980773926,8|0,0:3|0:3,0:3:0:0:
52,36,251575,6,0,B|40:64|40:64|48:104|48:104|16:144|44:208,1,157.500006008148,4|0,0:3|0:3,0:3:0:0:
116,156,251918,2,4,P|152:152|108:180,1,140,4|4,0:3|0:3,0:3:0:0:
328,104,252261,2,0,B|292:104|292:104|252:112,1,70,8|0,0:3|0:3,0:3:0:0:
388,216,252432,2,0,B|352:216|352:216|312:208,1,70,2|0,0:3|0:3,0:3:0:0:
372,80,252604,2,0,B|336:80|336:80|296:88,1,70,2|0,0:3|0:3,0:3:0:0:
360,256,252775,2,0,B|324:256|324:256|284:248,1,70,4|0,0:3|0:3,0:3:0:0:
64,76,252946,5,2,0:3:0:0:
100,92,253032,1,2,0:3:0:0:
136,108,253118,1,2,0:3:0:0:
290,249,253289,2,0,P|298:289|322:325,1,70,4|0,0:3|0:3,0:3:0:0:
120,208,253461,2,0,P|112:248|88:284,1,70,2|0,0:3|0:3,0:3:0:0:
352,168,253632,1,8,0:3:0:0:
64,76,253804,1,2,0:3:0:0:
412,16,253975,2,0,B|440:56|440:56|412:108|412:108|456:160|416:228,1,210,4|0,0:3|0:3,0:3:0:0:
352,168,254318,6,0,B|324:228|324:228|384:292|384:292|444:292,1,210,4|0,0:3|0:3,0:3:0:0:
497,203,254661,2,0,L|421:203,1,70,2|0,0:3|0:3,0:3:0:0:
264,84,254832,2,0,L|333:76,1,70,4|0,0:3|0:3,0:3:0:0:
232,260,255004,2,0,P|136:268|144:128,1,210,8|0,0:3|0:3,0:3:0:0:
180,200,255346,2,0,P|188:240|180:284,1,70,4|0,0:3|0:3,0:3:0:0:
28,104,255518,2,0,P|25:69|32:35,1,70,2|0,0:3|0:3,0:3:0:0:
364,80,255689,5,2,0:3:0:0:
364,80,255775,1,2,0:3:0:0:
364,80,255861,2,0,P|388:120|396:156,1,70,2|0,0:3|0:3,0:3:0:0:
244,296,256032,1,2,0:3:0:0:
244,296,256118,1,2,0:3:0:0:
244,296,256204,2,0,P|255:250|275:219,1,70,4|0,0:3|0:3,0:3:0:0:
456,40,256375,5,8,0:3:0:0:
392,328,256546,1,4,0:3:0:0:
108,24,256718,5,8,0:3:0:0:
488,244,256889,1,8,0:3:0:0:
88,296,257061,6,0,B|80:312|80:312|132:320|160:292|160:256|156:220|112:200,1,168,4|0,0:3|0:3,0:3:0:0:
120,136,257404,2,4,P|104:140|72:160,1,35,4|4,0:3|0:3,0:3:0:0:
296,188,257575,1,4,0:3:0:0:
100,28,257746,2,0,P|60:40|8:68,1,70,8|0,0:3|0:3,0:3:0:0:
296,188,257918,2,0,P|336:180|388:148,1,70,2|0,0:3|0:3,0:3:0:0:
180,132,258089,2,0,B|168:176|168:176|172:236,1,70,2|0,0:3|0:3,0:3:0:0:
356,336,258261,2,0,P|360:296|356:256,1,70,2|0,0:3|0:3,0:3:0:0:
428,28,258432,6,0,B|428:92|388:152|436:180|436:180|464:132,1,188.999994232178,4|0,0:3|0:3,0:3:0:0:
336,120,258775,2,0,P|344:192|404:252,1,132.999996448517,2|4,0:3|0:3,0:3:0:0:
296,48,259118,2,0,P|260:88|260:148,1,70,8|0,0:3|0:3,0:3:0:0:
84,156,259289,2,0,P|92:216|112:256,1,70,2|0,0:3|0:3,0:3:0:0:
304,340,259461,2,0,B|316:304|316:304|320:268,1,70,2|0,0:3|0:3,0:3:0:0:
184,36,259632,2,0,P|188:76|180:136,1,70,4|0,0:3|0:3,0:3:0:0:
396,336,259804,6,0,B|404:320|448:284|448:284|396:232|432:164,1,188.999994232178,4|0,0:3|0:3,0:3:0:0:
504,216,260146,2,0,B|452:228|452:228|356:216|356:216|308:224,1,199.499994672775,2|0,0:3|0:3,0:3:0:0:
168,232,260489,2,0,P|192:216|244:200,1,70,8|0,0:3|0:3,0:3:0:0:
436,116,260661,2,0,P|384:136|348:140,1,70,2|0,0:3|0:3,0:3:0:0:
104,120,260832,2,0,P|64:148|36:188,1,70,2|0,0:3|0:3,0:3:0:0:
328,336,261004,2,0,P|356:296|368:260,1,70,2|0,0:3|0:3,0:3:0:0:
176,72,261175,6,0,P|136:40|20:124,1,178.500003404617,4|0,0:3|0:3,0:3:0:0:
208,140,261518,2,0,P|248:104|252:76,1,70,2|0,0:3|0:3,0:3:0:0:
104,120,261689,2,0,P|112:148|140:192,1,70,2|0,0:3|0:3,0:3:0:0:
200,248,261861,1,8,0:3:0:0:
296,184,261975,1,2,0:3:0:0:
316,284,262089,1,2,0:3:0:0:
316,64,262204,5,2,0:3:0:0:
380,224,262318,1,2,0:3:0:0:
408,48,262432,1,2,0:3:0:0:
464,168,262546,6,0,P|480:244|400:324,1,178.500003404617,4|0,0:3|0:3,0:3:0:0:
380,224,262889,2,0,P|300:256|216:212,1,178.500003404617,2|0,0:3|0:3,0:3:0:0:
152,140,263232,2,0,P|120:200|124:248,1,70,8|0,0:3|0:3,0:3:0:0:
238,333,263404,1,2,0:3:0:0:
238,333,263489,1,2,0:3:0:0:
238,333,263575,2,0,P|238:269|202:189,1,119.000002269745,2|0,0:3|0:3,0:3:0:0:
80,68,263918,6,0,B|44:104|52:156|52:156|24:180|24:180|32:228,1,178.500003404617,4|0,0:3|0:3,0:3:0:0:
80,312,264261,2,0,P|120:272|132:232,1,70,2|0,0:3|0:3,0:3:0:0:
192,83,264432,2,0,P|160:123|144:163,1,70,4|0,0:3|0:3,0:3:0:0:
336,264,264604,2,0,P|404:264|392:144,1,178.500003404617,8|0,0:3|0:3,0:3:0:0:
396,80,264946,2,0,P|392:48|380:100,1,178.500003404617,2|0,0:3|0:3,0:3:0:0:
256,24,265289,6,0,P|252:104|344:180,1,178.500003404617,8|0,0:3|0:3,0:3:0:0:
232,132,265632,2,0,B|168:152|168:152|104:120|104:120|32:136,1,178.500003404617,2|0,0:3|0:3,0:3:0:0:
256,24,265975,2,0,L|156:56,1,70,8|0,0:3|0:3,0:3:0:0:
392,112,266146,2,0,L|292:80,1,70,2|0,0:3|0:3,0:3:0:0:
85,233,266318,2,0,L|270:298,1,178.500003404617,2|0,0:3|0:3,0:3:0:0:
337,338,266661,6,0,P|349:282|245:198,1,178.500003404617,4|0,0:3|0:3,0:3:0:0:
132,120,267004,2,0,B|172:104|228:124|228:124|276:112|276:112|336:136,1,178.500003404617,2|0,0:3|0:3,0:3:0:0:
392,64,267346,6,0,P|408:160|356:220,1,157.500006008148,4|0,0:3|0:3,0:3:0:0:
424,40,267689,6,0,P|452:104|444:180,1,125.999996154785,2|0,0:3|0:3,0:3:0:0:
392,244,268032,5,0,0:3:0:0:
