osu file format v14

[General]
AudioFilename: audio.mp3
AudioLeadIn: 0
PreviewTime: 102735
Countdown: 1
SampleSet: Drum
StackLeniency: 0.7
Mode: 3
LetterboxInBreaks: 0
SpecialStyle: 0
WidescreenStoryboard: 0

[Editor]
Bookmarks: 131099,139826
DistanceSpacing: 0.6
BeatDivisor: 2
GridSize: 4
TimelineZoom: 1.6

[Metadata]
Title:Trauma
TitleUnicode:Trauma
Artist:Mantis & Rekoil
ArtistUnicode:Mantis & Rekoil
Creator:LastExceed
Version:False Memories
Source:
Tags:
BeatmapID:1282779
BeatmapSetID:607327

[Difficulty]
HPDrainRate:8
CircleSize:4
OverallDifficulty:8
ApproachRate:5
SliderMultiplier:1.4
SliderTickRate:1

[Events]
//Background and Video events
0,0,"bg0.jpg",0,0
//Break Periods
//Storyboard Layer 0 (Background)
//Storyboard Layer 1 (Fail)
//Storyboard Layer 2 (Pass)
//Storyboard Layer 3 (Foreground)
//Storyboard Layer 4 (Overlay)
//Storyboard Sound Samples

[TimingPoints]
190,272.727272727273,4,3,1,40,1,0
174735,272.727272727273,4,3,1,40,1,0
174735,-158.730158730159,4,3,1,40,0,0
175007,271.493212669683,4,3,1,40,1,0
175007,-158.730158730159,4,3,1,40,0,0
175278,270.27027027027,4,3,1,40,1,0
175278,-158.730158730159,4,3,1,40,0,0
175548,269.058295964126,4,3,1,40,1,0
175548,-158.730158730159,4,3,1,40,0,0
175817,267.857142857143,4,3,1,40,1,0
175817,-158.730158730159,4,3,1,40,0,0
176084,266.666666666667,4,3,1,40,1,0
176084,-158.730158730159,4,3,1,40,0,0
176350,265.486725663717,4,3,1,40,1,0
176350,-158.730158730159,4,3,1,40,0,0
176615,264.31718061674,4,3,1,40,1,0
176615,-158.730158730159,4,3,1,40,0,0
176879,263.157894736842,4,3,1,40,1,0
176879,-158.730158730159,4,3,1,40,0,0
177142,262.008733624454,4,3,1,40,1,0
177142,-158.730158730159,4,3,1,40,0,0
177404,260.869565217391,4,3,1,40,1,0
177404,-158.730158730159,4,3,1,40,0,0
177664,259.74025974026,4,3,1,40,1,0
177664,-158.730158730159,4,3,1,40,0,0
177923,258.620689655172,4,3,1,40,1,0
177923,-158.730158730159,4,3,1,40,0,0
178181,257.510729613734,4,3,1,40,1,0
178181,-158.730158730159,4,3,1,40,0,0
178438,256.410256410256,4,3,1,40,1,0
178438,-158.730158730159,4,3,1,40,0,0
178694,255.31914893617,4,3,1,40,1,0
178694,-158.730158730159,4,3,1,40,0,0
178949,254.237288135593,4,3,1,40,1,0
178949,-158.730158730159,4,3,1,40,0,0
179203,253.164556962025,4,3,1,40,1,0
179203,-158.730158730159,4,3,1,40,0,0
179456,252.100840336134,4,3,1,40,1,0
179456,-158.730158730159,4,3,1,40,0,0
179708,251.046025104603,4,3,1,40,1,0
179708,-158.730158730159,4,3,1,40,0,0
179959,250,4,3,1,40,1,0
179959,-158.730158730159,4,3,1,40,0,0
180209,248.96265560166,4,3,1,40,1,0
180209,-158.730158730159,4,3,1,40,0,0
180457,247.933884297521,4,3,1,40,1,0
180457,-158.730158730159,4,3,1,40,0,0
180704,246.913580246914,4,3,1,40,1,0
180704,-158.730158730159,4,3,1,40,0,0
180950,245.901639344262,4,3,1,40,1,0
180950,-158.730158730159,4,3,1,40,0,0
181195,244.897959183673,4,3,1,40,1,0
181195,-158.730158730159,4,3,1,40,0,0
181439,243.90243902439,4,3,1,40,1,0
181439,-158.730158730159,4,3,1,40,0,0
181682,242.914979757085,4,3,1,40,1,0
181682,-158.730158730159,4,3,1,40,0,0
181924,241.935483870968,4,3,1,40,1,0
181924,-158.730158730159,4,3,1,40,0,0
182165,240.963855421687,4,3,1,40,1,0
182165,-158.730158730159,4,3,1,40,0,0
182405,240,4,3,1,40,1,0
182405,-158.730158730159,4,3,1,40,0,0
182645,239.043824701195,4,3,1,40,1,0
182645,-158.730158730159,4,3,1,40,0,0
182884,238.095238095238,4,3,1,40,1,0
182884,-158.730158730159,4,3,1,40,0,0
183122,237.154150197628,4,3,1,40,1,0
183122,-158.730158730159,4,3,1,40,0,0
183359,236.220472440945,4,3,1,40,1,0
183359,-158.730158730159,4,3,1,40,0,0
183595,235.294117647059,4,3,1,40,1,0
183595,-158.730158730159,4,3,1,40,0,0
183830,234.375,4,3,1,40,1,0
183830,-158.730158730159,4,3,1,40,0,0
184064,233.463035019455,4,3,1,40,1,0
184064,-158.730158730159,4,3,1,40,0,0
184297,232.558139534884,4,3,1,40,1,0
184297,-158.730158730159,4,3,1,40,0,0
184529,231.660231660232,4,3,1,40,1,0
184529,-158.730158730159,4,3,1,40,0,0
184760,230.769230769231,4,3,1,40,1,0
184760,-158.730158730159,4,3,1,40,0,0
184990,229.885057471264,4,3,1,40,1,0
184990,-158.730158730159,4,3,1,40,0,0
185219,229.007633587786,4,3,1,40,1,0
185219,-158.730158730159,4,3,1,40,0,0
185448,228.136882129278,4,3,1,40,1,0
185448,-158.730158730159,4,3,1,40,0,0
185676,227.272727272727,4,3,1,40,1,0
185676,-158.730158730159,4,3,1,40,0,0
185903,226.415094339623,4,3,1,40,1,0
185903,-158.730158730159,4,3,1,40,0,0
186129,225.563909774436,4,3,1,40,1,0
186129,-158.730158730159,4,3,1,40,0,0
186354,224.719101123595,4,3,1,40,1,0
186354,-158.730158730159,4,3,1,40,0,0
186578,223.880597014925,4,3,1,40,1,0
186578,-158.730158730159,4,3,1,40,0,0
186801,223.048327137546,4,3,1,40,1,0
186801,-158.730158730159,4,3,1,40,0,0
187024,222.222222222222,4,3,1,40,1,0
187024,-158.730158730159,4,3,1,40,0,0
187246,221.40221402214,4,3,1,40,1,0
187246,-158.730158730159,4,3,1,40,0,0
187467,220.588235294118,4,3,1,40,1,0
187467,-158.730158730159,4,3,1,40,0,0
187687,219.78021978022,4,3,1,40,1,0
187687,-158.730158730159,4,3,1,40,0,0
187906,218.978102189781,4,3,1,40,1,0
187906,-158.730158730159,4,3,1,40,0,0
188124,218.181818181818,4,3,1,40,1,0
188124,-158.730158730159,4,3,1,40,0,0
188342,217.391304347826,4,3,1,40,1,0
188342,-158.730158730159,4,3,1,40,0,0
188559,216.606498194946,4,3,1,40,1,0
188559,-158.730158730159,4,3,1,40,0,0
188775,215.827338129496,4,3,1,40,1,0
188775,-158.730158730159,4,3,1,40,0,0
188990,215.05376344086,4,3,1,40,1,0
188990,-158.730158730159,4,3,1,40,0,0
189205,214.285714285714,4,3,1,40,1,0
189205,-158.730158730159,4,3,1,40,0,0
189419,213.523131672598,4,3,1,40,1,0
189419,-158.730158730159,4,3,1,40,0,0
189632,212.765957446809,4,3,1,40,1,0
189632,-158.730158730159,4,3,1,40,0,0
189844,212.014134275618,4,3,1,40,1,0
189844,-158.730158730159,4,3,1,40,0,0
190056,211.267605633803,4,3,1,40,1,0
190056,-158.730158730159,4,3,1,40,0,0
190267,210.526315789474,4,3,1,40,1,0
190267,-158.730158730159,4,3,1,40,0,0
190477,209.79020979021,4,3,1,40,1,0
190477,-158.730158730159,4,3,1,40,0,0
190686,209.059233449477,4,3,1,40,1,0
190686,-158.730158730159,4,3,1,40,0,0
190895,208.333333333333,4,3,1,40,1,0
190895,-158.730158730159,4,3,1,40,0,0
191103,207.612456747405,4,3,1,40,1,0
191103,-158.730158730159,4,3,1,40,0,0
191310,206.896551724138,4,3,1,40,1,0
191310,-158.730158730159,4,3,1,40,0,0
191516,206.185567010309,4,3,1,40,1,0
191516,-158.730158730159,4,3,1,40,0,0
191722,205.479452054795,4,3,1,40,1,0
191722,-158.730158730159,4,3,1,40,0,0
191927,204.778156996587,4,3,1,40,1,0
191927,-158.730158730159,4,3,1,40,0,0
192131,204.081632653061,4,3,1,40,1,0
192131,-158.730158730159,4,3,1,40,0,0
192335,203.389830508475,4,3,1,40,1,0
192335,-158.730158730159,4,3,1,40,0,0
192538,202.702702702703,4,3,1,40,1,0
192538,-158.730158730159,4,3,1,40,0,0
192740,202.020202020202,4,3,1,40,1,0
192740,-158.730158730159,4,3,1,40,0,0
192942,201.342281879195,4,3,1,40,1,0
192942,-158.730158730159,4,3,1,40,0,0
193143,200.66889632107,4,3,1,40,1,0
193143,-158.730158730159,4,3,1,40,0,0
193343,200,4,3,1,40,1,0
193343,-158.730158730159,4,3,1,40,0,0
193543,199.335548172757,4,3,1,40,1,0
193543,-158.730158730159,4,3,1,40,0,0
193741,198.675496688742,4,3,1,40,1,0
193741,-158.730158730159,4,3,1,40,0,0
193940,198.019801980198,4,3,1,40,1,0
193940,-158.730158730159,4,3,1,40,0,0
194138,197.368421052632,4,3,1,40,1,0
194138,-158.730158730159,4,3,1,40,0,0
194335,196.72131147541,4,3,1,40,1,0
194335,-158.730158730159,4,3,1,40,0,0
194531,196.078431372549,4,3,1,40,1,0
194531,-158.730158730159,4,3,1,40,0,0
194727,195.439739413681,4,3,1,40,1,0
194727,-158.730158730159,4,3,1,40,0,0
194922,194.805194805195,4,3,1,40,1,0
194922,-158.730158730159,4,3,1,40,0,0
195116,194.174757281553,4,3,1,40,1,0
195116,-158.730158730159,4,3,1,40,0,0
195310,193.548387096774,4,3,1,40,1,0
195310,-158.730158730159,4,3,1,40,0,0
195503,192.926045016077,4,3,1,40,1,0
195503,-158.730158730159,4,3,1,40,0,0
195695,192.307692307692,4,3,1,40,1,0
195695,-158.730158730159,4,3,1,40,0,0
195887,191.693290734824,4,3,1,40,1,0
195887,-158.730158730159,4,3,1,40,0,0
196078,191.082802547771,4,3,1,40,1,0
196078,-158.730158730159,4,3,1,40,0,0
196269,190.47619047619,4,3,1,40,1,0
196269,-158.730158730159,4,3,1,40,0,0
196459,189.873417721519,4,3,1,40,1,0
196459,-158.730158730159,4,3,1,40,0,0
196648,189.274447949527,4,3,1,40,1,0
196648,-158.730158730159,4,3,1,40,0,0
196837,188.679245283019,4,3,1,40,1,0
196837,-158.730158730159,4,3,1,40,0,0
197025,188.087774294671,4,3,1,40,1,0
197025,-158.730158730159,4,3,1,40,0,0
197213,187.5,4,3,1,40,1,0
197213,-158.730158730159,4,3,1,40,0,0
197400,186.915887850467,4,3,1,40,1,0
197400,-158.730158730159,4,3,1,40,0,0
197586,186.335403726708,4,3,1,40,1,0
197586,-158.730158730159,4,3,1,40,0,0
197772,185.758513931889,4,3,1,40,1,0
197772,-158.730158730159,4,3,1,40,0,0
197957,185.185185185185,4,3,1,40,1,0
197957,-158.730158730159,4,3,1,40,0,0
198142,184.615384615385,4,3,1,40,1,0
198142,-158.730158730159,4,3,1,40,0,0
198326,184.049079754601,4,3,1,40,1,0
198326,-158.730158730159,4,3,1,40,0,0
198510,183.48623853211,4,3,1,40,1,0
198510,-158.730158730159,4,3,1,40,0,0
198693,182.926829268293,4,3,1,40,1,0
198693,-158.730158730159,4,3,1,40,0,0
198875,182.370820668693,4,3,1,40,1,0
198875,-158.730158730159,4,3,1,40,0,0
199057,181.818181818182,4,3,1,40,1,0
199057,-158.730158730159,4,3,1,40,0,0
199238,181.268882175227,4,3,1,40,1,0
199238,-158.730158730159,4,3,1,40,0,0
199419,180.722891566265,4,3,1,40,1,0
199419,-158.730158730159,4,3,1,40,0,0
199599,180.18018018018,4,3,1,40,1,0
199599,-158.730158730159,4,3,1,40,0,0
199779,179.640718562874,4,3,1,40,1,0
199779,-158.730158730159,4,3,1,40,0,0
199958,179.10447761194,4,3,1,40,1,0
199958,-158.730158730159,4,3,1,40,0,0
200137,178.571428571429,4,3,1,40,1,0
200137,-158.730158730159,4,3,1,40,0,0
200315,178.041543026706,4,3,1,40,1,0
200315,-158.730158730159,4,3,1,40,0,0
200493,177.514792899408,4,3,1,40,1,0
200493,-158.730158730159,4,3,1,40,0,0
200670,176.991150442478,4,3,1,40,1,0
200670,-158.730158730159,4,3,1,40,0,0
200846,176.470588235294,4,3,1,40,1,0
200846,-158.730158730159,4,3,1,40,0,0
201022,175.953079178886,4,3,1,40,1,0
201022,-158.730158730159,4,3,1,40,0,0
201197,175.438596491228,4,3,1,40,1,0
201197,-158.730158730159,4,3,1,40,0,0
201372,174.927113702624,4,3,1,40,1,0
201372,-158.730158730159,4,3,1,40,0,0
201546,174.418604651163,4,3,1,40,1,0
201546,-158.730158730159,4,3,1,40,0,0
201720,173.913043478261,4,3,1,40,1,0
201720,-158.730158730159,4,3,1,40,0,0
201893,173.410404624277,4,3,1,40,1,0
201893,-158.730158730159,4,3,1,40,0,0
202066,172.910662824207,4,3,1,40,1,0
202066,-158.730158730159,4,3,1,40,0,0
202195,171.428571428571,4,3,1,40,1,0
202195,-158.730158730159,4,3,1,40,0,0

[HitObjects]
192,192,190,128,0,258:0:0:0:0:
320,192,190,128,0,258:0:0:0:0:
64,192,190,128,0,258:0:0:0:0:
320,192,462,128,0,530:0:0:0:0:
448,192,462,128,0,530:0:0:0:0:
192,192,462,128,0,530:0:0:0:0:
64,192,1280,1,0,0:0:0:0:
320,192,1280,1,0,0:0:0:0:
192,192,4280,1,0,0:0:0:0:
320,192,4417,1,0,0:0:0:0:
64,192,4553,128,0,4621:0:0:0:0:
448,192,4553,128,0,4621:0:0:0:0:
192,192,4553,1,0,0:0:0:0:
320,192,4690,1,0,0:0:0:0:
64,192,4826,1,0,0:0:0:0:
448,192,5099,128,0,5167:0:0:0:0:
64,192,5099,128,0,5167:0:0:0:0:
192,192,5371,1,0,0:0:0:0:
192,192,5644,128,0,5712:0:0:0:0:
64,192,5644,128,0,5712:0:0:0:0:
448,192,5644,128,0,5712:0:0:0:0:
320,192,5644,1,0,0:0:0:0:
448,192,7553,128,0,8917:0:0:0:0:
64,192,8644,1,0,0:0:0:0:
320,192,8780,1,0,0:0:0:0:
64,192,8917,128,0,8985:0:0:0:0:
192,192,8917,128,0,8985:0:0:0:0:
320,192,9190,128,0,9258:0:0:0:0:
448,192,9190,128,0,9258:0:0:0:0:
64,192,9462,1,0,0:0:0:0:
192,192,9599,1,0,0:0:0:0:
320,192,9735,1,0,0:0:0:0:
448,192,9871,1,0,0:0:0:0:
64,192,10008,128,0,13280:0:0:0:0:
192,192,10008,1,0,0:0:0:0:
192,192,13008,1,0,0:0:0:0:
448,192,13144,1,0,0:0:0:0:
192,192,13280,128,0,13349:0:0:0:0:
320,192,13280,128,0,13349:0:0:0:0:
448,192,13417,1,0,0:0:0:0:
64,192,13553,1,0,0:0:0:0:
320,192,13826,128,0,13894:0:0:0:0:
192,192,13826,128,0,13894:0:0:0:0:
448,192,14099,1,0,0:0:0:0:
64,192,14371,1,0,0:0:0:0:
192,192,14371,128,0,14440:0:0:0:0:
320,192,14371,128,0,14440:0:0:0:0:
64,192,17371,1,0,0:0:0:0:
192,192,17508,1,0,0:0:0:0:
64,192,17644,1,0,0:0:0:0:
320,192,17644,1,0,0:0:0:0:
448,192,17644,1,0,0:0:0:0:
192,192,17780,1,0,0:0:0:0:
448,192,17917,1,0,0:0:0:0:
320,192,18053,1,0,0:0:0:0:
64,192,18190,1,0,0:0:0:0:
448,192,18326,1,0,0:0:0:0:
192,192,18462,1,0,0:0:0:0:
64,192,18462,1,0,0:0:0:0:
320,192,18599,1,0,0:0:0:0:
448,192,18735,1,0,0:0:0:0:
64,192,18735,1,0,0:0:0:0:
320,192,18803,1,0,0:0:0:0:
192,192,18871,1,0,0:0:0:0:
448,192,19008,1,0,0:0:0:0:
320,192,19144,1,0,0:0:0:0:
192,192,19280,1,0,0:0:0:0:
64,192,19280,1,0,0:0:0:0:
320,192,19349,1,0,0:0:0:0:
448,192,19417,1,0,0:0:0:0:
320,192,19553,1,0,0:0:0:0:
192,192,19553,1,0,0:0:0:0:
64,192,19690,1,0,0:0:0:0:
192,192,19826,1,0,0:0:0:0:
320,192,19962,1,0,0:0:0:0:
64,192,20099,1,0,0:0:0:0:
192,192,20099,1,0,0:0:0:0:
448,192,20167,1,0,0:0:0:0:
64,192,20235,1,0,0:0:0:0:
192,192,20235,1,0,0:0:0:0:
320,192,20371,1,0,0:0:0:0:
64,192,20508,1,0,0:0:0:0:
192,192,20576,1,0,0:0:0:0:
448,192,20644,1,0,0:0:0:0:
320,192,20644,1,0,0:0:0:0:
192,192,20780,1,0,0:0:0:0:
448,192,20917,1,0,0:0:0:0:
64,192,20917,1,0,0:0:0:0:
320,192,21053,1,0,0:0:0:0:
64,192,21190,1,0,0:0:0:0:
320,192,21326,1,0,0:0:0:0:
192,192,21326,1,0,0:0:0:0:
64,192,21462,1,0,0:0:0:0:
448,192,21462,1,0,0:0:0:0:
192,192,21530,1,0,0:0:0:0:
320,192,21599,1,0,0:0:0:0:
192,192,21735,1,0,0:0:0:0:
448,192,21735,1,0,0:0:0:0:
64,192,21871,1,0,0:0:0:0:
64,192,22008,128,0,22280:0:0:0:0:
192,192,22008,128,0,22280:0:0:0:0:
320,192,22008,128,0,22280:0:0:0:0:
448,192,22008,128,0,22280:0:0:0:0:
192,192,22417,1,0,0:0:0:0:
448,192,22553,1,0,0:0:0:0:
192,192,22690,1,0,0:0:0:0:
320,192,22758,1,0,0:0:0:0:
448,192,22826,1,0,0:0:0:0:
64,192,22826,1,0,0:0:0:0:
192,192,22962,1,0,0:0:0:0:
320,192,23099,1,0,0:0:0:0:
448,192,23099,1,0,0:0:0:0:
64,192,23235,1,0,0:0:0:0:
448,192,23371,1,0,0:0:0:0:
192,192,23508,1,0,0:0:0:0:
64,192,23644,1,0,0:0:0:0:
448,192,23644,1,0,0:0:0:0:
192,192,23712,1,0,0:0:0:0:
320,192,23780,1,0,0:0:0:0:
192,192,23917,1,0,0:0:0:0:
64,192,23917,1,0,0:0:0:0:
320,192,24053,1,0,0:0:0:0:
192,192,24190,1,0,0:0:0:0:
64,192,24326,1,0,0:0:0:0:
320,192,24462,1,0,0:0:0:0:
448,192,24462,1,0,0:0:0:0:
192,192,24530,1,0,0:0:0:0:
320,192,24599,1,0,0:0:0:0:
448,192,24599,1,0,0:0:0:0:
64,192,24735,1,0,0:0:0:0:
320,192,24871,1,0,0:0:0:0:
192,192,24940,1,0,0:0:0:0:
448,192,25008,1,0,0:0:0:0:
64,192,25008,1,0,0:0:0:0:
320,192,25144,1,0,0:0:0:0:
192,192,25280,1,0,0:0:0:0:
64,192,25280,1,0,0:0:0:0:
448,192,25417,1,0,0:0:0:0:
192,192,25553,1,0,0:0:0:0:
320,192,25690,1,0,0:0:0:0:
448,192,25690,1,0,0:0:0:0:
192,192,25826,128,0,26030:0:0:0:0:
64,192,25826,128,0,26030:0:0:0:0:
64,192,26099,128,0,26303:0:0:0:0:
192,192,26099,128,0,26303:0:0:0:0:
64,192,26371,128,0,26644:0:0:0:0:
448,192,26371,128,0,26644:0:0:0:0:
320,192,26371,128,0,26644:0:0:0:0:
192,192,26371,128,0,26644:0:0:0:0:
448,192,26780,1,0,0:0:0:0:
320,192,26917,1,0,0:0:0:0:
64,192,27053,1,0,0:0:0:0:
192,192,27121,1,0,0:0:0:0:
320,192,27190,1,0,0:0:0:0:
448,192,27190,1,0,0:0:0:0:
64,192,27326,1,0,0:0:0:0:
448,192,27462,1,0,0:0:0:0:
192,192,27462,1,0,0:0:0:0:
320,192,27599,1,0,0:0:0:0:
448,192,27735,1,0,0:0:0:0:
64,192,27871,1,0,0:0:0:0:
192,192,28008,1,0,0:0:0:0:
320,192,28008,1,0,0:0:0:0:
448,192,28076,1,0,0:0:0:0:
64,192,28144,1,0,0:0:0:0:
448,192,28280,1,0,0:0:0:0:
192,192,28280,1,0,0:0:0:0:
64,192,28417,1,0,0:0:0:0:
192,192,28553,1,0,0:0:0:0:
320,192,28690,1,0,0:0:0:0:
64,192,28826,1,0,0:0:0:0:
192,192,28826,1,0,0:0:0:0:
448,192,28894,1,0,0:0:0:0:
64,192,28962,1,0,0:0:0:0:
192,192,28962,1,0,0:0:0:0:
320,192,29099,1,0,0:0:0:0:
448,192,29235,1,0,0:0:0:0:
192,192,29303,1,0,0:0:0:0:
64,192,29371,1,0,0:0:0:0:
320,192,29371,1,0,0:0:0:0:
192,192,29508,1,0,0:0:0:0:
448,192,29644,1,0,0:0:0:0:
320,192,29644,1,0,0:0:0:0:
192,192,29780,1,0,0:0:0:0:
64,192,29917,1,0,0:0:0:0:
448,192,30053,1,0,0:0:0:0:
320,192,30053,1,0,0:0:0:0:
192,192,30190,1,0,0:0:0:0:
64,192,30190,1,0,0:0:0:0:
320,192,30326,1,0,0:0:0:0:
192,192,30394,1,0,0:0:0:0:
448,192,30462,1,0,0:0:0:0:
64,192,30462,1,0,0:0:0:0:
320,192,30599,1,0,0:0:0:0:
64,192,30667,1,0,0:0:0:0:
192,192,30735,128,0,30803:0:0:0:0:
320,192,30735,128,0,30803:0:0:0:0:
448,192,30735,1,0,0:0:0:0:
448,192,31008,1,0,0:0:0:0:
448,192,31280,1,0,0:0:0:0:
320,192,31280,128,0,31349:0:0:0:0:
192,192,31280,128,0,31349:0:0:0:0:
448,192,31553,1,0,0:0:0:0:
448,192,31826,1,0,0:0:0:0:
192,192,31826,128,0,31894:0:0:0:0:
320,192,31826,128,0,31894:0:0:0:0:
448,192,32099,1,0,0:0:0:0:
448,192,32371,1,0,0:0:0:0:
448,192,32644,1,0,0:0:0:0:
448,192,32917,1,0,0:0:0:0:
448,192,33190,1,0,0:0:0:0:
448,192,33462,1,0,0:0:0:0:
448,192,33735,1,0,0:0:0:0:
192,192,34008,128,0,34076:0:0:0:0:
64,192,35099,128,0,35167:0:0:0:0:
320,192,35099,1,0,0:0:0:0:
448,192,35099,1,0,0:0:0:0:
192,192,35235,1,0,0:0:0:0:
320,192,35371,1,0,0:0:0:0:
64,192,35508,1,0,0:0:0:0:
192,192,35644,1,0,0:0:0:0:
320,192,35780,1,0,0:0:0:0:
64,192,35917,1,0,0:0:0:0:
192,192,36053,1,0,0:0:0:0:
320,192,36190,1,0,0:0:0:0:
64,192,36326,1,0,0:0:0:0:
192,192,36462,1,0,0:0:0:0:
320,192,36599,1,0,0:0:0:0:
64,192,36735,1,0,0:0:0:0:
192,192,36871,1,0,0:0:0:0:
320,192,37008,1,0,0:0:0:0:
64,192,37144,1,0,0:0:0:0:
64,192,37280,1,0,0:0:0:0:
192,192,37417,1,0,0:0:0:0:
320,192,37553,1,0,0:0:0:0:
64,192,37690,1,0,0:0:0:0:
192,192,37826,1,0,0:0:0:0:
320,192,37962,1,0,0:0:0:0:
64,192,38099,1,0,0:0:0:0:
192,192,38235,1,0,0:0:0:0:
320,192,38371,1,0,0:0:0:0:
64,192,38508,1,0,0:0:0:0:
192,192,38644,1,0,0:0:0:0:
320,192,38780,1,0,0:0:0:0:
64,192,38917,1,0,0:0:0:0:
192,192,39053,1,0,0:0:0:0:
320,192,39190,1,0,0:0:0:0:
64,192,39326,1,0,0:0:0:0:
64,192,39462,1,0,0:0:0:0:
320,192,39599,1,0,0:0:0:0:
448,192,39735,1,0,0:0:0:0:
64,192,39871,1,0,0:0:0:0:
320,192,40008,1,0,0:0:0:0:
448,192,40144,1,0,0:0:0:0:
64,192,40280,1,0,0:0:0:0:
320,192,40417,1,0,0:0:0:0:
448,192,40553,1,0,0:0:0:0:
64,192,40690,1,0,0:0:0:0:
320,192,40826,1,0,0:0:0:0:
448,192,40962,1,0,0:0:0:0:
64,192,41099,1,0,0:0:0:0:
320,192,41235,1,0,0:0:0:0:
448,192,41371,1,0,0:0:0:0:
64,192,41508,1,0,0:0:0:0:
64,192,41644,5,0,0:0:0:0:
192,192,41780,1,0,0:0:0:0:
448,192,41917,1,0,0:0:0:0:
64,192,42053,1,0,0:0:0:0:
192,192,42190,1,0,0:0:0:0:
448,192,42326,1,0,0:0:0:0:
64,192,42462,1,0,0:0:0:0:
192,192,42599,1,0,0:0:0:0:
448,192,42735,128,0,42803:0:0:0:0:
64,192,42871,1,0,0:0:0:0:
192,192,43008,1,0,0:0:0:0:
448,192,43144,1,0,0:0:0:0:
64,192,43280,1,0,0:0:0:0:
192,192,43417,1,0,0:0:0:0:
448,192,43553,1,0,0:0:0:0:
64,192,43690,1,0,0:0:0:0:
64,192,43826,128,0,43894:0:0:0:0:
448,192,43826,128,0,43894:0:0:0:0:
192,192,43962,1,0,0:0:0:0:
320,192,44099,128,0,44167:0:0:0:0:
448,192,44099,128,0,44167:0:0:0:0:
64,192,44235,1,0,0:0:0:0:
192,192,44371,128,0,44440:0:0:0:0:
448,192,44371,128,0,44440:0:0:0:0:
320,192,44508,1,0,0:0:0:0:
64,192,44644,1,0,0:0:0:0:
192,192,44780,1,0,0:0:0:0:
320,192,44917,128,0,44985:0:0:0:0:
448,192,44917,128,0,44985:0:0:0:0:
64,192,45053,1,0,0:0:0:0:
192,192,45190,1,0,0:0:0:0:
320,192,45326,1,0,0:0:0:0:
64,192,45462,1,0,0:0:0:0:
448,192,45462,1,0,0:0:0:0:
192,192,45599,1,0,0:0:0:0:
320,192,45735,1,0,0:0:0:0:
64,192,45871,1,0,0:0:0:0:
64,192,46008,1,0,0:0:0:0:
320,192,46008,1,0,0:0:0:0:
192,192,46144,1,0,0:0:0:0:
320,192,46280,1,0,0:0:0:0:
64,192,46417,1,0,0:0:0:0:
192,192,46553,1,0,0:0:0:0:
320,192,46690,1,0,0:0:0:0:
64,192,46826,1,0,0:0:0:0:
192,192,46962,1,0,0:0:0:0:
320,192,47099,1,0,0:0:0:0:
64,192,47235,1,0,0:0:0:0:
192,192,47371,1,0,0:0:0:0:
320,192,47508,1,0,0:0:0:0:
64,192,47644,1,0,0:0:0:0:
192,192,47780,1,0,0:0:0:0:
320,192,47917,1,0,0:0:0:0:
64,192,48053,1,0,0:0:0:0:
64,192,48190,1,0,0:0:0:0:
320,192,48326,1,0,0:0:0:0:
448,192,48462,1,0,0:0:0:0:
64,192,48599,1,0,0:0:0:0:
320,192,48735,1,0,0:0:0:0:
448,192,48871,1,0,0:0:0:0:
64,192,49008,1,0,0:0:0:0:
320,192,49144,1,0,0:0:0:0:
448,192,49280,1,0,0:0:0:0:
64,192,49417,1,0,0:0:0:0:
320,192,49553,1,0,0:0:0:0:
448,192,49690,1,0,0:0:0:0:
64,192,49826,1,0,0:0:0:0:
320,192,49962,1,0,0:0:0:0:
448,192,50099,1,0,0:0:0:0:
64,192,50235,1,0,0:0:0:0:
64,192,50371,5,0,0:0:0:0:
192,192,50508,1,0,0:0:0:0:
448,192,50644,1,0,0:0:0:0:
64,192,50780,1,0,0:0:0:0:
192,192,50917,1,0,0:0:0:0:
448,192,51053,1,0,0:0:0:0:
64,192,51190,1,0,0:0:0:0:
192,192,51326,1,0,0:0:0:0:
448,192,51462,128,0,51530:0:0:0:0:
64,192,51599,1,0,0:0:0:0:
192,192,51735,1,0,0:0:0:0:
448,192,51871,1,0,0:0:0:0:
64,192,52008,1,0,0:0:0:0:
192,192,52144,1,0,0:0:0:0:
448,192,52280,1,0,0:0:0:0:
64,192,52417,1,0,0:0:0:0:
320,192,52553,128,0,52621:0:0:0:0:
192,192,52553,128,0,52621:0:0:0:0:
64,192,52553,1,0,0:0:0:0:
448,192,52553,128,0,52621:0:0:0:0:
192,192,52826,128,0,52894:0:0:0:0:
64,192,52826,128,0,52894:0:0:0:0:
320,192,52826,128,0,52894:0:0:0:0:
320,192,53099,128,0,53167:0:0:0:0:
192,192,53099,128,0,53167:0:0:0:0:
320,192,53644,128,0,53712:0:0:0:0:
192,192,53644,128,0,53712:0:0:0:0:
64,192,54190,1,0,0:0:0:0:
192,192,54190,1,0,0:0:0:0:
192,192,54735,1,0,0:0:0:0:
64,192,54735,1,0,0:0:0:0:
192,192,55553,1,0,0:0:0:0:
64,192,55553,1,0,0:0:0:0:
64,192,56371,128,0,56440:0:0:0:0:
320,192,56371,128,0,56440:0:0:0:0:
192,192,56371,1,0,0:0:0:0:
64,192,56917,128,0,56985:0:0:0:0:
320,192,56917,128,0,56985:0:0:0:0:
192,192,56917,1,0,0:0:0:0:
64,192,57190,128,0,57258:0:0:0:0:
192,192,57190,128,0,57258:0:0:0:0:
448,192,57190,128,0,57224:0:0:0:0:
448,192,57326,128,0,57360:0:0:0:0:
448,192,57462,128,0,57496:0:0:0:0:
192,192,57735,1,0,0:0:0:0:
320,192,57735,1,0,0:0:0:0:
448,192,58008,128,0,58042:0:0:0:0:
448,192,58280,128,0,58315:0:0:0:0:
192,192,58553,1,0,0:0:0:0:
320,192,58553,1,0,0:0:0:0:
448,192,58553,128,0,58587:0:0:0:0:
448,192,58690,128,0,58724:0:0:0:0:
448,192,58826,128,0,58860:0:0:0:0:
192,192,59099,1,0,0:0:0:0:
320,192,59099,1,0,0:0:0:0:
448,192,59371,128,0,59405:0:0:0:0:
448,192,59644,128,0,59678:0:0:0:0:
192,192,59917,1,0,0:0:0:0:
320,192,59917,1,0,0:0:0:0:
448,192,59917,128,0,59951:0:0:0:0:
448,192,60190,128,0,60224:0:0:0:0:
448,192,60326,128,0,60360:0:0:0:0:
448,192,60462,128,0,60496:0:0:0:0:
192,192,60735,1,0,0:0:0:0:
320,192,60735,1,0,0:0:0:0:
448,192,60735,128,0,60769:0:0:0:0:
448,192,60871,128,0,60905:0:0:0:0:
448,192,61008,128,0,61042:0:0:0:0:
192,192,61280,128,0,61553:0:0:0:0:
320,192,61280,128,0,61553:0:0:0:0:
448,192,61280,128,0,61553:0:0:0:0:
64,192,61280,128,0,61826:0:0:0:0:
192,192,61826,128,0,61894:0:0:0:0:
320,192,61826,128,0,61894:0:0:0:0:
64,192,62371,1,0,0:0:0:0:
448,192,62371,1,0,0:0:0:0:
192,192,62371,128,0,62440:0:0:0:0:
320,192,62371,128,0,62440:0:0:0:0:
64,192,63462,1,0,0:0:0:0:
448,192,63462,1,0,0:0:0:0:
64,192,64553,1,0,0:0:0:0:
448,192,64553,1,0,0:0:0:0:
64,192,65644,1,0,0:0:0:0:
448,192,65644,1,0,0:0:0:0:
64,192,65917,1,0,0:0:0:0:
448,192,65917,1,0,0:0:0:0:
448,192,66190,1,0,0:0:0:0:
64,192,66190,1,0,0:0:0:0:
64,192,66462,1,0,0:0:0:0:
448,192,66462,1,0,0:0:0:0:
64,192,66735,1,0,0:0:0:0:
448,192,66735,1,0,0:0:0:0:
448,192,67008,1,0,0:0:0:0:
64,192,67008,1,0,0:0:0:0:
64,192,67280,1,0,0:0:0:0:
448,192,67280,1,0,0:0:0:0:
64,192,67553,1,0,0:0:0:0:
448,192,67553,1,0,0:0:0:0:
64,192,67826,1,0,0:0:0:0:
448,192,67826,1,0,0:0:0:0:
320,192,67962,1,0,0:0:0:0:
192,192,67962,1,0,0:0:0:0:
64,192,68099,1,0,0:0:0:0:
448,192,68099,1,0,0:0:0:0:
320,192,68235,1,0,0:0:0:0:
192,192,68235,1,0,0:0:0:0:
64,192,68371,1,0,0:0:0:0:
448,192,68371,1,0,0:0:0:0:
192,192,68508,1,0,0:0:0:0:
320,192,68508,1,0,0:0:0:0:
448,192,68644,1,0,0:0:0:0:
64,192,68644,1,0,0:0:0:0:
320,192,68780,1,0,0:0:0:0:
192,192,68780,1,0,0:0:0:0:
64,192,68917,1,0,0:0:0:0:
448,192,68917,1,0,0:0:0:0:
448,192,69053,1,0,0:0:0:0:
64,192,69053,1,0,0:0:0:0:
64,192,69190,1,0,0:0:0:0:
448,192,69190,1,0,0:0:0:0:
448,192,69326,1,0,0:0:0:0:
64,192,69326,1,0,0:0:0:0:
64,192,69462,5,0,0:0:0:0:
192,192,69462,1,0,0:0:0:0:
320,192,69462,1,0,0:0:0:0:
448,192,69462,1,0,0:0:0:0:
64,192,70008,128,0,70280:0:0:0:0:
448,192,70008,128,0,70553:0:0:0:0:
192,192,70008,128,0,70280:0:0:0:0:
320,192,70008,128,0,70280:0:0:0:0:
320,192,70553,1,0,0:0:0:0:
192,192,70553,1,0,0:0:0:0:
64,192,70553,1,0,0:0:0:0:
64,192,70826,128,0,71099:0:0:0:0:
448,192,70826,128,0,71099:0:0:0:0:
192,192,70826,128,0,71371:0:0:0:0:
320,192,70826,128,0,71099:0:0:0:0:
448,192,71371,1,0,0:0:0:0:
64,192,71371,1,0,0:0:0:0:
320,192,71508,1,0,0:0:0:0:
192,192,71508,1,0,0:0:0:0:
448,192,71508,1,0,0:0:0:0:
192,192,71644,1,0,0:0:0:0:
320,192,71644,1,0,0:0:0:0:
64,192,71644,1,0,0:0:0:0:
448,192,71780,1,0,0:0:0:0:
64,192,71780,1,0,0:0:0:0:
192,192,71917,1,0,0:0:0:0:
448,192,71917,1,0,0:0:0:0:
320,192,72053,1,0,0:0:0:0:
64,192,72053,1,0,0:0:0:0:
64,192,72190,128,0,72326:0:0:0:0:
192,192,72190,128,0,72326:0:0:0:0:
320,192,72190,128,0,72326:0:0:0:0:
448,192,72190,128,0,72326:0:0:0:0:
192,192,72462,1,0,0:0:0:0:
320,192,72462,1,0,0:0:0:0:
64,192,72599,1,0,0:0:0:0:
192,192,72599,1,0,0:0:0:0:
320,192,72735,1,0,0:0:0:0:
64,192,72735,1,0,0:0:0:0:
448,192,72735,1,0,0:0:0:0:
64,192,73008,128,0,73144:0:0:0:0:
192,192,73008,128,0,73144:0:0:0:0:
320,192,73008,128,0,73144:0:0:0:0:
448,192,73008,128,0,73144:0:0:0:0:
320,192,73280,1,0,0:0:0:0:
448,192,73280,1,0,0:0:0:0:
320,192,73417,1,0,0:0:0:0:
64,192,73417,1,0,0:0:0:0:
192,192,73553,1,0,0:0:0:0:
64,192,73553,1,0,0:0:0:0:
448,192,73553,1,0,0:0:0:0:
192,192,73690,1,0,0:0:0:0:
320,192,73690,1,0,0:0:0:0:
448,192,73826,1,0,0:0:0:0:
64,192,73826,1,0,0:0:0:0:
320,192,73826,1,0,0:0:0:0:
64,192,73962,1,0,0:0:0:0:
192,192,73962,1,0,0:0:0:0:
320,192,74030,1,0,0:0:0:0:
448,192,74030,1,0,0:0:0:0:
192,192,74099,1,0,0:0:0:0:
64,192,74099,1,0,0:0:0:0:
448,192,74235,1,0,0:0:0:0:
320,192,74235,1,0,0:0:0:0:
192,192,74371,128,0,74644:0:0:0:0:
320,192,74371,128,0,74644:0:0:0:0:
448,192,74371,128,0,74644:0:0:0:0:
64,192,74371,128,0,74917:0:0:0:0:
192,192,74917,1,0,0:0:0:0:
320,192,74917,1,0,0:0:0:0:
448,192,74917,1,0,0:0:0:0:
64,192,75190,1,0,0:0:0:0:
192,192,75224,1,0,0:0:0:0:
320,192,75258,1,0,0:0:0:0:
448,192,75292,1,0,0:0:0:0:
64,192,75326,1,0,0:0:0:0:
192,192,75360,1,0,0:0:0:0:
320,192,75394,1,0,0:0:0:0:
448,192,75428,1,0,0:0:0:0:
64,192,75462,1,0,0:0:0:0:
192,192,75496,1,0,0:0:0:0:
320,192,75530,1,0,0:0:0:0:
448,192,75565,1,0,0:0:0:0:
64,192,75599,1,0,0:0:0:0:
192,192,75633,1,0,0:0:0:0:
320,192,75667,1,0,0:0:0:0:
448,192,75701,1,0,0:0:0:0:
64,192,75735,128,0,75940:0:0:0:0:
192,192,75735,128,0,75940:0:0:0:0:
64,192,76008,128,0,76280:0:0:0:0:
192,192,76008,128,0,76280:0:0:0:0:
448,192,76008,128,0,76280:0:0:0:0:
320,192,76008,128,0,76553:0:0:0:0:
64,192,76553,1,0,0:0:0:0:
448,192,76553,1,0,0:0:0:0:
192,192,76621,1,0,0:0:0:0:
320,192,76690,1,0,0:0:0:0:
448,192,76690,1,0,0:0:0:0:
64,192,76826,1,0,0:0:0:0:
192,192,76826,1,0,0:0:0:0:
320,192,76962,1,0,0:0:0:0:
192,192,76962,1,0,0:0:0:0:
448,192,76962,1,0,0:0:0:0:
64,192,77030,1,0,0:0:0:0:
320,192,77099,1,0,0:0:0:0:
448,192,77099,1,0,0:0:0:0:
192,192,77099,1,0,0:0:0:0:
320,192,77235,1,0,0:0:0:0:
64,192,77235,1,0,0:0:0:0:
192,192,77371,128,0,77508:0:0:0:0:
320,192,77508,1,0,0:0:0:0:
448,192,77508,1,0,0:0:0:0:
64,192,77508,1,0,0:0:0:0:
192,192,77644,1,0,0:0:0:0:
448,192,77644,1,0,0:0:0:0:
192,192,77780,1,0,0:0:0:0:
320,192,77780,1,0,0:0:0:0:
448,192,77917,128,0,77985:0:0:0:0:
64,192,77917,1,0,0:0:0:0:
192,192,77917,1,0,0:0:0:0:
448,192,78053,128,0,78121:0:0:0:0:
320,192,78053,1,0,0:0:0:0:
64,192,78053,1,0,0:0:0:0:
448,192,78190,128,0,78258:0:0:0:0:
320,192,78190,1,0,0:0:0:0:
192,192,78190,1,0,0:0:0:0:
448,192,78326,128,0,78394:0:0:0:0:
64,192,78326,1,0,0:0:0:0:
192,192,78326,1,0,0:0:0:0:
320,192,78394,128,0,78462:0:0:0:0:
448,192,78462,128,0,78530:0:0:0:0:
64,192,78462,1,0,0:0:0:0:
448,192,78599,128,0,78667:0:0:0:0:
320,192,78599,1,0,0:0:0:0:
192,192,78599,1,0,0:0:0:0:
448,192,78735,128,0,79008:0:0:0:0:
320,192,78735,128,0,79008:0:0:0:0:
192,192,78735,128,0,79008:0:0:0:0:
64,192,78735,128,0,79280:0:0:0:0:
192,192,79280,1,0,0:0:0:0:
320,192,79280,1,0,0:0:0:0:
448,192,79280,1,0,0:0:0:0:
64,192,79553,128,0,79826:0:0:0:0:
192,192,79553,128,0,79826:0:0:0:0:
320,192,79553,128,0,79826:0:0:0:0:
448,192,79553,128,0,80099:0:0:0:0:
192,192,80099,1,0,0:0:0:0:
64,192,80099,1,0,0:0:0:0:
64,192,80235,1,0,0:0:0:0:
192,192,80235,1,0,0:0:0:0:
320,192,80235,1,0,0:0:0:0:
64,192,80371,1,0,0:0:0:0:
192,192,80371,1,0,0:0:0:0:
448,192,80371,1,0,0:0:0:0:
64,192,80508,1,0,0:0:0:0:
192,192,80508,1,0,0:0:0:0:
64,192,80644,1,0,0:0:0:0:
192,192,80644,1,0,0:0:0:0:
64,192,80780,1,0,0:0:0:0:
192,192,80780,1,0,0:0:0:0:
64,192,80917,128,0,81053:0:0:0:0:
192,192,80917,128,0,81053:0:0:0:0:
320,192,80917,128,0,81053:0:0:0:0:
448,192,80917,128,0,81053:0:0:0:0:
192,192,81190,1,0,0:0:0:0:
64,192,81190,1,0,0:0:0:0:
64,192,81326,1,0,0:0:0:0:
192,192,81326,1,0,0:0:0:0:
64,192,81462,1,0,0:0:0:0:
192,192,81462,1,0,0:0:0:0:
448,192,81462,1,0,0:0:0:0:
64,192,81735,128,0,81871:0:0:0:0:
192,192,81735,128,0,81871:0:0:0:0:
320,192,81735,128,0,81871:0:0:0:0:
448,192,81735,128,0,81871:0:0:0:0:
320,192,82008,1,0,0:0:0:0:
448,192,82008,1,0,0:0:0:0:
320,192,82144,1,0,0:0:0:0:
448,192,82144,1,0,0:0:0:0:
320,192,82280,1,0,0:0:0:0:
448,192,82280,1,0,0:0:0:0:
192,192,82280,1,0,0:0:0:0:
320,192,82417,1,0,0:0:0:0:
448,192,82417,1,0,0:0:0:0:
320,192,82553,1,0,0:0:0:0:
448,192,82553,1,0,0:0:0:0:
64,192,82553,1,0,0:0:0:0:
320,192,82690,1,0,0:0:0:0:
448,192,82690,1,0,0:0:0:0:
192,192,82758,1,0,0:0:0:0:
64,192,82758,1,0,0:0:0:0:
320,192,82826,1,0,0:0:0:0:
448,192,82826,1,0,0:0:0:0:
320,192,82962,1,0,0:0:0:0:
448,192,82962,1,0,0:0:0:0:
448,192,83099,128,0,83371:0:0:0:0:
320,192,83099,128,0,83371:0:0:0:0:
64,192,83099,128,0,83371:0:0:0:0:
192,192,83099,128,0,83644:0:0:0:0:
64,192,83644,1,0,0:0:0:0:
320,192,83644,1,0,0:0:0:0:
448,192,83644,1,0,0:0:0:0:
64,192,83917,1,0,0:0:0:0:
192,192,83951,1,0,0:0:0:0:
448,192,83985,1,0,0:0:0:0:
320,192,84019,1,0,0:0:0:0:
64,192,84053,1,0,0:0:0:0:
192,192,84087,1,0,0:0:0:0:
448,192,84121,1,0,0:0:0:0:
320,192,84155,1,0,0:0:0:0:
64,192,84190,1,0,0:0:0:0:
192,192,84224,1,0,0:0:0:0:
448,192,84258,1,0,0:0:0:0:
320,192,84292,1,0,0:0:0:0:
64,192,84326,1,0,0:0:0:0:
192,192,84360,1,0,0:0:0:0:
448,192,84394,1,0,0:0:0:0:
320,192,84428,1,0,0:0:0:0:
192,192,84462,128,0,84667:0:0:0:0:
64,192,84462,128,0,84667:0:0:0:0:
64,192,84735,128,0,85008:0:0:0:0:
192,192,84735,128,0,85008:0:0:0:0:
448,192,84735,128,0,85008:0:0:0:0:
320,192,84735,128,0,85280:0:0:0:0:
192,192,85280,1,0,0:0:0:0:
64,192,85280,1,0,0:0:0:0:
448,192,85280,1,0,0:0:0:0:
192,192,85417,1,0,0:0:0:0:
320,192,85417,1,0,0:0:0:0:
448,192,85417,1,0,0:0:0:0:
64,192,85553,1,0,0:0:0:0:
320,192,85553,1,0,0:0:0:0:
192,192,85690,1,0,0:0:0:0:
448,192,85690,1,0,0:0:0:0:
64,192,85690,1,0,0:0:0:0:
192,192,85826,1,0,0:0:0:0:
320,192,85826,1,0,0:0:0:0:
448,192,85826,1,0,0:0:0:0:
64,192,85962,1,0,0:0:0:0:
320,192,85962,1,0,0:0:0:0:
192,192,86099,1,0,0:0:0:0:
448,192,86099,1,0,0:0:0:0:
64,192,86099,128,0,86235:0:0:0:0:
192,192,86235,1,0,0:0:0:0:
448,192,86235,1,0,0:0:0:0:
320,192,86235,1,0,0:0:0:0:
64,192,86371,1,0,0:0:0:0:
320,192,86371,1,0,0:0:0:0:
192,192,86508,1,0,0:0:0:0:
448,192,86508,1,0,0:0:0:0:
320,192,86644,1,0,0:0:0:0:
64,192,86644,1,0,0:0:0:0:
448,192,86644,1,0,0:0:0:0:
192,192,86780,1,0,0:0:0:0:
320,192,86780,1,0,0:0:0:0:
64,192,86780,1,0,0:0:0:0:
448,192,86917,1,0,0:0:0:0:
192,192,86917,1,0,0:0:0:0:
64,192,86917,1,0,0:0:0:0:
320,192,87053,1,0,0:0:0:0:
192,192,87121,1,0,0:0:0:0:
64,192,87190,1,0,0:0:0:0:
320,192,87190,1,0,0:0:0:0:
448,192,87190,1,0,0:0:0:0:
192,192,87326,1,0,0:0:0:0:
448,192,87326,1,0,0:0:0:0:
64,192,87462,128,0,87735:0:0:0:0:
320,192,87462,128,0,87735:0:0:0:0:
448,192,87462,128,0,87735:0:0:0:0:
192,192,87462,128,0,88008:0:0:0:0:
64,192,88008,1,0,0:0:0:0:
320,192,88008,1,0,0:0:0:0:
448,192,88008,1,0,0:0:0:0:
192,192,88280,128,0,88553:0:0:0:0:
320,192,88280,128,0,88553:0:0:0:0:
448,192,88280,128,0,88553:0:0:0:0:
64,192,88280,128,0,88826:0:0:0:0:
448,192,88826,1,0,0:0:0:0:
320,192,88826,1,0,0:0:0:0:
192,192,88826,1,0,0:0:0:0:
64,192,88962,1,0,0:0:0:0:
192,192,88962,1,0,0:0:0:0:
320,192,88962,1,0,0:0:0:0:
320,192,89099,1,0,0:0:0:0:
448,192,89099,1,0,0:0:0:0:
64,192,89099,1,0,0:0:0:0:
192,192,89235,1,0,0:0:0:0:
448,192,89235,1,0,0:0:0:0:
320,192,89371,1,0,0:0:0:0:
64,192,89371,1,0,0:0:0:0:
64,192,89508,1,0,0:0:0:0:
448,192,89508,1,0,0:0:0:0:
64,192,89644,128,0,89780:0:0:0:0:
192,192,89644,128,0,89780:0:0:0:0:
320,192,89644,128,0,89780:0:0:0:0:
448,192,89644,128,0,89780:0:0:0:0:
192,192,89917,1,0,0:0:0:0:
320,192,89917,1,0,0:0:0:0:
192,192,90053,1,0,0:0:0:0:
64,192,90053,1,0,0:0:0:0:
320,192,90190,1,0,0:0:0:0:
448,192,90190,1,0,0:0:0:0:
64,192,90190,1,0,0:0:0:0:
192,192,90462,128,0,90599:0:0:0:0:
64,192,90462,128,0,90599:0:0:0:0:
320,192,90462,128,0,90599:0:0:0:0:
448,192,90462,128,0,90599:0:0:0:0:
192,192,90735,1,0,0:0:0:0:
448,192,90735,1,0,0:0:0:0:
320,192,90871,1,0,0:0:0:0:
64,192,90871,1,0,0:0:0:0:
192,192,91008,1,0,0:0:0:0:
448,192,91008,1,0,0:0:0:0:
320,192,91008,1,0,0:0:0:0:
64,192,91144,1,0,0:0:0:0:
192,192,91144,1,0,0:0:0:0:
448,192,91144,1,0,0:0:0:0:
64,192,91280,1,0,0:0:0:0:
320,192,91280,1,0,0:0:0:0:
448,192,91280,1,0,0:0:0:0:
192,192,91417,1,0,0:0:0:0:
64,192,91417,1,0,0:0:0:0:
320,192,91485,1,0,0:0:0:0:
448,192,91485,1,0,0:0:0:0:
192,192,91553,1,0,0:0:0:0:
64,192,91553,1,0,0:0:0:0:
320,192,91690,1,0,0:0:0:0:
448,192,91690,1,0,0:0:0:0:
64,192,91826,128,0,92099:0:0:0:0:
192,192,91826,128,0,92099:0:0:0:0:
320,192,91826,128,0,92099:0:0:0:0:
448,192,91826,128,0,92371:0:0:0:0:
64,192,92371,1,0,0:0:0:0:
192,192,92371,1,0,0:0:0:0:
320,192,92371,1,0,0:0:0:0:
448,192,92644,1,0,0:0:0:0:
320,192,92678,1,0,0:0:0:0:
192,192,92712,1,0,0:0:0:0:
64,192,92746,1,0,0:0:0:0:
448,192,92780,1,0,0:0:0:0:
320,192,92815,1,0,0:0:0:0:
192,192,92849,1,0,0:0:0:0:
64,192,92883,1,0,0:0:0:0:
448,192,92917,1,0,0:0:0:0:
320,192,92951,1,0,0:0:0:0:
192,192,92985,1,0,0:0:0:0:
64,192,93019,1,0,0:0:0:0:
448,192,93053,1,0,0:0:0:0:
320,192,93087,1,0,0:0:0:0:
192,192,93121,1,0,0:0:0:0:
64,192,93155,1,0,0:0:0:0:
320,192,93190,128,0,93394:0:0:0:0:
448,192,93190,128,0,93394:0:0:0:0:
448,192,93462,128,0,93735:0:0:0:0:
192,192,93462,128,0,93735:0:0:0:0:
64,192,93462,128,0,93735:0:0:0:0:
320,192,93462,128,0,93735:0:0:0:0:
64,192,94008,128,0,94144:0:0:0:0:
192,192,94144,1,0,0:0:0:0:
320,192,94144,1,0,0:0:0:0:
192,192,94280,1,0,0:0:0:0:
320,192,94280,1,0,0:0:0:0:
64,192,94417,128,0,94553:0:0:0:0:
192,192,94417,1,0,0:0:0:0:
320,192,94417,1,0,0:0:0:0:
448,192,94417,1,0,0:0:0:0:
192,192,94553,1,0,0:0:0:0:
320,192,94553,1,0,0:0:0:0:
448,192,94553,1,0,0:0:0:0:
192,192,94690,1,0,0:0:0:0:
320,192,94690,1,0,0:0:0:0:
448,192,94826,1,0,0:0:0:0:
320,192,94894,1,0,0:0:0:0:
448,192,94962,1,0,0:0:0:0:
192,192,94962,1,0,0:0:0:0:
64,192,94962,1,0,0:0:0:0:
320,192,95099,1,0,0:0:0:0:
64,192,95099,1,0,0:0:0:0:
192,192,95235,1,0,0:0:0:0:
448,192,95235,1,0,0:0:0:0:
64,192,95371,128,0,95440:0:0:0:0:
320,192,95371,1,0,0:0:0:0:
448,192,95371,1,0,0:0:0:0:
64,192,95508,128,0,95576:0:0:0:0:
192,192,95508,1,0,0:0:0:0:
448,192,95508,1,0,0:0:0:0:
64,192,95644,128,0,95712:0:0:0:0:
192,192,95644,1,0,0:0:0:0:
320,192,95644,1,0,0:0:0:0:
64,192,95780,128,0,95849:0:0:0:0:
320,192,95780,1,0,0:0:0:0:
448,192,95780,1,0,0:0:0:0:
192,192,95849,128,0,95917:0:0:0:0:
64,192,95917,128,0,95985:0:0:0:0:
448,192,95917,1,0,0:0:0:0:
64,192,96053,128,0,96121:0:0:0:0:
192,192,96053,1,0,0:0:0:0:
320,192,96053,1,0,0:0:0:0:
64,192,96190,128,0,96462:0:0:0:0:
192,192,96190,128,0,96462:0:0:0:0:
448,192,96190,128,0,96462:0:0:0:0:
320,192,96190,128,0,96735:0:0:0:0:
192,192,96735,1,0,0:0:0:0:
64,192,96735,1,0,0:0:0:0:
448,192,96735,1,0,0:0:0:0:
320,192,97008,128,0,97280:0:0:0:0:
192,192,97008,128,0,97553:0:0:0:0:
64,192,97008,128,0,97280:0:0:0:0:
448,192,97008,128,0,97280:0:0:0:0:
320,192,97553,1,0,0:0:0:0:
64,192,97553,1,0,0:0:0:0:
192,192,97690,1,0,0:0:0:0:
448,192,97690,1,0,0:0:0:0:
320,192,97690,1,0,0:0:0:0:
64,192,97826,1,0,0:0:0:0:
192,192,97826,1,0,0:0:0:0:
448,192,97826,1,0,0:0:0:0:
320,192,97962,1,0,0:0:0:0:
64,192,97962,1,0,0:0:0:0:
192,192,98099,1,0,0:0:0:0:
448,192,98099,1,0,0:0:0:0:
320,192,98235,1,0,0:0:0:0:
448,192,98235,1,0,0:0:0:0:
320,192,98371,128,0,98508:0:0:0:0:
448,192,98371,128,0,98508:0:0:0:0:
192,192,98371,128,0,98508:0:0:0:0:
64,192,98371,128,0,98508:0:0:0:0:
192,192,98644,1,0,0:0:0:0:
64,192,98644,1,0,0:0:0:0:
64,192,98780,1,0,0:0:0:0:
448,192,98780,1,0,0:0:0:0:
192,192,98917,1,0,0:0:0:0:
320,192,98917,1,0,0:0:0:0:
448,192,98917,1,0,0:0:0:0:
64,192,99190,128,0,99326:0:0:0:0:
448,192,99190,128,0,99326:0:0:0:0:
320,192,99190,128,0,99326:0:0:0:0:
192,192,99190,128,0,99326:0:0:0:0:
64,192,99462,1,0,0:0:0:0:
320,192,99462,1,0,0:0:0:0:
320,192,99599,1,0,0:0:0:0:
192,192,99599,1,0,0:0:0:0:
448,192,99735,1,0,0:0:0:0:
64,192,99735,1,0,0:0:0:0:
192,192,99735,1,0,0:0:0:0:
448,192,99871,1,0,0:0:0:0:
320,192,99871,1,0,0:0:0:0:
64,192,99871,1,0,0:0:0:0:
192,192,100008,1,0,0:0:0:0:
320,192,100008,1,0,0:0:0:0:
448,192,100008,1,0,0:0:0:0:
64,192,100144,1,0,0:0:0:0:
192,192,100144,1,0,0:0:0:0:
448,192,100212,1,0,0:0:0:0:
320,192,100212,1,0,0:0:0:0:
64,192,100280,1,0,0:0:0:0:
192,192,100280,1,0,0:0:0:0:
320,192,100417,1,0,0:0:0:0:
448,192,100417,1,0,0:0:0:0:
64,192,100553,128,0,101099:0:0:0:0:
192,192,100553,128,0,100826:0:0:0:0:
320,192,100553,128,0,100826:0:0:0:0:
448,192,100553,128,0,100826:0:0:0:0:
192,192,101099,1,0,0:0:0:0:
320,192,101099,1,0,0:0:0:0:
448,192,101099,1,0,0:0:0:0:
448,192,101371,1,0,0:0:0:0:
320,192,101405,1,0,0:0:0:0:
64,192,101440,1,0,0:0:0:0:
192,192,101474,1,0,0:0:0:0:
448,192,101508,1,0,0:0:0:0:
320,192,101542,1,0,0:0:0:0:
64,192,101576,1,0,0:0:0:0:
192,192,101610,1,0,0:0:0:0:
448,192,101644,1,0,0:0:0:0:
320,192,101678,1,0,0:0:0:0:
64,192,101712,1,0,0:0:0:0:
192,192,101746,1,0,0:0:0:0:
448,192,101780,1,0,0:0:0:0:
320,192,101815,1,0,0:0:0:0:
64,192,101849,1,0,0:0:0:0:
192,192,101883,1,0,0:0:0:0:
320,192,101917,128,0,102121:0:0:0:0:
448,192,101917,128,0,102121:0:0:0:0:
320,192,102190,128,0,102462:0:0:0:0:
192,192,102190,128,0,102462:0:0:0:0:
64,192,102190,128,0,102462:0:0:0:0:
448,192,102190,128,0,102735:0:0:0:0:
320,192,102735,1,0,0:0:0:0:
192,192,102735,1,0,0:0:0:0:
64,192,102735,1,0,0:0:0:0:
64,192,102871,128,0,102940:0:0:0:0:
64,192,103008,128,0,103076:0:0:0:0:
64,192,103144,128,0,103212:0:0:0:0:
192,192,103280,128,0,103349:0:0:0:0:
192,192,103417,128,0,103485:0:0:0:0:
192,192,103553,128,0,103621:0:0:0:0:
320,192,103690,1,0,0:0:0:0:
448,192,103690,1,0,0:0:0:0:
64,192,103690,1,0,0:0:0:0:
192,192,103826,1,0,0:0:0:0:
64,192,103826,1,0,0:0:0:0:
448,192,103826,1,0,0:0:0:0:
320,192,103962,128,0,104030:0:0:0:0:
320,192,104099,128,0,104167:0:0:0:0:
64,192,104099,1,0,0:0:0:0:
320,192,104235,128,0,104303:0:0:0:0:
448,192,104371,128,0,104440:0:0:0:0:
192,192,104371,1,0,0:0:0:0:
64,192,104371,1,0,0:0:0:0:
448,192,104508,128,0,104576:0:0:0:0:
192,192,104508,1,0,0:0:0:0:
64,192,104508,1,0,0:0:0:0:
448,192,104644,128,0,104712:0:0:0:0:
64,192,104644,1,0,0:0:0:0:
192,192,104644,1,0,0:0:0:0:
448,192,104780,128,0,104849:0:0:0:0:
192,192,104780,1,0,0:0:0:0:
64,192,104780,1,0,0:0:0:0:
448,192,104917,128,0,105190:0:0:0:0:
192,192,104917,128,0,105190:0:0:0:0:
64,192,104917,128,0,105190:0:0:0:0:
320,192,104917,128,0,105462:0:0:0:0:
64,192,105462,1,0,0:0:0:0:
448,192,105462,1,0,0:0:0:0:
192,192,105599,1,0,0:0:0:0:
320,192,105599,1,0,0:0:0:0:
448,192,105735,1,0,0:0:0:0:
192,192,105735,1,0,0:0:0:0:
64,192,105735,1,0,0:0:0:0:
320,192,105871,1,0,0:0:0:0:
448,192,105871,1,0,0:0:0:0:
64,192,106008,1,0,0:0:0:0:
192,192,106008,1,0,0:0:0:0:
320,192,106144,1,0,0:0:0:0:
192,192,106144,1,0,0:0:0:0:
448,192,106280,1,0,0:0:0:0:
192,192,106280,1,0,0:0:0:0:
64,192,106417,1,0,0:0:0:0:
320,192,106417,1,0,0:0:0:0:
192,192,106485,1,0,0:0:0:0:
448,192,106485,1,0,0:0:0:0:
64,192,106553,1,0,0:0:0:0:
320,192,106553,1,0,0:0:0:0:
64,192,106690,1,0,0:0:0:0:
192,192,106690,1,0,0:0:0:0:
320,192,106758,1,0,0:0:0:0:
448,192,106758,1,0,0:0:0:0:
64,192,106826,1,0,0:0:0:0:
192,192,106826,1,0,0:0:0:0:
448,192,106826,1,0,0:0:0:0:
320,192,106962,1,0,0:0:0:0:
192,192,106962,1,0,0:0:0:0:
64,192,107099,1,0,0:0:0:0:
448,192,107099,1,0,0:0:0:0:
192,192,107167,1,0,0:0:0:0:
320,192,107167,1,0,0:0:0:0:
64,192,107235,1,0,0:0:0:0:
448,192,107235,1,0,0:0:0:0:
192,192,107371,1,0,0:0:0:0:
320,192,107371,1,0,0:0:0:0:
64,192,107371,1,0,0:0:0:0:
448,192,107508,1,0,0:0:0:0:
320,192,107508,1,0,0:0:0:0:
192,192,107508,1,0,0:0:0:0:
64,192,107576,1,0,0:0:0:0:
192,192,107576,1,0,0:0:0:0:
320,192,107644,1,0,0:0:0:0:
448,192,107644,1,0,0:0:0:0:
64,192,107780,1,0,0:0:0:0:
192,192,107780,1,0,0:0:0:0:
320,192,107917,1,0,0:0:0:0:
448,192,107917,1,0,0:0:0:0:
64,192,107917,1,0,0:0:0:0:
192,192,107985,1,0,0:0:0:0:
448,192,107985,1,0,0:0:0:0:
64,192,108053,1,0,0:0:0:0:
320,192,108053,1,0,0:0:0:0:
192,192,108190,1,0,0:0:0:0:
448,192,108190,1,0,0:0:0:0:
320,192,108190,1,0,0:0:0:0:
64,192,108326,1,0,0:0:0:0:
192,192,108326,1,0,0:0:0:0:
64,192,108462,1,0,0:0:0:0:
448,192,108462,1,0,0:0:0:0:
192,192,108599,1,0,0:0:0:0:
320,192,108599,1,0,0:0:0:0:
64,192,108667,1,0,0:0:0:0:
448,192,108667,1,0,0:0:0:0:
192,192,108735,1,0,0:0:0:0:
320,192,108735,1,0,0:0:0:0:
448,192,108871,1,0,0:0:0:0:
192,192,108871,1,0,0:0:0:0:
64,192,108940,1,0,0:0:0:0:
320,192,108940,1,0,0:0:0:0:
448,192,109008,1,0,0:0:0:0:
192,192,109008,128,0,109076:0:0:0:0:
64,192,109008,128,0,109076:0:0:0:0:
64,192,109144,128,0,109212:0:0:0:0:
192,192,109144,128,0,109212:0:0:0:0:
64,192,109280,128,0,109553:0:0:0:0:
320,192,109280,128,0,109553:0:0:0:0:
192,192,109280,128,0,109826:0:0:0:0:
448,192,109280,128,0,109553:0:0:0:0:
448,192,109826,1,0,0:0:0:0:
320,192,109826,1,0,0:0:0:0:
64,192,109962,1,0,0:0:0:0:
192,192,109962,1,0,0:0:0:0:
320,192,110099,1,0,0:0:0:0:
64,192,110099,1,0,0:0:0:0:
448,192,110167,1,0,0:0:0:0:
192,192,110167,1,0,0:0:0:0:
320,192,110235,1,0,0:0:0:0:
64,192,110235,1,0,0:0:0:0:
192,192,110371,1,0,0:0:0:0:
448,192,110371,1,0,0:0:0:0:
320,192,110371,1,0,0:0:0:0:
64,192,110644,1,0,0:0:0:0:
320,192,110644,1,0,0:0:0:0:
448,192,110780,1,0,0:0:0:0:
192,192,110780,1,0,0:0:0:0:
64,192,110849,1,0,0:0:0:0:
320,192,110849,1,0,0:0:0:0:
448,192,110917,1,0,0:0:0:0:
192,192,110917,1,0,0:0:0:0:
192,192,111053,1,0,0:0:0:0:
320,192,111053,1,0,0:0:0:0:
64,192,111190,1,0,0:0:0:0:
448,192,111190,1,0,0:0:0:0:
192,192,111258,1,0,0:0:0:0:
320,192,111258,1,0,0:0:0:0:
64,192,111326,1,0,0:0:0:0:
448,192,111326,1,0,0:0:0:0:
448,192,111462,1,0,0:0:0:0:
320,192,111462,1,0,0:0:0:0:
192,192,111462,1,0,0:0:0:0:
64,192,111530,1,0,0:0:0:0:
192,192,111530,1,0,0:0:0:0:
320,192,111599,1,0,0:0:0:0:
448,192,111599,1,0,0:0:0:0:
64,192,111735,1,0,0:0:0:0:
448,192,111735,1,0,0:0:0:0:
192,192,111871,1,0,0:0:0:0:
320,192,111871,1,0,0:0:0:0:
64,192,111940,1,0,0:0:0:0:
448,192,111940,1,0,0:0:0:0:
192,192,112008,1,0,0:0:0:0:
320,192,112008,1,0,0:0:0:0:
192,192,112144,1,0,0:0:0:0:
448,192,112144,1,0,0:0:0:0:
64,192,112280,1,0,0:0:0:0:
192,192,112280,1,0,0:0:0:0:
320,192,112349,1,0,0:0:0:0:
448,192,112349,1,0,0:0:0:0:
64,192,112417,1,0,0:0:0:0:
192,192,112417,1,0,0:0:0:0:
64,192,112553,128,0,112621:0:0:0:0:
320,192,112553,1,0,0:0:0:0:
448,192,112553,1,0,0:0:0:0:
64,192,112690,128,0,112758:0:0:0:0:
192,192,112826,128,0,112894:0:0:0:0:
192,192,112962,128,0,113030:0:0:0:0:
320,192,113099,128,0,113167:0:0:0:0:
320,192,113235,128,0,113303:0:0:0:0:
448,192,113371,128,0,113440:0:0:0:0:
448,192,113508,128,0,113576:0:0:0:0:
192,192,113644,128,0,113917:0:0:0:0:
320,192,113644,128,0,113917:0:0:0:0:
448,192,113644,128,0,113917:0:0:0:0:
64,192,113644,128,0,114190:0:0:0:0:
192,192,114190,1,0,0:0:0:0:
320,192,114190,1,0,0:0:0:0:
448,192,114326,1,0,0:0:0:0:
64,192,114326,1,0,0:0:0:0:
448,192,114462,1,0,0:0:0:0:
192,192,114462,1,0,0:0:0:0:
320,192,114462,1,0,0:0:0:0:
192,192,114599,1,0,0:0:0:0:
64,192,114599,1,0,0:0:0:0:
64,192,114735,1,0,0:0:0:0:
320,192,114735,1,0,0:0:0:0:
448,192,114735,1,0,0:0:0:0:
192,192,114871,1,0,0:0:0:0:
448,192,114871,1,0,0:0:0:0:
320,192,115008,1,0,0:0:0:0:
192,192,115008,1,0,0:0:0:0:
64,192,115144,1,0,0:0:0:0:
448,192,115144,1,0,0:0:0:0:
192,192,115212,1,0,0:0:0:0:
320,192,115212,1,0,0:0:0:0:
64,192,115280,1,0,0:0:0:0:
448,192,115280,1,0,0:0:0:0:
192,192,115417,1,0,0:0:0:0:
64,192,115417,1,0,0:0:0:0:
320,192,115485,1,0,0:0:0:0:
448,192,115485,1,0,0:0:0:0:
192,192,115553,1,0,0:0:0:0:
448,192,115553,1,0,0:0:0:0:
64,192,115553,1,0,0:0:0:0:
320,192,115690,1,0,0:0:0:0:
192,192,115690,1,0,0:0:0:0:
64,192,115826,1,0,0:0:0:0:
320,192,115826,1,0,0:0:0:0:
448,192,115894,1,0,0:0:0:0:
192,192,115894,1,0,0:0:0:0:
64,192,115962,1,0,0:0:0:0:
320,192,115962,1,0,0:0:0:0:
448,192,116099,1,0,0:0:0:0:
192,192,116099,1,0,0:0:0:0:
320,192,116235,1,0,0:0:0:0:
64,192,116235,1,0,0:0:0:0:
192,192,116235,1,0,0:0:0:0:
448,192,116303,1,0,0:0:0:0:
64,192,116303,1,0,0:0:0:0:
320,192,116371,1,0,0:0:0:0:
192,192,116371,1,0,0:0:0:0:
64,192,116508,1,0,0:0:0:0:
448,192,116508,1,0,0:0:0:0:
320,192,116644,1,0,0:0:0:0:
448,192,116644,1,0,0:0:0:0:
192,192,116644,1,0,0:0:0:0:
64,192,116712,1,0,0:0:0:0:
192,192,116712,1,0,0:0:0:0:
448,192,116780,1,0,0:0:0:0:
320,192,116780,1,0,0:0:0:0:
64,192,116917,1,0,0:0:0:0:
320,192,116917,1,0,0:0:0:0:
192,192,116917,1,0,0:0:0:0:
448,192,117053,1,0,0:0:0:0:
64,192,117053,1,0,0:0:0:0:
320,192,117190,1,0,0:0:0:0:
64,192,117190,1,0,0:0:0:0:
448,192,117326,1,0,0:0:0:0:
192,192,117326,1,0,0:0:0:0:
320,192,117394,1,0,0:0:0:0:
64,192,117394,1,0,0:0:0:0:
448,192,117462,1,0,0:0:0:0:
192,192,117462,1,0,0:0:0:0:
64,192,117599,1,0,0:0:0:0:
192,192,117599,1,0,0:0:0:0:
320,192,117667,1,0,0:0:0:0:
448,192,117667,1,0,0:0:0:0:
64,192,117735,128,0,117940:0:0:0:0:
320,192,117735,128,0,117940:0:0:0:0:
192,192,117735,128,0,117940:0:0:0:0:
448,192,117735,128,0,117940:0:0:0:0:
64,192,118008,128,0,118280:0:0:0:0:
320,192,118008,128,0,118280:0:0:0:0:
192,192,118008,128,0,118280:0:0:0:0:
448,192,118008,128,0,118553:0:0:0:0:
320,192,118553,1,0,0:0:0:0:
192,192,118553,1,0,0:0:0:0:
448,192,118690,1,0,0:0:0:0:
64,192,118690,1,0,0:0:0:0:
320,192,118826,1,0,0:0:0:0:
192,192,118826,1,0,0:0:0:0:
64,192,118894,1,0,0:0:0:0:
448,192,118894,1,0,0:0:0:0:
320,192,118962,1,0,0:0:0:0:
192,192,118962,1,0,0:0:0:0:
192,192,119099,1,0,0:0:0:0:
64,192,119099,1,0,0:0:0:0:
448,192,119099,1,0,0:0:0:0:
320,192,119371,1,0,0:0:0:0:
64,192,119371,1,0,0:0:0:0:
448,192,119508,1,0,0:0:0:0:
192,192,119508,1,0,0:0:0:0:
64,192,119576,1,0,0:0:0:0:
320,192,119576,1,0,0:0:0:0:
192,192,119644,1,0,0:0:0:0:
448,192,119644,1,0,0:0:0:0:
320,192,119780,1,0,0:0:0:0:
192,192,119780,1,0,0:0:0:0:
448,192,119917,1,0,0:0:0:0:
64,192,119917,1,0,0:0:0:0:
192,192,119985,1,0,0:0:0:0:
320,192,119985,1,0,0:0:0:0:
448,192,120053,1,0,0:0:0:0:
64,192,120053,1,0,0:0:0:0:
192,192,120190,1,0,0:0:0:0:
320,192,120190,1,0,0:0:0:0:
448,192,120190,1,0,0:0:0:0:
64,192,120258,1,0,0:0:0:0:
192,192,120258,1,0,0:0:0:0:
448,192,120326,1,0,0:0:0:0:
320,192,120326,1,0,0:0:0:0:
64,192,120462,1,0,0:0:0:0:
192,192,120462,1,0,0:0:0:0:
64,192,120599,1,0,0:0:0:0:
320,192,120599,1,0,0:0:0:0:
192,192,120667,1,0,0:0:0:0:
448,192,120667,1,0,0:0:0:0:
64,192,120735,1,0,0:0:0:0:
320,192,120735,1,0,0:0:0:0:
448,192,120871,1,0,0:0:0:0:
192,192,120871,1,0,0:0:0:0:
64,192,121008,1,0,0:0:0:0:
192,192,121008,1,0,0:0:0:0:
320,192,121076,1,0,0:0:0:0:
448,192,121076,1,0,0:0:0:0:
192,192,121144,1,0,0:0:0:0:
64,192,121144,1,0,0:0:0:0:
64,192,121280,1,0,0:0:0:0:
320,192,121280,1,0,0:0:0:0:
448,192,121280,1,0,0:0:0:0:
320,192,121553,1,0,0:0:0:0:
192,192,121553,1,0,0:0:0:0:
192,192,121690,1,0,0:0:0:0:
448,192,121690,1,0,0:0:0:0:
320,192,121758,1,0,0:0:0:0:
64,192,121758,1,0,0:0:0:0:
192,192,121826,1,0,0:0:0:0:
448,192,121826,1,0,0:0:0:0:
64,192,121962,1,0,0:0:0:0:
320,192,121962,1,0,0:0:0:0:
448,192,122030,1,0,0:0:0:0:
192,192,122030,1,0,0:0:0:0:
64,192,122099,1,0,0:0:0:0:
320,192,122099,1,0,0:0:0:0:
192,192,122235,1,0,0:0:0:0:
448,192,122235,1,0,0:0:0:0:
448,192,122371,1,0,0:0:0:0:
64,192,122371,1,0,0:0:0:0:
320,192,122371,1,0,0:0:0:0:
448,192,122917,1,0,0:0:0:0:
64,192,122917,1,0,0:0:0:0:
320,192,123053,1,0,0:0:0:0:
192,192,123053,1,0,0:0:0:0:
64,192,123190,1,0,0:0:0:0:
320,192,123190,1,0,0:0:0:0:
448,192,123190,1,0,0:0:0:0:
192,192,123326,1,0,0:0:0:0:
64,192,123326,1,0,0:0:0:0:
448,192,123462,1,0,0:0:0:0:
320,192,123462,1,0,0:0:0:0:
192,192,123462,1,0,0:0:0:0:
320,192,123599,1,0,0:0:0:0:
64,192,123599,1,0,0:0:0:0:
448,192,123871,1,0,0:0:0:0:
192,192,123871,1,0,0:0:0:0:
320,192,123940,1,0,0:0:0:0:
64,192,123940,1,0,0:0:0:0:
448,192,124008,1,0,0:0:0:0:
192,192,124008,1,0,0:0:0:0:
448,192,124144,1,0,0:0:0:0:
320,192,124144,1,0,0:0:0:0:
192,192,124212,1,0,0:0:0:0:
64,192,124212,1,0,0:0:0:0:
448,192,124280,1,0,0:0:0:0:
320,192,124280,1,0,0:0:0:0:
192,192,124417,1,0,0:0:0:0:
320,192,124417,1,0,0:0:0:0:
448,192,124553,1,0,0:0:0:0:
64,192,124553,1,0,0:0:0:0:
192,192,124553,1,0,0:0:0:0:
320,192,124621,1,0,0:0:0:0:
192,192,124621,1,0,0:0:0:0:
448,192,124690,1,0,0:0:0:0:
64,192,124690,1,0,0:0:0:0:
64,192,124962,1,0,0:0:0:0:
192,192,124962,1,0,0:0:0:0:
448,192,125030,1,0,0:0:0:0:
320,192,125030,1,0,0:0:0:0:
192,192,125099,1,0,0:0:0:0:
64,192,125099,1,0,0:0:0:0:
448,192,125235,1,0,0:0:0:0:
320,192,125235,1,0,0:0:0:0:
192,192,125371,1,0,0:0:0:0:
64,192,125371,1,0,0:0:0:0:
448,192,125371,1,0,0:0:0:0:
320,192,125440,1,0,0:0:0:0:
64,192,125440,1,0,0:0:0:0:
448,192,125508,1,0,0:0:0:0:
192,192,125508,1,0,0:0:0:0:
320,192,125644,1,0,0:0:0:0:
64,192,125644,1,0,0:0:0:0:
192,192,125644,1,0,0:0:0:0:
448,192,125780,1,0,0:0:0:0:
320,192,125780,1,0,0:0:0:0:
448,192,125917,1,0,0:0:0:0:
64,192,125917,1,0,0:0:0:0:
320,192,126053,1,0,0:0:0:0:
192,192,126053,1,0,0:0:0:0:
448,192,126121,1,0,0:0:0:0:
64,192,126121,1,0,0:0:0:0:
320,192,126190,1,0,0:0:0:0:
192,192,126190,1,0,0:0:0:0:
64,192,126326,1,0,0:0:0:0:
320,192,126326,1,0,0:0:0:0:
448,192,126394,1,0,0:0:0:0:
192,192,126394,1,0,0:0:0:0:
64,192,126462,1,0,0:0:0:0:
320,192,126462,128,0,126530:0:0:0:0:
448,192,126462,128,0,126530:0:0:0:0:
448,192,126599,128,0,126667:0:0:0:0:
320,192,126599,128,0,126667:0:0:0:0:
448,192,126735,128,0,127008:0:0:0:0:
192,192,126735,128,0,127008:0:0:0:0:
320,192,126735,128,0,127280:0:0:0:0:
64,192,126735,128,0,127008:0:0:0:0:
64,192,127280,1,0,0:0:0:0:
192,192,127280,1,0,0:0:0:0:
448,192,127417,1,0,0:0:0:0:
320,192,127417,1,0,0:0:0:0:
192,192,127553,1,0,0:0:0:0:
448,192,127553,1,0,0:0:0:0:
64,192,127621,1,0,0:0:0:0:
320,192,127621,1,0,0:0:0:0:
192,192,127690,1,0,0:0:0:0:
448,192,127690,1,0,0:0:0:0:
192,192,127826,1,0,0:0:0:0:
320,192,127826,128,0,128099:0:0:0:0:
64,192,127826,128,0,128099:0:0:0:0:
448,192,128099,1,0,0:0:0:0:
192,192,128099,1,0,0:0:0:0:
64,192,128235,1,0,0:0:0:0:
320,192,128235,1,0,0:0:0:0:
448,192,128303,1,0,0:0:0:0:
192,192,128303,1,0,0:0:0:0:
64,192,128371,1,0,0:0:0:0:
320,192,128371,1,0,0:0:0:0:
320,192,128508,1,0,0:0:0:0:
192,192,128508,1,0,0:0:0:0:
448,192,128644,1,0,0:0:0:0:
64,192,128644,1,0,0:0:0:0:
320,192,128712,1,0,0:0:0:0:
192,192,128712,1,0,0:0:0:0:
448,192,128780,1,0,0:0:0:0:
64,192,128780,1,0,0:0:0:0:
64,192,128917,1,0,0:0:0:0:
192,192,128917,1,0,0:0:0:0:
320,192,128917,1,0,0:0:0:0:
448,192,128985,1,0,0:0:0:0:
320,192,128985,1,0,0:0:0:0:
192,192,129053,1,0,0:0:0:0:
64,192,129053,1,0,0:0:0:0:
448,192,129190,1,0,0:0:0:0:
64,192,129190,1,0,0:0:0:0:
320,192,129326,1,0,0:0:0:0:
192,192,129326,1,0,0:0:0:0:
448,192,129394,1,0,0:0:0:0:
64,192,129394,1,0,0:0:0:0:
320,192,129462,1,0,0:0:0:0:
192,192,129462,1,0,0:0:0:0:
320,192,129599,1,0,0:0:0:0:
64,192,129599,1,0,0:0:0:0:
448,192,129735,1,0,0:0:0:0:
320,192,129735,1,0,0:0:0:0:
192,192,129803,1,0,0:0:0:0:
64,192,129803,1,0,0:0:0:0:
448,192,129871,1,0,0:0:0:0:
320,192,129871,1,0,0:0:0:0:
64,192,130008,128,0,130076:0:0:0:0:
192,192,130008,1,0,0:0:0:0:
448,192,130008,1,0,0:0:0:0:
64,192,130144,128,0,130212:0:0:0:0:
192,192,130280,128,0,130349:0:0:0:0:
192,192,130417,128,0,130485:0:0:0:0:
320,192,130553,128,0,130621:0:0:0:0:
320,192,130690,128,0,130758:0:0:0:0:
448,192,130826,128,0,130894:0:0:0:0:
448,192,130962,128,0,131030:0:0:0:0:
320,192,131099,128,0,131371:0:0:0:0:
192,192,131099,128,0,131371:0:0:0:0:
64,192,131099,128,0,131371:0:0:0:0:
448,192,131099,128,0,131644:0:0:0:0:
320,192,131644,1,0,0:0:0:0:
192,192,131644,1,0,0:0:0:0:
64,192,131780,1,0,0:0:0:0:
448,192,131780,1,0,0:0:0:0:
64,192,131917,1,0,0:0:0:0:
320,192,131917,1,0,0:0:0:0:
192,192,131917,1,0,0:0:0:0:
320,192,132053,1,0,0:0:0:0:
448,192,132053,1,0,0:0:0:0:
448,192,132190,1,0,0:0:0:0:
192,192,132190,1,0,0:0:0:0:
64,192,132190,1,0,0:0:0:0:
320,192,132326,1,0,0:0:0:0:
64,192,132326,1,0,0:0:0:0:
192,192,132462,1,0,0:0:0:0:
320,192,132462,1,0,0:0:0:0:
448,192,132599,1,0,0:0:0:0:
64,192,132599,1,0,0:0:0:0:
320,192,132667,1,0,0:0:0:0:
192,192,132667,1,0,0:0:0:0:
448,192,132735,1,0,0:0:0:0:
64,192,132735,1,0,0:0:0:0:
320,192,133008,1,0,0:0:0:0:
448,192,133008,1,0,0:0:0:0:
192,192,133076,1,0,0:0:0:0:
64,192,133076,1,0,0:0:0:0:
320,192,133144,1,0,0:0:0:0:
448,192,133144,1,0,0:0:0:0:
448,192,133280,1,0,0:0:0:0:
192,192,133280,1,0,0:0:0:0:
64,192,133349,1,0,0:0:0:0:
320,192,133349,1,0,0:0:0:0:
448,192,133417,1,0,0:0:0:0:
192,192,133417,1,0,0:0:0:0:
64,192,133553,1,0,0:0:0:0:
320,192,133553,1,0,0:0:0:0:
192,192,133690,1,0,0:0:0:0:
448,192,133690,1,0,0:0:0:0:
320,192,133690,1,0,0:0:0:0:
64,192,133758,1,0,0:0:0:0:
448,192,133758,1,0,0:0:0:0:
192,192,133826,1,0,0:0:0:0:
320,192,133826,1,0,0:0:0:0:
448,192,133962,1,0,0:0:0:0:
64,192,133962,1,0,0:0:0:0:
192,192,134099,1,0,0:0:0:0:
64,192,134099,1,0,0:0:0:0:
320,192,134099,1,0,0:0:0:0:
448,192,134167,1,0,0:0:0:0:
320,192,134167,1,0,0:0:0:0:
64,192,134235,1,0,0:0:0:0:
192,192,134235,1,0,0:0:0:0:
448,192,134371,1,0,0:0:0:0:
192,192,134371,1,0,0:0:0:0:
320,192,134371,1,0,0:0:0:0:
64,192,134508,1,0,0:0:0:0:
448,192,134508,1,0,0:0:0:0:
192,192,134644,1,0,0:0:0:0:
448,192,134644,1,0,0:0:0:0:
64,192,134780,1,0,0:0:0:0:
320,192,134780,1,0,0:0:0:0:
192,192,134849,1,0,0:0:0:0:
448,192,134849,1,0,0:0:0:0:
64,192,134917,1,0,0:0:0:0:
320,192,134917,1,0,0:0:0:0:
448,192,135053,1,0,0:0:0:0:
320,192,135053,1,0,0:0:0:0:
192,192,135121,1,0,0:0:0:0:
64,192,135121,1,0,0:0:0:0:
448,192,135190,128,0,135394:0:0:0:0:
192,192,135190,128,0,135394:0:0:0:0:
320,192,135190,128,0,135394:0:0:0:0:
64,192,135190,128,0,135394:0:0:0:0:
448,192,135462,128,0,135735:0:0:0:0:
192,192,135462,128,0,135735:0:0:0:0:
320,192,135462,128,0,135735:0:0:0:0:
64,192,135462,128,0,136008:0:0:0:0:
192,192,136008,1,0,0:0:0:0:
320,192,136008,1,0,0:0:0:0:
64,192,136144,1,0,0:0:0:0:
448,192,136144,1,0,0:0:0:0:
192,192,136280,1,0,0:0:0:0:
320,192,136280,1,0,0:0:0:0:
448,192,136349,1,0,0:0:0:0:
64,192,136349,1,0,0:0:0:0:
192,192,136417,1,0,0:0:0:0:
320,192,136417,1,0,0:0:0:0:
448,192,136553,1,0,0:0:0:0:
320,192,136553,128,0,136826:0:0:0:0:
64,192,136553,128,0,136826:0:0:0:0:
192,192,136826,1,0,0:0:0:0:
448,192,136826,1,0,0:0:0:0:
64,192,136962,1,0,0:0:0:0:
320,192,136962,1,0,0:0:0:0:
448,192,137030,1,0,0:0:0:0:
192,192,137030,1,0,0:0:0:0:
320,192,137099,1,0,0:0:0:0:
64,192,137099,1,0,0:0:0:0:
192,192,137235,1,0,0:0:0:0:
320,192,137235,1,0,0:0:0:0:
64,192,137371,1,0,0:0:0:0:
448,192,137371,1,0,0:0:0:0:
320,192,137440,1,0,0:0:0:0:
192,192,137440,1,0,0:0:0:0:
64,192,137508,1,0,0:0:0:0:
448,192,137508,1,0,0:0:0:0:
320,192,137644,1,0,0:0:0:0:
192,192,137644,1,0,0:0:0:0:
64,192,137644,1,0,0:0:0:0:
448,192,137712,1,0,0:0:0:0:
320,192,137712,1,0,0:0:0:0:
64,192,137780,1,0,0:0:0:0:
192,192,137780,1,0,0:0:0:0:
448,192,137917,1,0,0:0:0:0:
320,192,137917,1,0,0:0:0:0:
448,192,138053,1,0,0:0:0:0:
192,192,138053,1,0,0:0:0:0:
320,192,138121,1,0,0:0:0:0:
64,192,138121,1,0,0:0:0:0:
448,192,138190,1,0,0:0:0:0:
192,192,138190,1,0,0:0:0:0:
64,192,138326,1,0,0:0:0:0:
320,192,138326,1,0,0:0:0:0:
448,192,138462,1,0,0:0:0:0:
320,192,138462,1,0,0:0:0:0:
192,192,138530,1,0,0:0:0:0:
64,192,138530,1,0,0:0:0:0:
320,192,138599,1,0,0:0:0:0:
448,192,138599,1,0,0:0:0:0:
448,192,138735,5,0,0:0:0:0:
192,192,138735,1,0,0:0:0:0:
64,192,138735,1,0,0:0:0:0:
448,192,139826,128,0,140099:0:0:0:0:
64,192,139826,128,0,140371:0:0:0:0:
320,192,139826,128,0,140099:0:0:0:0:
192,192,139826,128,0,140099:0:0:0:0:
192,192,140371,1,0,0:0:0:0:
320,192,140371,1,0,0:0:0:0:
448,192,140371,1,0,0:0:0:0:
64,192,140644,128,0,140917:0:0:0:0:
448,192,140644,128,0,140917:0:0:0:0:
192,192,140644,128,0,141190:0:0:0:0:
320,192,140644,128,0,140917:0:0:0:0:
448,192,141190,1,0,0:0:0:0:
64,192,141190,1,0,0:0:0:0:
320,192,141326,1,0,0:0:0:0:
192,192,141326,1,0,0:0:0:0:
448,192,141326,1,0,0:0:0:0:
192,192,141462,1,0,0:0:0:0:
320,192,141462,1,0,0:0:0:0:
64,192,141462,1,0,0:0:0:0:
448,192,141599,1,0,0:0:0:0:
64,192,141599,1,0,0:0:0:0:
192,192,141735,1,0,0:0:0:0:
448,192,141735,1,0,0:0:0:0:
320,192,141871,1,0,0:0:0:0:
64,192,141871,1,0,0:0:0:0:
64,192,142008,128,0,142144:0:0:0:0:
192,192,142008,128,0,142144:0:0:0:0:
320,192,142008,128,0,142144:0:0:0:0:
448,192,142008,128,0,142144:0:0:0:0:
192,192,142280,1,0,0:0:0:0:
320,192,142280,1,0,0:0:0:0:
64,192,142417,1,0,0:0:0:0:
192,192,142417,1,0,0:0:0:0:
320,192,142553,1,0,0:0:0:0:
64,192,142553,1,0,0:0:0:0:
448,192,142553,1,0,0:0:0:0:
64,192,142826,128,0,142962:0:0:0:0:
192,192,142826,128,0,142962:0:0:0:0:
320,192,142826,128,0,142962:0:0:0:0:
448,192,142826,128,0,142962:0:0:0:0:
320,192,143099,1,0,0:0:0:0:
448,192,143099,1,0,0:0:0:0:
320,192,143235,1,0,0:0:0:0:
64,192,143235,1,0,0:0:0:0:
192,192,143371,1,0,0:0:0:0:
64,192,143371,1,0,0:0:0:0:
448,192,143371,1,0,0:0:0:0:
192,192,143508,1,0,0:0:0:0:
320,192,143508,1,0,0:0:0:0:
448,192,143644,1,0,0:0:0:0:
64,192,143644,1,0,0:0:0:0:
320,192,143644,1,0,0:0:0:0:
64,192,143780,1,0,0:0:0:0:
192,192,143780,1,0,0:0:0:0:
320,192,143849,1,0,0:0:0:0:
448,192,143849,1,0,0:0:0:0:
192,192,143917,1,0,0:0:0:0:
64,192,143917,1,0,0:0:0:0:
448,192,144053,1,0,0:0:0:0:
320,192,144053,1,0,0:0:0:0:
192,192,144190,128,0,144462:0:0:0:0:
320,192,144190,128,0,144462:0:0:0:0:
448,192,144190,128,0,144462:0:0:0:0:
64,192,144190,128,0,144735:0:0:0:0:
192,192,144735,1,0,0:0:0:0:
320,192,144735,1,0,0:0:0:0:
448,192,144735,1,0,0:0:0:0:
64,192,145008,1,0,0:0:0:0:
192,192,145042,1,0,0:0:0:0:
320,192,145076,1,0,0:0:0:0:
448,192,145110,1,0,0:0:0:0:
64,192,145144,1,0,0:0:0:0:
192,192,145178,1,0,0:0:0:0:
320,192,145212,1,0,0:0:0:0:
448,192,145246,1,0,0:0:0:0:
64,192,145280,1,0,0:0:0:0:
192,192,145315,1,0,0:0:0:0:
320,192,145349,1,0,0:0:0:0:
448,192,145383,1,0,0:0:0:0:
64,192,145417,1,0,0:0:0:0:
192,192,145451,1,0,0:0:0:0:
320,192,145485,1,0,0:0:0:0:
448,192,145519,1,0,0:0:0:0:
64,192,145553,128,0,145758:0:0:0:0:
192,192,145553,128,0,145758:0:0:0:0:
64,192,145826,128,0,146099:0:0:0:0:
192,192,145826,128,0,146099:0:0:0:0:
448,192,145826,128,0,146099:0:0:0:0:
320,192,145826,128,0,146371:0:0:0:0:
64,192,146371,1,0,0:0:0:0:
448,192,146371,1,0,0:0:0:0:
192,192,146440,1,0,0:0:0:0:
320,192,146508,1,0,0:0:0:0:
448,192,146508,1,0,0:0:0:0:
64,192,146644,1,0,0:0:0:0:
192,192,146644,1,0,0:0:0:0:
320,192,146780,1,0,0:0:0:0:
192,192,146780,1,0,0:0:0:0:
448,192,146780,1,0,0:0:0:0:
64,192,146849,1,0,0:0:0:0:
320,192,146917,1,0,0:0:0:0:
448,192,146917,1,0,0:0:0:0:
192,192,146917,1,0,0:0:0:0:
320,192,147053,1,0,0:0:0:0:
64,192,147053,1,0,0:0:0:0:
192,192,147190,128,0,147326:0:0:0:0:
320,192,147326,1,0,0:0:0:0:
448,192,147326,1,0,0:0:0:0:
64,192,147326,1,0,0:0:0:0:
192,192,147462,1,0,0:0:0:0:
448,192,147462,1,0,0:0:0:0:
192,192,147599,1,0,0:0:0:0:
320,192,147599,1,0,0:0:0:0:
448,192,147735,128,0,147803:0:0:0:0:
64,192,147735,1,0,0:0:0:0:
192,192,147735,1,0,0:0:0:0:
448,192,147871,128,0,147940:0:0:0:0:
64,192,147871,1,0,0:0:0:0:
320,192,147871,1,0,0:0:0:0:
448,192,148008,128,0,148076:0:0:0:0:
320,192,148008,1,0,0:0:0:0:
192,192,148008,1,0,0:0:0:0:
448,192,148144,128,0,148212:0:0:0:0:
64,192,148144,1,0,0:0:0:0:
192,192,148144,1,0,0:0:0:0:
320,192,148212,128,0,148280:0:0:0:0:
448,192,148280,128,0,148349:0:0:0:0:
64,192,148280,1,0,0:0:0:0:
448,192,148417,128,0,148485:0:0:0:0:
192,192,148417,1,0,0:0:0:0:
320,192,148417,1,0,0:0:0:0:
448,192,148553,128,0,148826:0:0:0:0:
320,192,148553,128,0,148826:0:0:0:0:
192,192,148553,128,0,148826:0:0:0:0:
64,192,148553,128,0,149099:0:0:0:0:
192,192,149099,1,0,0:0:0:0:
320,192,149099,1,0,0:0:0:0:
448,192,149099,1,0,0:0:0:0:
64,192,149371,128,0,149644:0:0:0:0:
192,192,149371,128,0,149644:0:0:0:0:
320,192,149371,128,0,149644:0:0:0:0:
448,192,149371,128,0,149917:0:0:0:0:
192,192,149917,1,0,0:0:0:0:
64,192,149917,1,0,0:0:0:0:
64,192,150053,1,0,0:0:0:0:
192,192,150053,1,0,0:0:0:0:
320,192,150053,1,0,0:0:0:0:
64,192,150190,1,0,0:0:0:0:
192,192,150190,1,0,0:0:0:0:
448,192,150190,1,0,0:0:0:0:
64,192,150326,1,0,0:0:0:0:
192,192,150326,1,0,0:0:0:0:
64,192,150462,1,0,0:0:0:0:
192,192,150462,1,0,0:0:0:0:
64,192,150599,1,0,0:0:0:0:
192,192,150599,1,0,0:0:0:0:
64,192,150735,128,0,150871:0:0:0:0:
192,192,150735,128,0,150871:0:0:0:0:
320,192,150735,128,0,150871:0:0:0:0:
448,192,150735,128,0,150871:0:0:0:0:
192,192,151008,1,0,0:0:0:0:
64,192,151008,1,0,0:0:0:0:
64,192,151144,1,0,0:0:0:0:
192,192,151144,1,0,0:0:0:0:
64,192,151280,1,0,0:0:0:0:
192,192,151280,1,0,0:0:0:0:
448,192,151280,1,0,0:0:0:0:
64,192,151553,128,0,151690:0:0:0:0:
192,192,151553,128,0,151690:0:0:0:0:
320,192,151553,128,0,151690:0:0:0:0:
448,192,151553,128,0,151690:0:0:0:0:
320,192,151826,1,0,0:0:0:0:
448,192,151826,1,0,0:0:0:0:
320,192,151962,1,0,0:0:0:0:
448,192,151962,1,0,0:0:0:0:
320,192,152099,1,0,0:0:0:0:
448,192,152099,1,0,0:0:0:0:
192,192,152099,1,0,0:0:0:0:
320,192,152235,1,0,0:0:0:0:
448,192,152235,1,0,0:0:0:0:
320,192,152371,1,0,0:0:0:0:
448,192,152371,1,0,0:0:0:0:
64,192,152371,1,0,0:0:0:0:
320,192,152508,1,0,0:0:0:0:
448,192,152508,1,0,0:0:0:0:
192,192,152576,1,0,0:0:0:0:
64,192,152576,1,0,0:0:0:0:
320,192,152644,1,0,0:0:0:0:
448,192,152644,1,0,0:0:0:0:
320,192,152780,1,0,0:0:0:0:
448,192,152780,1,0,0:0:0:0:
448,192,152917,128,0,153190:0:0:0:0:
320,192,152917,128,0,153190:0:0:0:0:
64,192,152917,128,0,153190:0:0:0:0:
192,192,152917,128,0,153462:0:0:0:0:
64,192,153462,1,0,0:0:0:0:
320,192,153462,1,0,0:0:0:0:
448,192,153462,1,0,0:0:0:0:
64,192,153735,1,0,0:0:0:0:
192,192,153769,1,0,0:0:0:0:
448,192,153803,1,0,0:0:0:0:
320,192,153837,1,0,0:0:0:0:
64,192,153871,1,0,0:0:0:0:
192,192,153905,1,0,0:0:0:0:
448,192,153940,1,0,0:0:0:0:
320,192,153974,1,0,0:0:0:0:
64,192,154008,1,0,0:0:0:0:
192,192,154042,1,0,0:0:0:0:
448,192,154076,1,0,0:0:0:0:
320,192,154110,1,0,0:0:0:0:
64,192,154144,1,0,0:0:0:0:
192,192,154178,1,0,0:0:0:0:
448,192,154212,1,0,0:0:0:0:
320,192,154246,1,0,0:0:0:0:
192,192,154280,128,0,154485:0:0:0:0:
64,192,154280,128,0,154485:0:0:0:0:
64,192,154553,128,0,154826:0:0:0:0:
192,192,154553,128,0,154826:0:0:0:0:
448,192,154553,128,0,154826:0:0:0:0:
320,192,154553,128,0,155099:0:0:0:0:
192,192,155099,1,0,0:0:0:0:
64,192,155099,1,0,0:0:0:0:
448,192,155099,1,0,0:0:0:0:
192,192,155235,1,0,0:0:0:0:
320,192,155235,1,0,0:0:0:0:
448,192,155235,1,0,0:0:0:0:
64,192,155371,1,0,0:0:0:0:
320,192,155371,1,0,0:0:0:0:
192,192,155508,1,0,0:0:0:0:
448,192,155508,1,0,0:0:0:0:
64,192,155508,1,0,0:0:0:0:
192,192,155644,1,0,0:0:0:0:
320,192,155644,1,0,0:0:0:0:
448,192,155644,1,0,0:0:0:0:
64,192,155780,1,0,0:0:0:0:
320,192,155780,1,0,0:0:0:0:
192,192,155917,1,0,0:0:0:0:
448,192,155917,1,0,0:0:0:0:
64,192,155917,128,0,156053:0:0:0:0:
192,192,156053,1,0,0:0:0:0:
448,192,156053,1,0,0:0:0:0:
320,192,156053,1,0,0:0:0:0:
64,192,156190,1,0,0:0:0:0:
320,192,156190,1,0,0:0:0:0:
192,192,156326,1,0,0:0:0:0:
448,192,156326,1,0,0:0:0:0:
320,192,156462,1,0,0:0:0:0:
64,192,156462,1,0,0:0:0:0:
448,192,156462,1,0,0:0:0:0:
192,192,156599,1,0,0:0:0:0:
320,192,156599,1,0,0:0:0:0:
64,192,156599,1,0,0:0:0:0:
448,192,156735,1,0,0:0:0:0:
192,192,156735,1,0,0:0:0:0:
64,192,156735,1,0,0:0:0:0:
320,192,156871,1,0,0:0:0:0:
192,192,156940,1,0,0:0:0:0:
64,192,157008,1,0,0:0:0:0:
320,192,157008,1,0,0:0:0:0:
448,192,157008,1,0,0:0:0:0:
192,192,157144,1,0,0:0:0:0:
448,192,157144,1,0,0:0:0:0:
64,192,157280,128,0,157553:0:0:0:0:
320,192,157280,128,0,157553:0:0:0:0:
448,192,157280,128,0,157553:0:0:0:0:
192,192,157280,128,0,157826:0:0:0:0:
64,192,157826,1,0,0:0:0:0:
320,192,157826,1,0,0:0:0:0:
448,192,157826,1,0,0:0:0:0:
192,192,158099,128,0,158371:0:0:0:0:
320,192,158099,128,0,158371:0:0:0:0:
448,192,158099,128,0,158371:0:0:0:0:
64,192,158099,128,0,158644:0:0:0:0:
448,192,158644,1,0,0:0:0:0:
320,192,158644,1,0,0:0:0:0:
192,192,158644,1,0,0:0:0:0:
64,192,158780,1,0,0:0:0:0:
192,192,158780,1,0,0:0:0:0:
320,192,158780,1,0,0:0:0:0:
320,192,158917,1,0,0:0:0:0:
448,192,158917,1,0,0:0:0:0:
64,192,158917,1,0,0:0:0:0:
192,192,159053,1,0,0:0:0:0:
448,192,159053,1,0,0:0:0:0:
320,192,159190,1,0,0:0:0:0:
64,192,159190,1,0,0:0:0:0:
64,192,159326,1,0,0:0:0:0:
448,192,159326,1,0,0:0:0:0:
64,192,159462,128,0,159599:0:0:0:0:
192,192,159462,128,0,159599:0:0:0:0:
320,192,159462,128,0,159599:0:0:0:0:
448,192,159462,128,0,159599:0:0:0:0:
192,192,159735,1,0,0:0:0:0:
320,192,159735,1,0,0:0:0:0:
192,192,159871,1,0,0:0:0:0:
64,192,159871,1,0,0:0:0:0:
320,192,160008,1,0,0:0:0:0:
448,192,160008,1,0,0:0:0:0:
64,192,160008,1,0,0:0:0:0:
192,192,160280,128,0,160417:0:0:0:0:
64,192,160280,128,0,160417:0:0:0:0:
320,192,160280,128,0,160417:0:0:0:0:
448,192,160280,128,0,160417:0:0:0:0:
192,192,160553,1,0,0:0:0:0:
448,192,160553,1,0,0:0:0:0:
320,192,160690,1,0,0:0:0:0:
64,192,160690,1,0,0:0:0:0:
192,192,160826,1,0,0:0:0:0:
448,192,160826,1,0,0:0:0:0:
320,192,160826,1,0,0:0:0:0:
64,192,160962,1,0,0:0:0:0:
192,192,160962,1,0,0:0:0:0:
448,192,160962,1,0,0:0:0:0:
64,192,161099,1,0,0:0:0:0:
320,192,161099,1,0,0:0:0:0:
448,192,161099,1,0,0:0:0:0:
192,192,161235,1,0,0:0:0:0:
64,192,161235,1,0,0:0:0:0:
320,192,161303,1,0,0:0:0:0:
448,192,161303,1,0,0:0:0:0:
192,192,161371,1,0,0:0:0:0:
64,192,161371,1,0,0:0:0:0:
320,192,161508,1,0,0:0:0:0:
448,192,161508,1,0,0:0:0:0:
64,192,161644,128,0,161917:0:0:0:0:
192,192,161644,128,0,161917:0:0:0:0:
320,192,161644,128,0,161917:0:0:0:0:
448,192,161644,128,0,162190:0:0:0:0:
64,192,162190,1,0,0:0:0:0:
192,192,162190,1,0,0:0:0:0:
320,192,162190,1,0,0:0:0:0:
448,192,162462,1,0,0:0:0:0:
320,192,162496,1,0,0:0:0:0:
192,192,162530,1,0,0:0:0:0:
64,192,162565,1,0,0:0:0:0:
448,192,162599,1,0,0:0:0:0:
320,192,162633,1,0,0:0:0:0:
192,192,162667,1,0,0:0:0:0:
64,192,162701,1,0,0:0:0:0:
448,192,162735,1,0,0:0:0:0:
320,192,162769,1,0,0:0:0:0:
192,192,162803,1,0,0:0:0:0:
64,192,162837,1,0,0:0:0:0:
448,192,162871,1,0,0:0:0:0:
320,192,162905,1,0,0:0:0:0:
192,192,162940,1,0,0:0:0:0:
64,192,162974,1,0,0:0:0:0:
320,192,163008,128,0,163212:0:0:0:0:
448,192,163008,128,0,163212:0:0:0:0:
448,192,163280,128,0,163553:0:0:0:0:
192,192,163280,128,0,163553:0:0:0:0:
64,192,163280,128,0,163553:0:0:0:0:
320,192,163280,128,0,163553:0:0:0:0:
64,192,163826,128,0,163962:0:0:0:0:
192,192,163962,1,0,0:0:0:0:
320,192,163962,1,0,0:0:0:0:
192,192,164099,1,0,0:0:0:0:
320,192,164099,1,0,0:0:0:0:
64,192,164235,128,0,164371:0:0:0:0:
192,192,164235,1,0,0:0:0:0:
320,192,164235,1,0,0:0:0:0:
448,192,164235,1,0,0:0:0:0:
192,192,164371,1,0,0:0:0:0:
320,192,164371,1,0,0:0:0:0:
448,192,164371,1,0,0:0:0:0:
192,192,164508,1,0,0:0:0:0:
320,192,164508,1,0,0:0:0:0:
448,192,164644,1,0,0:0:0:0:
320,192,164712,1,0,0:0:0:0:
448,192,164780,1,0,0:0:0:0:
192,192,164780,1,0,0:0:0:0:
64,192,164780,1,0,0:0:0:0:
320,192,164917,1,0,0:0:0:0:
64,192,164917,1,0,0:0:0:0:
192,192,165053,1,0,0:0:0:0:
448,192,165053,1,0,0:0:0:0:
64,192,165190,128,0,165258:0:0:0:0:
320,192,165190,1,0,0:0:0:0:
448,192,165190,1,0,0:0:0:0:
64,192,165326,128,0,165394:0:0:0:0:
448,192,165326,1,0,0:0:0:0:
192,192,165326,1,0,0:0:0:0:
64,192,165462,128,0,165530:0:0:0:0:
192,192,165462,1,0,0:0:0:0:
320,192,165462,1,0,0:0:0:0:
64,192,165599,128,0,165667:0:0:0:0:
320,192,165599,1,0,0:0:0:0:
448,192,165599,1,0,0:0:0:0:
192,192,165667,128,0,165735:0:0:0:0:
64,192,165735,128,0,165803:0:0:0:0:
448,192,165735,1,0,0:0:0:0:
64,192,165871,128,0,165940:0:0:0:0:
320,192,165871,1,0,0:0:0:0:
192,192,165871,1,0,0:0:0:0:
64,192,166008,128,0,166280:0:0:0:0:
192,192,166008,128,0,166280:0:0:0:0:
448,192,166008,128,0,166280:0:0:0:0:
320,192,166008,128,0,166553:0:0:0:0:
192,192,166553,1,0,0:0:0:0:
64,192,166553,1,0,0:0:0:0:
448,192,166553,1,0,0:0:0:0:
320,192,166826,128,0,167099:0:0:0:0:
192,192,166826,128,0,167371:0:0:0:0:
64,192,166826,128,0,167099:0:0:0:0:
448,192,166826,128,0,167099:0:0:0:0:
320,192,167371,1,0,0:0:0:0:
64,192,167371,1,0,0:0:0:0:
192,192,167508,1,0,0:0:0:0:
448,192,167508,1,0,0:0:0:0:
320,192,167508,1,0,0:0:0:0:
64,192,167644,1,0,0:0:0:0:
192,192,167644,1,0,0:0:0:0:
448,192,167644,1,0,0:0:0:0:
320,192,167780,1,0,0:0:0:0:
64,192,167780,1,0,0:0:0:0:
192,192,167917,1,0,0:0:0:0:
448,192,167917,1,0,0:0:0:0:
320,192,168053,1,0,0:0:0:0:
448,192,168053,1,0,0:0:0:0:
320,192,168190,128,0,168326:0:0:0:0:
448,192,168190,128,0,168326:0:0:0:0:
192,192,168190,128,0,168326:0:0:0:0:
64,192,168190,128,0,168326:0:0:0:0:
192,192,168462,1,0,0:0:0:0:
64,192,168462,1,0,0:0:0:0:
64,192,168599,1,0,0:0:0:0:
448,192,168599,1,0,0:0:0:0:
192,192,168735,1,0,0:0:0:0:
320,192,168735,1,0,0:0:0:0:
448,192,168735,1,0,0:0:0:0:
64,192,169008,128,0,169144:0:0:0:0:
448,192,169008,128,0,169144:0:0:0:0:
320,192,169008,128,0,169144:0:0:0:0:
192,192,169008,128,0,169144:0:0:0:0:
64,192,169280,1,0,0:0:0:0:
320,192,169280,1,0,0:0:0:0:
320,192,169417,1,0,0:0:0:0:
192,192,169417,1,0,0:0:0:0:
448,192,169553,1,0,0:0:0:0:
64,192,169553,1,0,0:0:0:0:
192,192,169553,1,0,0:0:0:0:
448,192,169690,1,0,0:0:0:0:
320,192,169690,1,0,0:0:0:0:
64,192,169690,1,0,0:0:0:0:
192,192,169826,1,0,0:0:0:0:
320,192,169826,1,0,0:0:0:0:
448,192,169826,1,0,0:0:0:0:
64,192,169962,1,0,0:0:0:0:
192,192,169962,1,0,0:0:0:0:
448,192,170030,1,0,0:0:0:0:
320,192,170030,1,0,0:0:0:0:
64,192,170099,1,0,0:0:0:0:
192,192,170099,1,0,0:0:0:0:
320,192,170235,1,0,0:0:0:0:
448,192,170235,1,0,0:0:0:0:
64,192,170371,128,0,170917:0:0:0:0:
192,192,170371,128,0,170644:0:0:0:0:
320,192,170371,128,0,170644:0:0:0:0:
448,192,170371,128,0,170644:0:0:0:0:
192,192,170917,1,0,0:0:0:0:
320,192,170917,1,0,0:0:0:0:
448,192,170917,1,0,0:0:0:0:
448,192,171190,1,0,0:0:0:0:
320,192,171224,1,0,0:0:0:0:
64,192,171258,1,0,0:0:0:0:
192,192,171292,1,0,0:0:0:0:
448,192,171326,1,0,0:0:0:0:
320,192,171360,1,0,0:0:0:0:
64,192,171394,1,0,0:0:0:0:
192,192,171428,1,0,0:0:0:0:
448,192,171462,1,0,0:0:0:0:
320,192,171496,1,0,0:0:0:0:
64,192,171530,1,0,0:0:0:0:
192,192,171565,1,0,0:0:0:0:
448,192,171599,1,0,0:0:0:0:
320,192,171633,1,0,0:0:0:0:
64,192,171667,1,0,0:0:0:0:
192,192,171701,1,0,0:0:0:0:
320,192,171735,128,0,171940:0:0:0:0:
448,192,171735,128,0,171940:0:0:0:0:
320,192,172008,128,0,172280:0:0:0:0:
192,192,172008,128,0,172280:0:0:0:0:
64,192,172008,128,0,172280:0:0:0:0:
448,192,172008,128,0,172553:0:0:0:0:
320,192,172553,1,0,0:0:0:0:
192,192,172553,1,0,0:0:0:0:
64,192,172553,1,0,0:0:0:0:
64,192,172690,128,0,172758:0:0:0:0:
64,192,172826,128,0,172894:0:0:0:0:
64,192,172962,128,0,173030:0:0:0:0:
192,192,173099,128,0,173167:0:0:0:0:
192,192,173235,128,0,173303:0:0:0:0:
192,192,173371,128,0,173440:0:0:0:0:
320,192,173508,1,0,0:0:0:0:
448,192,173508,1,0,0:0:0:0:
64,192,173508,1,0,0:0:0:0:
192,192,173644,1,0,0:0:0:0:
64,192,173644,1,0,0:0:0:0:
448,192,173644,1,0,0:0:0:0:
320,192,173780,128,0,173849:0:0:0:0:
320,192,173917,128,0,173985:0:0:0:0:
64,192,173917,1,0,0:0:0:0:
320,192,174053,128,0,174121:0:0:0:0:
448,192,174190,128,0,174258:0:0:0:0:
192,192,174190,1,0,0:0:0:0:
64,192,174190,1,0,0:0:0:0:
448,192,174326,128,0,174394:0:0:0:0:
192,192,174326,1,0,0:0:0:0:
64,192,174326,1,0,0:0:0:0:
448,192,174462,128,0,174530:0:0:0:0:
64,192,174462,1,0,0:0:0:0:
192,192,174462,1,0,0:0:0:0:
448,192,174599,128,0,174667:0:0:0:0:
192,192,174599,1,0,0:0:0:0:
64,192,174599,1,0,0:0:0:0:
192,192,174735,128,0,178949:0:0:0:0:
64,192,174735,128,0,175280:0:0:0:0:
320,192,174735,128,0,175278:0:0:0:0:
448,192,174735,128,0,175280:0:0:0:0:
448,192,178949,128,0,182884:0:0:0:0:
192,192,181924,128,0,182044:0:0:0:0:
192,192,182884,128,0,186578:0:0:0:0:
320,192,182884,1,0,0:0:0:0:
64,192,182884,128,0,183003:0:0:0:0:
64,192,183359,1,0,0:0:0:0:
64,192,183830,1,0,0:0:0:0:
448,192,184297,128,0,184355:0:0:0:0:
320,192,184760,128,0,184817:0:0:0:0:
448,192,186578,128,0,190056:0:0:0:0:
64,192,186578,1,0,0:0:0:0:
64,192,186801,1,0,0:0:0:0:
64,192,187024,1,0,0:0:0:0:
64,192,187246,1,0,0:0:0:0:
64,192,187467,1,0,0:0:0:0:
64,192,187687,1,0,0:0:0:0:
192,192,189205,128,0,189312:0:0:0:0:
320,192,190056,1,0,0:0:0:0:
64,192,190056,128,0,190161:0:0:0:0:
192,192,190056,128,0,193343:0:0:0:0:
64,192,191722,1,0,0:0:0:0:
320,192,191722,1,0,0:0:0:0:
64,192,193343,1,0,0:0:0:0:
320,192,193343,1,0,0:0:0:0:
448,192,193343,128,0,196459:0:0:0:0:
64,192,194922,1,0,0:0:0:0:
320,192,194922,1,0,0:0:0:0:
64,192,196459,1,0,0:0:0:0:
320,192,196459,1,0,0:0:0:0:
192,192,196459,128,0,199419:0:0:0:0:
64,192,197213,1,0,0:0:0:0:
320,192,197213,1,0,0:0:0:0:
64,192,197957,1,0,0:0:0:0:
320,192,197957,1,0,0:0:0:0:
64,192,198693,1,0,0:0:0:0:
320,192,198693,1,0,0:0:0:0:
64,192,199419,1,0,0:0:0:0:
320,192,199419,1,0,0:0:0:0:
448,192,199419,128,0,201893:0:0:0:0:
64,192,199779,1,0,0:0:0:0:
320,192,199779,1,0,0:0:0:0:
64,192,200137,1,0,0:0:0:0:
320,192,200137,1,0,0:0:0:0:
64,192,200493,1,0,0:0:0:0:
320,192,200493,1,0,0:0:0:0:
64,192,200846,1,0,0:0:0:0:
320,192,200846,1,0,0:0:0:0:
64,192,201022,5,0,0:0:0:0:
320,192,201022,1,0,0:0:0:0:
64,192,201197,1,0,0:0:0:0:
320,192,201197,1,0,0:0:0:0:
64,192,201372,1,0,0:0:0:0:
320,192,201372,1,0,0:0:0:0:
64,192,201546,1,0,0:0:0:0:
320,192,201546,1,0,0:0:0:0:
320,192,201720,1,0,0:0:0:0:
64,192,201720,1,0,0:0:0:0:
64,192,201893,1,0,0:0:0:0:
320,192,201893,1,0,0:0:0:0:
320,192,202195,128,0,202366:0:0:0:0:
64,192,202195,128,0,202537:0:0:0:0:
192,192,202195,128,0,202452:0:0:0:0:
448,192,202537,128,0,202880:0:0:0:0:
192,192,202537,128,0,202709:0:0:0:0:
320,192,202537,128,0,202795:0:0:0:0:
64,192,202880,1,0,0:0:0:0:
192,192,202909,1,0,0:0:0:0:
320,192,202937,1,0,0:0:0:0:
448,192,202966,1,0,0:0:0:0:
64,192,202995,1,0,0:0:0:0:
192,192,203023,1,0,0:0:0:0:
320,192,203052,1,0,0:0:0:0:
448,192,203080,1,0,0:0:0:0:
64,192,203109,1,0,0:0:0:0:
192,192,203137,1,0,0:0:0:0:
320,192,203166,1,0,0:0:0:0:
448,192,203195,1,0,0:0:0:0:
64,192,203223,128,0,203395:0:0:0:0:
192,192,203395,128,0,203566:0:0:0:0:
320,192,203395,128,0,203652:0:0:0:0:
448,192,203395,128,0,203909:0:0:0:0:
192,192,203909,128,0,204166:0:0:0:0:
320,192,203909,128,0,204080:0:0:0:0:
64,192,203909,128,0,204252:0:0:0:0:
448,192,204252,1,0,0:0:0:0:
320,192,204280,1,0,0:0:0:0:
192,192,204309,1,0,0:0:0:0:
64,192,204337,1,0,0:0:0:0:
448,192,204366,1,0,0:0:0:0:
320,192,204395,1,0,0:0:0:0:
192,192,204423,1,0,0:0:0:0:
64,192,204452,1,0,0:0:0:0:
448,192,204480,1,0,0:0:0:0:
320,192,204509,1,0,0:0:0:0:
192,192,204537,1,0,0:0:0:0:
64,192,204566,1,0,0:0:0:0:
448,192,204595,128,0,204766:0:0:0:0:
320,192,204595,1,0,0:0:0:0:
64,192,204766,128,0,205280:0:0:0:0:
320,192,204766,128,0,204937:0:0:0:0:
192,192,204766,128,0,205023:0:0:0:0:
448,192,205280,128,0,205623:0:0:0:0:
192,192,205280,128,0,205452:0:0:0:0:
320,192,205280,128,0,205537:0:0:0:0:
64,192,205623,1,0,0:0:0:0:
192,192,205652,1,0,0:0:0:0:
320,192,205680,1,0,0:0:0:0:
448,192,205709,1,0,0:0:0:0:
64,192,205737,1,0,0:0:0:0:
192,192,205766,1,0,0:0:0:0:
320,192,205795,1,0,0:0:0:0:
448,192,205823,1,0,0:0:0:0:
64,192,205852,1,0,0:0:0:0:
192,192,205880,1,0,0:0:0:0:
320,192,205909,1,0,0:0:0:0:
448,192,205937,1,0,0:0:0:0:
64,192,205966,128,0,206309:0:0:0:0:
192,192,205966,128,0,206137:0:0:0:0:
192,192,206309,1,0,0:0:0:0:
320,192,206309,1,0,0:0:0:0:
448,192,206309,1,0,0:0:0:0:
64,192,206480,1,0,0:0:0:0:
192,192,206480,1,0,0:0:0:0:
448,192,206480,1,0,0:0:0:0:
64,192,206652,1,0,0:0:0:0:
192,192,206652,1,0,0:0:0:0:
320,192,206652,1,0,0:0:0:0:
64,192,206823,1,0,0:0:0:0:
320,192,206823,1,0,0:0:0:0:
448,192,206823,1,0,0:0:0:0:
64,192,206995,1,0,0:0:0:0:
192,192,206995,1,0,0:0:0:0:
320,192,206995,1,0,0:0:0:0:
192,192,207166,1,0,0:0:0:0:
320,192,207166,1,0,0:0:0:0:
448,192,207166,1,0,0:0:0:0:
64,192,207337,1,0,0:0:0:0:
192,192,207337,1,0,0:0:0:0:
448,192,207337,1,0,0:0:0:0:
64,192,207509,1,0,0:0:0:0:
320,192,207509,1,0,0:0:0:0:
448,192,207509,1,0,0:0:0:0:
320,192,207680,128,0,207852:0:0:0:0:
64,192,207680,128,0,208023:0:0:0:0:
192,192,207680,128,0,207937:0:0:0:0:
448,192,208023,128,0,208366:0:0:0:0:
192,192,208023,128,0,208194:0:0:0:0:
320,192,208023,128,0,208280:0:0:0:0:
64,192,208366,1,0,0:0:0:0:
192,192,208394,1,0,0:0:0:0:
320,192,208423,1,0,0:0:0:0:
448,192,208452,1,0,0:0:0:0:
64,192,208480,1,0,0:0:0:0:
192,192,208509,1,0,0:0:0:0:
320,192,208537,1,0,0:0:0:0:
448,192,208566,1,0,0:0:0:0:
64,192,208594,1,0,0:0:0:0:
192,192,208623,1,0,0:0:0:0:
320,192,208652,1,0,0:0:0:0:
448,192,208680,1,0,0:0:0:0:
64,192,208709,128,0,208880:0:0:0:0:
192,192,208880,128,0,209052:0:0:0:0:
320,192,208880,128,0,209137:0:0:0:0:
448,192,208880,128,0,209394:0:0:0:0:
192,192,209394,128,0,209652:0:0:0:0:
320,192,209394,128,0,209566:0:0:0:0:
64,192,209394,128,0,209737:0:0:0:0:
448,192,209737,1,0,0:0:0:0:
320,192,209766,1,0,0:0:0:0:
192,192,209794,1,0,0:0:0:0:
64,192,209823,1,0,0:0:0:0:
448,192,209852,1,0,0:0:0:0:
320,192,209880,1,0,0:0:0:0:
192,192,209909,1,0,0:0:0:0:
64,192,209937,1,0,0:0:0:0:
448,192,209966,1,0,0:0:0:0:
320,192,209994,1,0,0:0:0:0:
192,192,210023,1,0,0:0:0:0:
64,192,210052,1,0,0:0:0:0:
448,192,210080,128,0,210252:0:0:0:0:
320,192,210080,1,0,0:0:0:0:
64,192,210252,128,0,210766:0:0:0:0:
320,192,210252,128,0,210423:0:0:0:0:
192,192,210252,128,0,210509:0:0:0:0:
448,192,210766,128,0,211109:0:0:0:0:
192,192,210766,128,0,210937:0:0:0:0:
320,192,210766,128,0,211023:0:0:0:0:
64,192,211109,1,0,0:0:0:0:
192,192,211137,1,0,0:0:0:0:
320,192,211166,1,0,0:0:0:0:
448,192,211194,1,0,0:0:0:0:
64,192,211223,1,0,0:0:0:0:
192,192,211252,1,0,0:0:0:0:
320,192,211280,1,0,0:0:0:0:
448,192,211309,1,0,0:0:0:0:
64,192,211337,1,0,0:0:0:0:
192,192,211366,1,0,0:0:0:0:
320,192,211394,1,0,0:0:0:0:
448,192,211423,1,0,0:0:0:0:
64,192,211452,128,0,211794:0:0:0:0:
192,192,211452,128,0,211623:0:0:0:0:
192,192,211794,1,0,0:0:0:0:
320,192,211794,1,0,0:0:0:0:
448,192,211794,1,0,0:0:0:0:
64,192,211966,1,0,0:0:0:0:
192,192,211966,1,0,0:0:0:0:
448,192,211966,1,0,0:0:0:0:
64,192,212137,1,0,0:0:0:0:
192,192,212137,1,0,0:0:0:0:
320,192,212137,1,0,0:0:0:0:
64,192,212309,1,0,0:0:0:0:
320,192,212309,1,0,0:0:0:0:
448,192,212309,1,0,0:0:0:0:
64,192,212480,1,0,0:0:0:0:
192,192,212480,1,0,0:0:0:0:
320,192,212480,1,0,0:0:0:0:
192,192,212652,1,0,0:0:0:0:
320,192,212652,1,0,0:0:0:0:
448,192,212652,1,0,0:0:0:0:
64,192,212823,1,0,0:0:0:0:
192,192,212823,1,0,0:0:0:0:
448,192,212823,1,0,0:0:0:0:
64,192,212994,1,0,0:0:0:0:
320,192,212994,1,0,0:0:0:0:
448,192,212994,1,0,0:0:0:0:
320,192,213166,1,0,0:0:0:0:
192,192,213166,1,0,0:0:0:0:
64,192,213166,1,0,0:0:0:0:
