osu file format v14

[General]
AudioFilename: audio.mp3
AudioLeadIn: 0
PreviewTime: 121982
Countdown: 1
SampleSet: Soft
StackLeniency: 0.7
Mode: 0
LetterboxInBreaks: 0
WidescreenStoryboard: 1

[Editor]
Bookmarks: 927,7607,37607,52607,112607,127607,140732,142607,153857
DistanceSpacing: 2
BeatDivisor: 4
GridSize: 8
TimelineZoom: 1

[Metadata]
Title:We Come Alive
TitleUnicode:We Come Alive
Artist:Manse ft. Cornelia Jakobs
ArtistUnicode:Manse ft. Cornelia Jakobs
Creator:Tsusumu
Version:Hard
Source:
Tags:
BeatmapID:2538072
BeatmapSetID:501858

[Difficulty]
HPDrainRate:6
CircleSize:3.8
OverallDifficulty:7
ApproachRate:7.5
SliderMultiplier:1.2
SliderTickRate:1

[Events]
//Background and Video events
0,0,"BG.jpg",0,0
//Break Periods
//Storyboard Layer 0 (Background)
//Storyboard Layer 1 (Fail)
//Storyboard Layer 2 (Pass)
//Storyboard Layer 3 (Foreground)
//Storyboard Layer 4 (Overlay)
//Storyboard Sound Samples

[TimingPoints]
107,468.75,4,2,0,40,1,0
107,-100,4,2,0,40,0,0
52607,-100,4,2,0,40,0,1
63857,-100,4,2,0,40,0,0
127607,-100,4,2,0,40,0,1
140732,-100,4,2,0,40,0,0
142607,-100,4,2,0,50,0,1
153857,-100,4,2,0,50,0,0

[Colours]
Combo1 : 226,234,94
Combo2 : 19,225,236
Combo3 : 220,14,66
Combo4 : 63,254,7

[HitObjects]
167,262,107,6,0,P|192:284|233:297,1,60
276,229,575,1,0,0:0:0:0:
276,229,810,2,0,P|303:216|325:196,1,60
267,133,1278,1,0,0:0:0:0:
267,133,1513,2,0,P|239:120|217:100,1,60
143,90,1982,2,0,P|187:35|257:37,1,120
314,50,2685,1,0,0:0:0:0:
267,133,2919,1,0,0:0:0:0:
267,133,3153,2,0,P|237:131|209:141,1,60
145,195,3622,1,0,0:0:0:0:
96,264,3857,6,0,P|71:219|91:133,1,120
137,93,4560,1,0,0:0:0:0:
137,93,4794,2,0,P|162:108|192:109,1,60
275,118,5263,2,0,P|300:102|330:101,1,60
400,55,5732,2,0,P|452:81|483:132,1,120
458,212,6435,1,0,0:0:0:0:
458,212,6669,2,0,P|455:241|444:269,1,60
360,267,7138,1,0,0:0:0:0:
360,267,7607,6,0,B|376:181|376:181|358:147,1,120
294,100,8310,1,0,0:0:0:0:
294,100,8544,2,0,B|276:185|276:185|290:215,1,120
280,298,9247,1,0,0:0:0:0:
202,264,9482,2,0,P|98:298|54:197,1,240
91,122,10653,1,0,0:0:0:0:
91,122,10888,2,0,L|146:145,1,60
229,155,11357,5,0,0:0:0:0:
203,74,11591,1,0,0:0:0:0:
203,74,11825,2,0,P|241:29|298:12,1,120
375,45,12528,1,0,0:0:0:0:
375,45,12763,2,0,L|417:116,1,60
331,136,13232,2,0,L|320:202,2,60
178,206,14169,2,0,P|148:204|121:216,1,60
163,288,14638,2,0,L|179:345,1,60
258,317,15107,6,0,L|241:259,1,60
262,178,15575,2,0,P|317:150|392:157,2,120
179,324,16982,2,0,B|252:353|286:294|286:294|320:236|386:263,1,240
457,307,18153,1,0,0:0:0:0:
457,307,18388,2,0,P|483:287|502:266,1,60
473,187,18857,5,0,0:0:0:0:
499,107,19091,1,0,0:0:0:0:
499,107,19325,2,0,P|494:28|416:45,1,180
336,72,20263,1,0,0:0:0:0:
390,136,20497,1,0,0:0:0:0:
390,136,20732,2,0,L|392:195,1,60
310,213,21200,2,0,L|307:136,1,60
227,126,21669,2,0,L|227:188,1,60
205,267,22138,1,0,0:0:0:0:
151,331,22372,1,0,0:0:0:0:
151,331,22607,6,0,B|55:315|55:315|26:286,1,120
44,214,23310,1,0,0:0:0:0:
44,214,23544,2,0,L|21:82,1,120
72,26,24247,1,0,0:0:0:0:
72,26,24482,2,0,P|125:38|200:13,1,120
255,70,25185,2,0,P|206:105|148:115,1,120
87,172,25888,1,0,0:0:0:0:
114,251,26122,1,0,0:0:0:0:
114,251,26357,6,0,L|261:255,1,120
217,336,27060,2,0,L|337:340,1,120
401,285,27763,1,0,0:0:0:0:
459,344,27997,1,0,0:0:0:0:
459,344,28232,2,0,L|485:290,1,60
451,213,28700,2,0,L|533:213,2,60
366,217,29403,2,0,L|310:257,2,60
415,148,30107,6,0,P|371:115|327:49,1,120
416,48,30810,1,0,0:0:0:0:
416,48,31044,2,0,L|468:93,1,60
500,161,31513,2,0,L|463:208,1,60
401,266,31982,2,0,B|337:290|291:253|291:253|235:212|174:249,1,240
230,311,33153,1,0,0:0:0:0:
148,330,33388,1,0,0:0:0:0:
74,288,33622,1,0,0:0:0:0:
74,288,33857,6,0,L|48:213,1,60
40,148,34325,2,0,P|91:118|123:68,1,120
183,9,35028,1,0,0:0:0:0:
242,68,35263,1,0,0:0:0:0:
314,110,35497,1,0,0:0:0:0:
314,110,35732,2,0,P|341:91|375:90,2,60
271,182,36435,1,0,0:0:0:0:
271,182,36669,2,0,L|211:220,1,60
232,297,37138,2,0,L|290:270,1,60
369,259,37607,6,0,B|421:222|394:153|394:153|369:103|430:43,1,240
303,159,39013,1,0,0:0:0:0:
249,94,39247,1,0,0:0:0:0:
157,194,39482,2,0,P|118:215|69:222,2,90
268,212,40419,2,0,L|233:261,1,60
180,326,40888,1,0,0:0:0:0:
22,267,41357,6,0,B|-19:218|23:158|23:158|59:115|20:37,1,240
169,128,42763,1,0,0:0:0:0:
215,197,42997,1,0,0:0:0:0:
252,121,43232,2,0,P|317:114|370:64,1,120
380,0,43935,2,0,P|315:7|262:57,1,120
252,121,44638,1,0,0:0:0:0:
309,181,44872,1,0,0:0:0:0:
354,252,45107,6,0,B|305:289|305:289|249:241|249:241|209:201|209:201|157:235,1,240
99,275,46278,1,0,0:0:0:0:
99,190,46513,1,0,0:0:0:0:
30,237,46747,1,0,0:0:0:0:
99,275,46982,2,0,B|143:322|143:322|197:331,1,120
197,246,47685,2,0,B|152:198|152:198|98:189,1,120
117,106,48388,2,0,L|183:108,1,60
275,116,48857,5,0,0:0:0:0:
275,116,48974,1,0,0:0:0:0:
275,116,49091,1,0,0:0:0:0:
275,116,49208,1,0,0:0:0:0:
275,116,49325,2,0,L|308:146,3,30
264,203,49794,2,0,L|233:180,3,30
315,286,50263,1,0,0:0:0:0:
315,286,50380,1,0,0:0:0:0:
315,286,50497,1,0,0:0:0:0:
315,286,50614,1,0,0:0:0:0:
315,286,50732,6,0,L|262:266,3,30
217,270,51200,2,0,L|175:247,3,30
191,344,51669,2,0,L|149:321,3,30
102,293,52138,2,0,P|68:276|58:242,1,60
72,137,52607,6,0,P|92:114|106:88,1,60
146,201,53075,2,0,P|126:228|113:255,2,60
187,93,53778,1,0,0:0:0:0:
187,93,53896,1,0,0:0:0:0:
187,93,54013,2,0,L|231:40,1,60
401,66,54482,6,0,L|432:130,1,60
421,239,54950,2,0,L|404:303,1,60
293,298,55419,1,0,0:0:0:0:
182,324,55653,1,0,0:0:0:0:
182,324,55771,1,0,0:0:0:0:
182,324,55888,2,0,P|152:326|122:321,1,60
207,197,56357,6,0,P|227:174|241:148,1,60
127,116,56825,2,0,P|106:94|89:69,2,60
250,93,57528,1,0,0:0:0:0:
250,93,57646,1,0,0:0:0:0:
249,92,57763,2,0,L|317:70,1,60
467,128,58232,6,0,L|401:166,1,60
343,273,58700,2,0,L|405:233,1,60
493,173,59169,1,0,0:0:0:0:
471,296,59403,1,0,0:0:0:0:
471,296,59521,1,0,0:0:0:0:
471,296,59638,2,0,P|439:326|404:344,1,60
259,345,60107,6,0,P|228:342|200:334,1,60
304,230,60575,2,0,P|327:211|359:194,2,60
192,257,61278,1,0,0:0:0:0:
192,257,61396,1,0,0:0:0:0:
193,258,61513,2,0,L|121:228,1,60
77,130,61982,6,0,L|137:131,1,60
228,54,62450,2,0,L|168:54,1,60
47,50,62919,1,0,0:0:0:0:
8,168,63153,1,0,0:0:0:0:
8,168,63271,1,0,0:0:0:0:
8,168,63388,2,0,P|1:211|7:250,1,60
256,192,63857,12,0,67138,0:0:0:0:
20,340,67607,6,0,P|83:339|128:288,1,120
140,219,68310,1,0,0:0:0:0:
140,219,68544,2,0,P|197:208|241:246,1,120
317,282,69247,1,0,0:0:0:0:
317,282,69482,2,0,L|334:41,1,240
251,54,70653,1,0,0:0:0:0:
251,54,70888,2,0,P|217:33|195:30,1,60
113,39,71357,5,0,0:0:0:0:
46,90,71591,1,0,0:0:0:0:
46,90,71825,2,0,P|83:135|140:152,1,120
142,236,72528,1,0,0:0:0:0:
142,236,72763,2,0,L|83:248,1,60
103,330,73232,2,0,L|32:377,2,60
270,338,74169,2,0,P|299:339|326:327,1,60
284,254,74638,2,0,L|268:197,1,60
331,141,75107,6,0,L|348:199,1,60
427,224,75575,2,0,P|429:162|391:97,2,120
487,381,76982,2,0,B|450:320|502:277|554:234|506:153,1,240
486,75,78153,1,0,0:0:0:0:
486,75,78388,2,0,P|462:56|441:34,1,60
357,38,78857,5,0,0:0:0:0:
385,116,79091,1,0,0:0:0:0:
385,116,79325,2,0,P|329:172|281:109,1,180
214,58,80263,1,0,0:0:0:0:
135,28,80497,1,0,0:0:0:0:
135,28,80732,2,0,P|131:57|120:85,1,60
41,57,81200,2,0,P|36:86|24:114,1,60
91,165,81669,2,0,P|81:193|65:218,1,60
31,295,82138,1,0,0:0:0:0:
114,296,82372,1,0,0:0:0:0:
114,296,82607,6,0,P|164:328|222:337,1,120
286,281,83310,1,0,0:0:0:0:
272,198,83544,2,0,P|212:198|158:173,1,120
162,88,84247,1,0,0:0:0:0:
162,88,84482,2,0,P|215:76|290:101,1,120
331,157,85185,2,0,P|389:168|446:152,1,120
409,76,85888,1,0,0:0:0:0:
343,23,86122,1,0,0:0:0:0:
343,23,86357,6,0,B|319:12|319:12|231:47,1,120
251,128,87060,2,0,B|162:157|162:157|125:141,1,120
84,82,87763,1,0,0:0:0:0:
51,159,87997,1,0,0:0:0:0:
51,159,88232,2,0,P|60:187|80:209,1,60
133,274,88700,2,0,L|85:334,2,60
208,236,89403,2,0,L|236:305,2,60
179,156,90107,6,0,P|232:145|311:157,1,120
375,181,90810,1,0,0:0:0:0:
375,181,91044,2,0,L|387:239,1,60
464,205,91513,2,0,L|442:131,1,60
403,75,91982,2,0,B|339:99|293:62|293:62|261:100|237:21|176:58,1,240
128,122,93153,1,0,0:0:0:0:
160,199,93388,1,0,0:0:0:0:
206,129,93622,1,0,0:0:0:0:
206,129,93857,6,0,P|226:147|240:177,1,60
265,256,94325,2,0,P|327:272|385:256,1,120
463,245,95028,1,0,0:0:0:0:
471,328,95263,1,0,0:0:0:0:
393,296,95497,1,0,0:0:0:0:
393,296,95732,2,0,P|378:321|373:351,2,60
429,220,96435,1,0,0:0:0:0:
450,138,96669,2,0,L|429:80,1,60
354,119,97138,2,0,L|333:59,1,60
345,225,97607,6,0,B|288:254|240:197|240:197|201:156|123:164,1,240
170,318,99013,1,0,0:0:0:0:
92,267,99247,1,0,0:0:0:0:
94,180,99482,2,0,P|51:192|12:222,2,90
173,211,100419,2,0,P|198:187|220:144,1,60
235,91,100888,1,0,0:0:0:0:
457,69,101357,6,0,B|405:32|349:80|349:80|309:120|228:88,1,240
149,62,102763,1,0,0:0:0:0:
80,117,102997,1,0,0:0:0:0:
46,222,103232,2,0,P|111:215|164:165,1,120
186,77,103935,2,0,P|121:84|68:134,1,120
46,222,104638,1,0,0:0:0:0:
11,324,104872,1,0,0:0:0:0:
110,305,105107,6,0,B|290:335|290:335|326:326|335:292,1,240
403,241,106278,1,0,0:0:0:0:
441,162,106513,1,0,0:0:0:0:
355,170,106747,1,0,0:0:0:0:
257,240,106982,2,0,B|203:231|203:231|159:184,1,120
150,100,107685,2,0,B|204:109|204:109|249:157,1,120
257,240,108388,2,0,L|306:301,1,60
140,73,108857,6,0,P|157:95|165:127,1,60
149,244,109325,2,0,P|211:260|269:244,1,120
358,321,110028,1,0,0:0:0:0:
358,200,110263,1,0,0:0:0:0:
455,269,110497,1,0,0:0:0:0:
275,196,110732,2,0,P|280:226|295:252,2,60
355,106,111435,1,0,0:0:0:0:
473,126,111669,2,0,L|413:164,1,60
304,139,112138,2,0,L|354:106,1,60
366,225,112607,6,0,P|346:258|324:279,1,60
229,209,113075,2,0,P|209:236|196:263,2,60
142,141,113778,1,0,0:0:0:0:
142,141,113896,1,0,0:0:0:0:
142,141,114013,2,0,L|123:221,1,60
62,300,114482,6,0,L|52:240,1,60
160,292,114950,2,0,L|170:357,1,60
261,274,115419,1,0,0:0:0:0:
364,353,115653,1,0,0:0:0:0:
364,353,115771,1,0,0:0:0:0:
364,353,115888,2,0,P|407:354|445:343,1,60
376,227,116357,6,0,P|396:204|410:178,1,60
379,63,116825,2,0,P|359:90|346:117,2,60
267,52,117528,1,0,0:0:0:0:
267,52,117646,1,0,0:0:0:0:
268,53,117763,2,0,L|254:111,1,60
141,68,118232,6,0,L|67:67,1,60
6,160,118700,2,0,L|65:160,1,60
169,222,119169,1,0,0:0:0:0:
250,324,119403,1,0,0:0:0:0:
250,324,119521,1,0,0:0:0:0:
250,324,119638,2,0,P|206:325|168:314,1,60
290,255,120107,6,0,P|310:232|324:206,1,60
384,102,120575,2,0,P|404:75|435:50,2,60
271,111,121278,1,0,0:0:0:0:
271,111,121396,1,0,0:0:0:0:
270,112,121513,2,0,L|217:84,1,60
99,59,121982,6,0,L|25:58,1,60
6,160,122450,2,0,L|65:160,1,60
169,222,122919,1,0,0:0:0:0:
250,324,123153,1,0,0:0:0:0:
250,324,123271,1,0,0:0:0:0:
250,324,123388,2,0,P|206:325|168:314,1,60
96,285,123857,5,0,0:0:0:0:
96,285,123974,1,0,0:0:0:0:
96,285,124091,1,0,0:0:0:0:
96,285,124208,1,0,0:0:0:0:
96,285,124325,2,0,L|98:240,3,30
172,231,124794,2,0,L|168:201,3,30
111,144,125263,1,0,0:0:0:0:
111,144,125380,1,0,0:0:0:0:
111,144,125497,1,0,0:0:0:0:
111,144,125614,1,0,0:0:0:0:
111,144,125732,6,0,L|78:173,3,30
191,110,126200,2,0,L|193:81,3,30
268,124,126669,2,0,L|266:170,3,30
349,115,127138,2,0,P|353:149|345:197,1,60
263,257,127607,6,0,L|301:323,1,60
183,260,128075,2,0,L|150:314,2,60
158,151,128778,1,0,0:0:0:0:
158,151,128896,1,0,0:0:0:0:
158,151,129013,2,0,L|128:98,1,60
19,48,129482,6,0,L|18:117,1,60
83,208,129950,2,0,L|93:273,1,60
207,300,130419,1,0,0:0:0:0:
328,343,130653,1,0,0:0:0:0:
328,343,130771,1,0,0:0:0:0:
328,343,130888,2,0,P|371:344|409:333,1,60
403,221,131357,6,0,P|423:198|437:172,1,60
376,68,131825,2,0,P|356:95|343:122,2,60
271,170,132528,1,0,0:0:0:0:
271,170,132646,1,0,0:0:0:0:
272,171,132763,2,0,L|258:229,1,60
174,142,133232,6,0,L|107:108,1,60
12,166,133700,2,0,L|65:191,1,60
169,222,134169,1,0,0:0:0:0:
249,324,134403,1,0,0:0:0:0:
249,324,134521,1,0,0:0:0:0:
249,324,134638,2,0,P|205:325|167:314,1,60
258,236,135107,6,0,B|278:213|278:213|278:180,1,60
396,168,135575,2,0,B|396:197|396:197|376:220,2,60
307,102,136278,1,0,0:0:0:0:
307,102,136396,1,0,0:0:0:0:
306,103,136513,2,0,L|249:84,1,60
141,68,136982,6,0,L|67:67,1,60
6,160,137450,2,0,L|65:160,1,60
169,222,137919,1,0,0:0:0:0:
250,324,138153,1,0,0:0:0:0:
250,324,138271,1,0,0:0:0:0:
250,324,138388,2,0,P|206:325|168:314,1,60
73,293,138857,6,0,L|70:358,1,60
141,256,139325,2,0,L|143:196,1,60
192,86,139794,1,0,0:0:0:0:
252,200,140028,1,0,0:0:0:0:
252,200,140146,1,0,0:0:0:0:
252,200,140263,2,0,P|296:201|334:190,1,60
294,78,140732,6,0,P|346:78|396:94,2,90
114,90,141786,2,0,P|157:79|202:80,1,90
350,269,142607,6,0,P|360:302|389:333,1,60
465,243,143075,2,0,P|455:210|426:179,2,60
350,269,143778,1,0,0:0:0:0:
350,269,143896,1,0,0:0:0:0:
350,269,144013,2,0,L|320:216,1,60
250,119,144482,6,0,L|304:63,1,60
172,62,144950,2,0,L|113:116,1,60
70,208,145419,1,0,0:0:0:0:
28,106,145653,1,0,0:0:0:0:
28,106,145771,1,0,0:0:0:0:
28,106,145888,2,0,P|50:69|59:30,1,60
172,62,146357,6,0,P|201:67|231:66,1,60
303,162,146825,2,0,P|323:135|336:108,2,60
419,118,147528,1,0,0:0:0:0:
419,118,147646,1,0,0:0:0:0:
420,119,147763,2,0,L|406:177,1,60
326,267,148232,6,0,P|297:260|259:233,1,60
151,246,148700,2,0,P|125:261|96:268,1,60
86,148,149169,1,0,0:0:0:0:
151,246,149403,1,0,0:0:0:0:
151,246,149521,1,0,0:0:0:0:
151,246,149638,2,0,P|195:247|233:236,1,60
329,229,150107,6,0,B|349:206|349:173,1,60
230,156,150575,2,0,B|230:127|254:92,2,60
244,278,151278,1,0,0:0:0:0:
244,278,151396,1,0,0:0:0:0:
244,280,151513,2,0,L|299:305,1,60
419,306,151982,6,0,L|478:306,1,60
394,222,152450,2,0,L|453:222,1,60
379,127,152919,1,0,0:0:0:0:
306,44,153153,1,0,0:0:0:0:
306,44,153271,1,0,0:0:0:0:
306,44,153388,2,0,P|262:45|224:34,1,60
256,192,153857,12,0,157607,0:0:0:0:
