osu file format v14

[General]
AudioFilename: Mad World (Station Earth Remix).mp3
AudioLeadIn: 0
PreviewTime: 54194
Countdown: 0
SampleSet: Soft
StackLeniency: 0.3
Mode: 0
LetterboxInBreaks: 0
WidescreenStoryboard: 0

[Editor]
DistanceSpacing: 1.4
BeatDivisor: 4
GridSize: 4
TimelineZoom: 1.9

[Metadata]
Title:Mad World (Station Earth Remix)
TitleUnicode:Mad World (Station Earth Remix)
Artist:Manoeuvres
ArtistUnicode:Manoeuvres
Creator:Bearizm
Version:Divine
Source:
Tags:Liquid Drum and Bass DnB Liquicity appleeaterx HootOwlStar
BeatmapID:936026
BeatmapSetID:434391

[Difficulty]
HPDrainRate:6
CircleSize:4
OverallDifficulty:8.3
ApproachRate:9.1
SliderMultiplier:1.6
SliderTickRate:2

[Events]
//Background and Video events
0,0,"Cold Green Eyes v2.jpg",0,0
//Break Periods
//Storyboard Layer 0 (Background)
//Storyboard Layer 1 (Fail)
//Storyboard Layer 2 (Pass)
//Storyboard Layer 3 (Foreground)
//Storyboard Sound Samples

[TimingPoints]
70,344.827586206897,4,2,2,5,1,0
32828,-133.333333333333,4,2,2,50,0,0
33173,-133.333333333333,4,2,2,60,0,0
49725,-100,4,2,2,60,0,0
52483,337.078651685393,4,2,2,70,1,0
53494,352.941176470588,4,2,2,70,1,0
53846,348.837209302326,4,2,2,70,1,0
55241,344.827586206897,4,2,1,80,1,0
77309,-100,4,2,1,70,0,0
97999,-100,4,2,2,70,0,0
99378,-100,4,2,1,80,0,0
118689,-100,4,2,1,5,0,0
121447,-100,4,2,1,20,0,0

[Colours]
Combo1 : 87,87,255
Combo2 : 192,192,192
Combo3 : 128,128,128
Combo4 : 255,108,108
Combo5 : 255,59,59
Combo6 : 140,140,255

[HitObjects]
256,192,30414,12,2,32828,0:3:0:0:
164,156,33173,6,0,L|284:140,1,120.000004577637,2|8,0:0|0:0,0:0:0:0:
368,132,33690,2,0,P|393:146|413:171,1,60.0000022888184,2|0,0:0|0:0,0:0:0:0:
336,216,34035,2,0,P|344:244|340:276,1,60.0000022888184,2|8,0:0|0:0,0:0:0:0:
284,336,34380,1,0,0:0:0:0:
200,324,34552,2,0,L|140:316,1,60.0000022888184
56,304,34897,1,8,0:0:0:0:
108,240,35070,5,2,0:0:0:0:
23,229,35242,1,0,0:0:0:0:
4,148,35414,1,0,0:0:0:0:
78,105,35587,1,10,0:0:0:0:
140,161,35759,1,0,0:0:0:0:
224,148,35932,70,0,L|344:132,1,120.000004577637,0|8,0:0|0:0,0:0:0:0:
408,80,36449,2,0,P|416:52|416:20,1,60.0000022888184,2|0,0:0|0:0,0:0:0:0:
342,132,36794,2,0,P|342:161|350:190,1,60.0000022888184,2|8,0:0|0:0,0:0:0:0:
408,252,37138,1,0,0:0:0:0:
348,312,37311,6,0,L|228:304,1,120.000004577637,2|8,0:0|0:0,0:0:0:0:
144,300,37828,1,0,0:0:0:0:
188,228,38001,2,0,B|200:200|200:200|188:112,1,120.000004577637,2|8,0:0|0:0,0:0:0:0:
172,28,38518,1,0,0:0:0:0:
272,112,38690,70,0,P|328:116|372:72,1,120.000004577637,2|8,0:0|0:0,0:0:0:0:
500,100,39207,2,0,P|468:104|444:116,1,60.0000022888184,2|0,0:0|0:0,0:0:0:0:
380,184,39552,2,0,P|412:188|436:200,1,60.0000022888184,2|8,0:0|0:0,0:0:0:0:
468,280,39897,1,0,0:0:0:0:
392,320,40070,2,0,L|332:312,1,60.0000022888184
248,300,40414,1,8,0:0:0:0:
213,224,40587,5,2,0:0:0:0:
164,292,40759,1,0,0:0:0:0:
84,266,40932,1,0,0:0:0:0:
84,182,41104,1,10,0:0:0:0:
164,156,41276,1,0,0:0:0:0:
213,224,41449,70,0,L|224:100,1,120.000004577637,0|8,0:0|0:0,0:0:0:0:
360,96,41966,2,0,P|388:88|416:72,1,60.0000022888184,2|0,0:0|0:0,0:0:0:0:
302,165,42311,2,0,P|327:179|358:187,1,60.0000022888184,2|8,0:0|0:0,0:0:0:0:
288,52,42656,1,0,0:0:0:0:
223,104,42828,6,0,L|213:224,1,120.000004577637,2|8,0:0|0:0,0:0:0:0:
204,308,43345,1,0,0:0:0:0:
272,360,43518,2,0,P|332:372|384:332,1,120.000004577637,2|12,0:0|0:0,0:0:0:0:
400,260,44035,1,0,0:0:0:0:
336,204,44207,70,0,L|216:220,1,120.000004577637,4|8,1:0|0:0,0:0:0:0:
152,164,44725,2,0,P|164:136|168:104,1,60.0000022888184,2|0,0:0|1:0,0:0:0:0:
92,228,45070,2,0,P|96:257|108:285,1,60.0000022888184,2|8,0:0|0:0,0:0:0:0:
172,340,45414,1,2,0:0:0:0:
236,284,45587,6,0,P|280:280|328:332,1,120.000004577637,0|8,1:0|0:0,0:0:0:0:
412,312,46104,1,2,0:0:0:0:
392,232,46276,2,0,P|396:200|408:176,1,60.0000022888184,0|0,1:0|0:0,0:0:0:0:
456,64,46621,2,0,P|469:90|472:120,1,60.0000022888184,10|0,0:0|0:0,0:0:0:0:
308,164,46966,70,0,L|188:152,1,120.000004577637,0|8,1:0|0:0,0:0:0:0:
112,188,47483,2,0,P|100:216|100:248,1,60.0000022888184,2|0,0:0|1:0,0:0:0:0:
172,361,47828,2,0,P|171:331|160:304,1,60.0000022888184,2|8,0:0|0:0,0:0:0:0:
90,351,48173,1,2,0:0:0:0:
220,248,48345,6,0,L|340:260,1,120.000004577637,0|8,1:0|0:0,0:0:0:0:
400,320,48863,1,2,0:0:0:0:
436,244,49035,2,0,B|445:215|445:215|429:127,1,120.000004577637,0|12,1:0|0:0,0:0:0:0:
408,44,49552,1,2,0:0:0:0:
328,128,49725,5,0,1:0:0:0:
288,133,49811,1,0,0:0:0:0:
249,123,49897,1,0,0:0:0:0:
216,102,49983,1,0,0:0:0:0:
181,82,50070,1,8,1:2:0:0:
142,77,50156,1,0,0:0:0:0:
104,89,50242,1,0,0:0:0:0:
75,115,50328,1,0,0:0:0:0:
60,152,50414,6,0,L|64:192,3,40,0|0|0|0,1:0|0:0|0:0|0:0,0:0:0:0:
112,280,50759,2,0,L|108:319,3,40,8|0|0|0,1:2|0:0|0:0|0:0,0:0:0:0:
188,220,51104,69,0,1:0:0:0:
227,218,51190,1,0,0:0:0:0:
266,229,51276,1,0,0:0:0:0:
304,240,51363,1,0,0:0:0:0:
344,242,51449,1,8,1:2:0:0:
377,222,51535,1,0,0:0:0:0:
376,183,51621,1,0,0:0:0:0:
344,163,51707,1,0,0:0:0:0:
308,164,51794,6,0,L|310:123,3,40,0|0|0|0,1:0|0:0|0:0|0:0,0:0:0:0:
220,300,52138,2,0,L|224:344,3,40,0|0|0|0,1:0|0:0|0:0|0:0,0:0:0:0:
116,272,52483,37,8,3:0:0:0:
96,268,52567,1,8,3:0:0:0:
244,128,52735,1,8,3:0:0:0:
264,124,52820,1,8,3:0:0:0:
124,192,52988,1,4,3:0:0:0:
104,188,53072,1,4,3:0:0:0:
227,218,53241,1,4,3:0:0:0:
247,214,53325,1,4,3:0:0:0:
140,60,53494,1,8,3:0:0:0:
124,192,53670,1,4,3:0:0:0:
264,124,53846,5,8,3:0:0:0:
340,144,54020,1,8,3:0:0:0:
359,68,54194,1,8,3:0:0:0:
284,47,54369,1,8,3:0:0:0:
279,115,54543,69,4,3:0:0:0:
330,128,54718,1,4,3:0:0:0:
344,75,54892,1,6,3:0:0:0:
293,62,55066,1,4,3:0:0:0:
172,192,55241,54,0,P|164:232|172:272,1,80,4|0,3:0|0:0,0:0:0:0:
279,115,55585,1,8,0:3:0:0:
176,56,55758,2,0,L|96:64,1,80,2|0,0:0|0:0,0:0:0:0:
172,192,56103,1,0,3:0:0:0:
288,100,56275,2,0,P|296:60|288:20,1,80,8|2,0:3|0:0,0:0:0:0:
174,208,56620,6,0,L|190:368,1,160,4|8,3:0|0:3,0:0:0:0:
272,232,57137,1,2,0:0:0:0:
84,304,57309,1,0,0:0:0:0:
296,222,57482,1,0,3:0:0:0:
92,172,57654,1,8,0:3:0:0:
240,328,57827,1,2,0:0:0:0:
300,136,57999,70,0,P|304:96|292:56,1,80,4|0,3:0|0:0,0:0:0:0:
184,32,58344,1,8,0:3:0:0:
112,168,58516,2,0,L|192:156,1,80,2|0,0:0|0:0,0:0:0:0:
300,136,58861,1,0,3:0:0:0:
240,328,59034,2,0,P|228:288|236:248,1,80,8|2,0:3|0:0,0:0:0:0:
300,136,59378,6,0,L|460:152,1,160,4|8,3:0|0:3,0:0:0:0:
384,236,59896,1,2,0:0:0:0:
344,60,60068,2,0,P|312:36|272:28,1,80,0|0,0:0|3:0,0:0:0:0:
438,150,60413,2,0,P|478:142|514:118,1,80,10|2,0:3|0:0,0:0:0:0:
300,136,60758,70,0,B|288:176|288:176|308:296,1,160,4|8,3:0|0:3,0:0:0:0:
462,235,61275,2,0,P|422:228|384:236,1,80,2|0,0:0|0:0,0:0:0:0:
279,288,61620,1,0,3:0:0:0:
124,248,61792,2,0,L|136:168,1,80,8|2,0:3|0:0,0:0:0:0:
276,272,62137,6,0,L|264:112,1,160,4|8,3:0|0:3,0:0:0:0:
252,0,62654,1,2,0:0:0:0:
220,180,62827,1,0,0:0:0:0:
364,112,62999,1,0,3:0:0:0:
168,68,63172,1,8,0:3:0:0:
388,116,63344,1,2,0:0:0:0:
120,192,63516,69,4,3:0:0:0:
308,228,63689,1,0,0:0:0:0:
99,189,63861,1,8,0:3:0:0:
192,328,64034,2,0,P|204:288|200:248,1,80,2|0,0:0|0:0,0:0:0:0:
92,276,64378,1,0,3:0:0:0:
280,348,64551,2,0,L|360:336,1,80,8|2,0:3|0:0,0:0:0:0:
496,188,64896,6,0,P|454:125|379:135,1,160,4|8,3:0|0:3,0:0:0:0:
276,184,65413,1,0,0:0:0:0:
184,120,65585,2,0,P|172:80|172:40,1,80,2|0,0:0|3:0,0:0:0:0:
284,196,65930,2,0,P|280:236|264:276,1,80,10|2,0:3|0:0,0:0:0:0:
112,172,66275,70,0,P|156:152|180:236,1,160,4|8,3:0|0:3,0:0:0:0:
84,288,66792,2,0,P|45:276|4:276,1,80,2|0,0:0|0:0,0:0:0:0:
184,352,67137,1,0,3:0:0:0:
272,288,67309,2,0,P|284:248|284:208,1,80,8|0,0:3|0:0,0:0:0:0:
224,88,67654,6,0,P|253:156|328:149,1,160,4|8,3:0|0:3,0:0:0:0:
412,72,68172,1,2,0:0:0:0:
376,252,68344,1,0,0:0:0:0:
328,149,68516,1,0,3:0:0:0:
512,240,68689,1,8,0:3:0:0:
464,343,68861,1,2,0:0:0:0:
417,151,69034,70,0,P|408:112|411:70,1,80,4|0,3:0|0:0,0:0:0:0:
512,240,69378,1,8,0:3:0:0:
328,149,69551,2,0,P|288:140|216:220,1,160,2|0,0:0|3:0,0:0:0:0:
268,356,70068,2,0,P|276:316|268:276,1,80,8|2,0:3|0:0,0:0:0:0:
100,352,70413,6,0,P|138:370|191:290,1,160,4|8,3:0|0:3,0:0:0:0:
112,168,70930,1,2,0:0:0:0:
12,224,71103,2,0,P|8:264|16:304,1,80,0|0,0:0|3:0,0:0:0:0:
120,148,71447,2,0,P|127:108|123:69,1,80,10|0,0:3|0:0,0:0:0:0:
208,196,71792,70,0,B|284:172|284:220|364:196,1,160,4|8,3:0|0:3,0:0:0:0:
256,344,72309,2,0,P|244:304|248:264,1,80,2|0,0:0|0:0,0:0:0:0:
356,292,72654,1,0,3:0:0:0:
324,124,72827,1,8,0:3:0:0:
359,310,72999,1,2,0:0:0:0:
448,204,73172,6,0,B|408:196|408:196|328:212|328:212|288:204,1,160,4|8,3:0|0:3,0:0:0:0:
184,172,73689,1,2,0:0:0:0:
324,124,73861,1,0,0:0:0:0:
120,68,74034,1,0,3:0:0:0:
272,200,74206,1,8,0:3:0:0:
232,12,74378,1,2,0:0:0:0:
144,252,74551,69,4,3:0:0:0:
272,200,74723,1,0,0:0:0:0:
72,144,74896,1,8,0:3:0:0:
252,304,75068,2,0,L|332:292,1,80,2|0,0:0|0:0,0:0:0:0:
144,252,75413,1,0,3:0:0:0:
40,296,75585,2,0,P|32:336|44:376,1,80,8|2,0:3|0:0,0:0:0:0:
152,236,75930,6,0,B|168:200|168:200|152:80,2,160,4|8|0,3:0|0:3|0:0,0:0:0:0:
56,180,76792,1,0,3:0:0:0:
260,116,76965,1,10,0:3:0:0:
28,56,77137,1,0,3:0:0:0:
160,256,77309,38,0,L|280:244,1,120,4|0,3:1|0:0,0:0:0:0:
292,232,77654,2,0,P|287:271|300:309,1,80,8|0,0:3|0:0,0:0:0:0:
404,220,77999,1,0,0:0:0:0:
320,144,78172,1,0,3:0:0:0:
404,72,78344,2,0,L|484:80,1,80,8|0,0:3|0:0,0:0:0:0:
304,156,78689,6,0,L|140:140,1,160,0|8,3:0|0:3,0:0:0:0:
44,92,79206,2,0,P|56:132|60:172,1,80,2|0,0:0|0:0,0:0:0:0:
24,280,79551,1,0,3:0:0:0:
124,332,79723,2,0,L|204:320,1,80,8|0,0:3|0:0,0:0:0:0:
324,300,80068,69,0,3:0:0:0:
148,240,80241,1,0,0:0:0:0:
220,317,80413,1,8,0:3:0:0:
360,200,80585,1,2,0:0:0:0:
176,140,80758,1,2,0:0:0:0:
252,220,80930,1,0,3:0:0:0:
288,108,81103,2,0,P|284:68|268:32,1,80,8|0,0:3|0:0,0:0:0:0:
360,200,81447,6,0,P|385:168|399:132,1,80,0|0,3:0|0:0,0:0:0:0:
416,20,81792,1,8,0:3:0:0:
436,242,81965,2,0,P|392:226|324:302,1,160,2|0,0:0|3:0,0:0:0:0:
208,296,82482,2,0,P|215:335|230:372,1,80,10|2,0:3|0:0,0:0:0:0:
128,216,82827,70,0,P|105:249|89:285,1,80,0|0,3:0|0:0,0:0:0:0:
56,124,83172,2,0,P|100:136|172:56,1,160,8|0,0:3|0:0,0:0:0:0:
40,108,83689,1,0,3:0:0:0:
128,216,83861,2,0,L|208:208,1,80,8|2,0:3|0:0,0:0:0:0:
332,168,84206,6,0,P|320:208|316:248,1,80,0|0,3:0|0:0,0:0:0:0:
260,32,84551,2,0,P|336:31|379:94,1,160,8|0,0:3|0:0,0:0:0:0:
244,128,85068,1,0,3:0:0:0:
408,220,85241,2,0,P|448:204|492:204,1,80,8|0,0:3|0:0,0:0:0:0:
364,316,85585,70,0,L|284:304,1,80,0|0,3:0|0:0,0:0:0:0:
168,200,85930,1,8,0:3:0:0:
184,368,86103,2,0,P|196:328|196:288,1,80,2|0,0:0|0:0,0:0:0:0:
72,244,86447,1,0,3:0:0:0:
292,200,86620,2,0,L|372:184,1,80,8|2,0:3|0:0,0:0:0:0:
185,74,86965,6,0,P|177:114|189:154,1,80,0|0,3:0|0:0,0:0:0:0:
359,302,87309,2,0,P|331:202|283:202,1,160,8|0,0:3|0:0,0:0:0:0:
200,264,87827,1,0,3:0:0:0:
96,224,87999,1,10,0:3:0:0:
224,272,88172,1,0,0:3:0:0:
32,352,88344,70,0,P|20:312|28:272,1,80,0|0,3:0|0:0,0:0:0:0:
168,172,88689,1,8,0:3:0:0:
88,92,88861,2,0,L|8:104,1,80,2|0,0:0|0:0,0:0:0:0:
184,180,89206,1,0,3:0:0:0:
224,24,89378,1,8,0:3:0:0:
200,188,89551,1,2,0:0:0:0:
340,116,89723,6,0,P|300:104|264:112,1,80,0|0,3:0|0:0,0:0:0:0:
380,188,90068,1,8,0:3:0:0:
380,188,90241,2,0,L|396:28,1,160,2|0,0:0|3:0,0:0:0:0:
276,260,90758,2,0,P|284:296|288:344,1,80,8|2,0:3|0:0,0:0:0:0:
176,204,91103,69,0,3:0:0:0:
368,272,91275,1,0,0:0:0:0:
212,372,91447,2,0,L|132:364,1,80,8|2,0:3|0:0,0:0:0:0:
56,280,91792,1,2,0:0:0:0:
176,204,91965,1,0,3:0:0:0:
60,116,92137,2,0,L|72:196,1,80,8|2,0:3|0:0,0:0:0:0:
203,46,92482,6,0,L|175:206,1,160,0|8,3:0|0:3,0:0:0:0:
312,288,92999,1,2,0:0:0:0:
384,204,93172,2,0,P|424:196|464:208,1,80,0|0,0:0|3:0,0:0:0:0:
312,288,93516,2,0,P|285:257|275:216,1,80,10|0,0:3|0:0,0:0:0:0:
420,308,93861,70,0,P|406:346|376:375,1,80,0|0,3:0|0:0,0:0:0:0:
216,356,94206,2,0,L|56:336,1,160,8|0,0:3|0:0,0:0:0:0:
8,236,94723,1,0,3:0:0:0:
116,260,94896,2,0,P|152:244|176:208,1,80,8|0,0:3|0:0,0:0:0:0:
208,104,95241,5,0,3:0:0:0:
308,276,95413,1,2,0:0:0:0:
320,160,95585,69,8,0:3:0:0:
216,336,95758,1,2,0:0:0:0:
308,276,95930,6,0,L|388:284,1,80,2|0,0:0|3:0,0:0:0:0:
168,216,96275,2,0,L|88:228,1,80,8|2,0:3|0:0,0:0:0:0:
232,68,96620,70,0,P|244:108|240:148,1,80,0|0,3:3|0:3,0:3:0:0:
132,116,96965,1,8,0:3:0:0:
224,256,97137,2,0,L|304:244,1,80,2|0,0:0|0:0,0:0:0:0:
140,336,97482,1,0,3:0:0:0:
56,264,97654,2,0,P|44:224|48:184,1,80,8|0,0:3|0:0,0:0:0:0:
224,256,97999,53,8,3:0:0:0:
52,348,98172,1,8,3:0:0:0:
128,216,98344,1,8,3:0:0:0:
264,328,98516,1,8,3:0:0:0:
328,236,98689,5,4,3:0:0:0:
328,236,98861,1,4,3:0:0:0:
128,216,99034,1,4,3:0:0:0:
128,216,99206,1,4,3:0:0:0:
276,336,99378,38,0,L|356:324,1,80,4|0,3:2|0:0,0:0:0:0:
468,308,99723,1,8,0:3:0:0:
308,221,99896,1,2,0:0:0:0:
416,197,100068,1,0,0:0:0:0:
371,321,100241,1,0,3:0:0:0:
444,117,100413,1,8,0:3:0:0:
480,296,100585,1,2,0:0:0:0:
233,174,100758,6,0,B|217:210|217:210|233:330,1,160,0|8,3:0|0:3,0:0:0:0:
308,221,101275,1,2,0:0:0:0:
152,328,101447,2,0,P|136:292|132:252,1,80,2|0,0:0|3:0,0:0:0:0:
253,97,101792,2,0,P|249:136|233:173,1,80,8|2,0:3|0:0,0:0:0:0:
88,76,102137,70,0,P|165:73|162:137,1,160,0|8,3:0|0:3,0:0:0:0:
132,251,102654,2,0,P|135:291|152:328,1,80,2|0,0:0|0:0,0:0:0:0:
264,344,102999,1,0,3:0:0:0:
416,272,103172,1,8,0:3:0:0:
368,360,103344,1,2,0:0:0:0:
284,184,103516,6,0,P|268:144|268:104,1,80,0|0,3:0|0:0,0:0:0:0:
416,272,103861,2,0,P|414:311|399:348,1,80,8|0,0:3|0:0,0:0:0:0:
224,264,104206,1,2,0:0:0:0:
392,172,104378,1,0,3:0:0:0:
200,276,104551,2,0,L|116:264,1,80,10|2,0:3|0:0,0:0:0:0:
48,104,104896,70,0,P|74:33|150:29,1,160,0|8,3:0|0:3,0:0:0:0:
248,84,105413,1,2,0:0:0:0:
180,192,105585,2,0,P|168:156|168:112,1,80,0|0,0:0|3:0,0:0:0:0:
292,248,105930,2,0,P|291:287|279:325,1,80,8|2,0:3|0:0,0:0:0:0:
160,344,106275,6,0,L|80:332,1,80,0|0,3:0|0:0,0:0:0:0:
292,248,106620,2,0,L|372:236,1,80,8|0,0:3|0:0,0:0:0:0:
180,192,106965,1,2,0:0:0:0:
272,336,107137,1,0,3:0:0:0:
164,172,107309,2,0,P|204:104|244:108,1,120,8|0,0:3|0:0,0:0:0:0:
256,112,107654,70,0,P|296:116|336:104,1,80,0|0,3:0|0:0,0:0:0:0:
428,44,107999,1,8,0:3:0:0:
512,208,108172,2,0,P|456:148|384:168,1,160,2|0,0:0|3:0,0:0:0:0:
430,298,108689,2,0,P|442:258|438:218,1,80,8|0,0:3|0:0,0:0:0:0:
336,328,109034,6,0,B|296:320|296:320|220:336|220:336|180:328,1,160,0|8,3:0|0:3,0:0:0:0:
72,300,109551,1,0,0:0:0:0:
216,176,109723,2,0,P|228:216|220:256,1,80,2|0,0:0|3:0,0:0:0:0:
48,168,110068,2,0,P|41:128|53:91,1,80,10|2,0:3|0:0,0:0:0:0:
216,28,110413,70,0,L|376:44,1,160,0|8,3:0|0:3,0:0:0:0:
460,116,110930,2,0,P|468:156|460:196,1,80,2|0,0:0|0:0,0:0:0:0:
300,236,111275,1,0,3:0:0:0:
380,156,111447,1,8,0:3:0:0:
356,332,111620,1,2,0:0:0:0:
292,144,111792,6,0,P|256:128|172:196,1,160,0|8,3:0|0:3,0:0:0:0:
276,260,112309,1,0,0:0:0:0:
376,192,112482,2,0,P|388:152|384:112,1,80,2|0,0:0|3:0,0:0:0:0:
204,24,112827,2,0,P|200:63|212:101,1,80,8|2,0:3|0:0,0:0:0:0:
292,180,113172,69,0,3:0:0:0:
120,108,113344,1,2,0:0:0:0:
284,56,113516,1,8,0:3:0:0:
152,200,113689,2,0,L|72:192,1,80,2|0,0:0|0:0,0:0:0:0:
252,276,114034,1,0,3:0:0:0:
212,101,114206,1,8,0:3:0:0:
257,295,114378,1,2,0:0:0:0:
368,152,114551,6,0,P|376:112|368:72,1,80,0|2,3:0|0:0,0:0:0:0:
152,200,114896,2,0,P|144:239|152:278,1,80,8|0,0:3|0:0,0:0:0:0:
268,316,115241,1,2,0:0:0:0:
292,180,115413,1,0,3:0:0:0:
176,108,115585,2,0,P|140:120|96:124,1,80,10|0,0:3|0:0,0:0:0:0:
292,180,115930,70,0,L|452:192,1,160,0|8,3:0|0:3,0:0:0:0:
364,108,116447,1,2,0:0:0:0:
448,288,116620,1,0,0:0:0:0:
476,100,116792,1,0,3:0:0:0:
356,224,116965,1,8,0:3:0:0:
512,204,117137,1,2,0:0:0:0:
284,172,117309,6,0,P|268:208|272:248,1,80,0|0,3:0|0:0,0:0:0:0:
364,108,117654,2,0,P|367:68|351:32,1,80,8|2,0:3|0:0,0:0:0:0:
224,52,117999,69,0,0:0:0:0:
108,280,118172,1,0,3:0:0:0:
64,12,118344,5,10,0:3:0:0:
212,220,118516,1,2,0:0:0:0:
256,192,118689,12,4,121447,0:3:0:0:
