osu file format v14

[General]
AudioFilename: audio.mp3
AudioLeadIn: 0
PreviewTime: -1
Countdown: 1
SampleSet: Soft
StackLeniency: 0.7
Mode: 0
LetterboxInBreaks: 0
WidescreenStoryboard: 0

[Editor]
DistanceSpacing: 1
BeatDivisor: 4
GridSize: 8
TimelineZoom: 1

[Metadata]
Title:welcome to the uk
TitleUnicode:welcome to the uk
Artist:Manian
ArtistUnicode:Manian
Creator:jerzykkk
Version:Hard
Source:
Tags:nightcore
BeatmapID:1577639
BeatmapSetID:748930

[Difficulty]
HPDrainRate:6
CircleSize:5
OverallDifficulty:6
ApproachRate:9
SliderMultiplier:1.40000000596046
SliderTickRate:2

[Events]
//Background and Video events
0,0,"anime-christmas-party.png",0,0
//Break Periods
2,95200,104906
//Storyboard Layer 0 (Background)
//Storyboard Layer 1 (Fail)
//Storyboard Layer 2 (Pass)
//Storyboard Layer 3 (Foreground)
//Storyboard Sound Samples

[TimingPoints]
0,352.941176470588,4,2,0,100,1,0
26647,-66.6666666666667,4,2,0,100,0,0
28323,-100,4,2,0,100,0,0

[Colours]
Combo1 : 0,0,0
Combo2 : 255,0,0
Combo3 : 255,0,128
Combo4 : 128,0,128
Combo5 : 0,0,128

[HitObjects]
184,64,1399,5,0,0:0:0:0:
336,112,1738,1,0,0:0:0:0:
184,184,2077,1,0,0:0:0:0:
320,232,2416,1,0,0:0:0:0:
184,304,2755,1,0,0:0:0:0:
184,64,3094,2,0,L|328:72,1,140.000000596046
384,80,3772,1,0,0:0:0:0:
264,176,4111,1,0,0:0:0:0:
440,176,4450,1,0,0:0:0:0:
288,64,4789,1,0,0:0:0:0:
384,256,5128,1,0,0:0:0:0:
320,256,5467,1,0,0:0:0:0:
240,256,5806,5,0,0:0:0:0:
240,192,6145,1,0,0:0:0:0:
240,72,6484,1,0,0:0:0:0:
424,80,6823,2,0,B|424:192|400:192|360:192|336:192,1,140.000000596046
120,72,7501,2,0,B|120:184|128:192|176:192|192:192,1,140.000000596046
112,64,8179,2,0,L|408:64,1,280.000001192092
448,56,9535,1,0,0:0:0:0:
448,56,9874,2,0,L|448:200,1,140.000000596046
408,248,10552,1,0,0:0:0:0:
248,248,10891,1,0,0:0:0:0:
408,248,11230,1,0,0:0:0:0:
248,248,11569,1,0,0:0:0:0:
192,248,11908,2,0,L|48:248,1,140.000000596046
48,192,12586,1,0,0:0:0:0:
48,128,12925,1,0,0:0:0:0:
48,192,13264,1,0,0:0:0:0:
48,72,13603,2,0,L|192:72,1,140.000000596046
248,72,14281,1,0,0:0:0:0:
304,72,14620,1,0,0:0:0:0:
248,72,14959,5,0,0:0:0:0:
304,72,15298,1,0,0:0:0:0:
360,72,15637,2,0,L|360:216,1,140.000000596046
360,212,16315,1,0,0:0:0:0:
368,304,16654,5,0,0:0:0:0:
312,344,16993,1,0,0:0:0:0:
248,344,17332,1,0,0:0:0:0:
184,344,17671,1,0,0:0:0:0:
128,304,18010,1,0,0:0:0:0:
128,240,18349,1,0,0:0:0:0:
128,184,18688,2,0,L|128:40,1,140.000000596046
192,48,19366,1,0,0:0:0:0:
256,48,19705,1,0,0:0:0:0:
192,48,20044,1,0,0:0:0:0:
256,48,20383,1,0,0:0:0:0:
256,192,20722,12,0,21400,0:0:0:0:
320,208,21738,6,0,P|272:112|320:160,1,420.000001788138
192,64,23094,5,0,0:0:0:0:
328,112,23433,1,0,0:0:0:0:
192,168,23772,1,0,0:0:0:0:
312,224,24111,1,0,0:0:0:0:
184,256,24450,1,0,0:0:0:0:
296,328,24789,1,0,0:0:0:0:
120,208,25128,2,0,P|96:112|144:72,1,140.000000596046
176,64,25806,1,0,0:0:0:0:
240,56,26145,2,0,L|384:56,1,140.000000596046
440,64,26823,1,0,0:0:0:0:
264,168,27162,1,0,0:0:0:0:
456,168,27501,1,0,0:0:0:0:
312,56,27840,5,0,0:0:0:0:
368,200,28179,1,0,0:0:0:0:
360,256,28518,2,0,P|336:296|248:344,1,140.000000596046
144,344,29196,1,0,0:0:0:0:
200,344,29535,1,0,0:0:0:0:
144,344,29874,1,0,0:0:0:0:
88,344,30213,1,0,0:0:0:0:
88,344,30552,1,0,0:0:0:0:
216,224,31230,5,0,0:0:0:0:
384,216,31569,1,0,0:0:0:0:
256,112,31908,1,0,0:0:0:0:
304,304,32247,1,0,0:0:0:0:
360,112,32586,1,0,0:0:0:0:
200,264,32925,1,0,0:0:0:0:
256,192,33264,12,0,33942,0:0:0:0:
80,168,34281,5,0,0:0:0:0:
216,184,34620,1,0,0:0:0:0:
184,96,34959,1,0,0:0:0:0:
96,216,35298,1,0,0:0:0:0:
264,144,35637,1,0,0:0:0:0:
192,256,35976,1,0,0:0:0:0:
192,128,36315,1,0,0:0:0:0:
272,256,36654,1,0,0:0:0:0:
96,256,36993,1,0,0:0:0:0:
232,152,37332,5,0,0:0:0:0:
192,248,37671,1,0,0:0:0:0:
152,152,38010,1,0,0:0:0:0:
264,216,38349,1,0,0:0:0:0:
144,248,38688,1,0,0:0:0:0:
232,128,39027,1,0,0:0:0:0:
208,248,39366,1,0,0:0:0:0:
184,160,39705,5,0,0:0:0:0:
296,160,40044,1,0,0:0:0:0:
192,208,40383,1,0,0:0:0:0:
232,120,40722,1,0,0:0:0:0:
264,224,41061,1,0,0:0:0:0:
328,136,41399,1,0,0:0:0:0:
96,120,41738,1,0,0:0:0:0:
96,56,42077,2,0,L|232:56,5,105.000000447034
80,160,44789,1,0,0:0:0:0:
296,160,45128,1,0,0:0:0:0:
104,248,45467,1,0,0:0:0:0:
384,248,45806,1,0,0:0:0:0:
512,24,46145,2,0,L|168:304,1,420.000001788138
160,144,47501,1,0,0:0:0:0:
312,200,47840,1,0,0:0:0:0:
112,280,48179,1,0,0:0:0:0:
200,328,48518,5,0,0:0:0:0:
8,368,48857,2,0,L|336:104,1,420.000001788138
104,216,50213,5,0,0:0:0:0:
336,208,50552,1,0,0:0:0:0:
104,296,50891,1,0,0:0:0:0:
200,136,51230,1,0,0:0:0:0:
16,8,51569,2,0,L|352:272,1,420.000001788138
352,160,52925,5,0,0:0:0:0:
160,240,53264,1,0,0:0:0:0:
184,128,53603,1,0,0:0:0:0:
280,288,53942,1,0,0:0:0:0:
280,144,54281,1,0,0:0:0:0:
256,192,54620,12,0,55637,0:0:0:0:
160,96,55976,5,8,0:0:0:0:
216,96,56315,1,0,0:0:0:0:
272,96,56654,1,0,0:0:0:0:
328,96,56993,1,0,0:0:0:0:
384,96,57332,1,0,0:0:0:0:
384,96,57671,1,0,0:0:0:0:
328,96,58010,1,0,0:0:0:0:
272,96,58349,1,0,0:0:0:0:
216,96,59027,5,0,0:0:0:0:
160,96,59366,1,0,0:0:0:0:
104,96,59705,1,0,0:0:0:0:
152,256,60044,5,0,0:0:0:0:
416,256,60383,1,0,0:0:0:0:
152,256,60722,1,0,0:0:0:0:
416,256,61061,1,0,0:0:0:0:
272,80,61399,1,0,0:0:0:0:
176,152,61738,1,0,0:0:0:0:
264,216,62077,1,0,0:0:0:0:
360,152,62416,1,0,0:0:0:0:
176,176,63094,5,0,0:0:0:0:
320,208,63433,1,0,0:0:0:0:
184,272,63772,1,0,0:0:0:0:
136,128,64450,5,0,0:0:0:0:
264,288,64789,1,0,0:0:0:0:
192,288,65128,2,0,P|112:248|224:160,1,280.000001192092
286,152,66145,2,0,P|336:152|272:272,1,280.000001192092
128,112,67162,1,0,0:0:0:0:
424,112,67501,1,0,0:0:0:0:
424,336,67840,1,0,0:0:0:0:
120,336,68179,5,0,0:0:0:0:
144,272,68518,1,0,0:0:0:0:
256,192,68857,1,0,0:0:0:0:
344,288,69789,1,0,0:0:0:0:
352,264,69874,5,0,0:0:0:0:
352,248,69959,1,0,0:0:0:0:
344,232,70044,1,0,0:0:0:0:
336,216,70128,1,0,0:0:0:0:
320,192,70213,1,0,0:0:0:0:
304,176,70298,1,0,0:0:0:0:
296,152,70383,1,0,0:0:0:0:
296,136,70467,5,0,0:0:0:0:
312,120,70552,1,0,0:0:0:0:
328,104,70637,1,0,0:0:0:0:
352,96,70722,1,0,0:0:0:0:
384,96,70806,1,0,0:0:0:0:
400,96,70891,5,0,0:0:0:0:
416,112,70976,1,0,0:0:0:0:
432,120,71061,1,0,0:0:0:0:
440,144,71145,5,0,0:0:0:0:
448,160,71230,1,0,0:0:0:0:
448,184,71315,1,0,0:0:0:0:
416,200,71399,1,0,0:0:0:0:
432,192,71484,1,0,0:0:0:0:
392,208,71569,1,0,0:0:0:0:
379,216,71654,5,0,0:0:0:0:
360,224,71738,1,0,0:0:0:0:
344,232,71823,5,0,0:0:0:0:
336,240,71908,1,0,0:0:0:0:
320,248,71993,1,0,0:0:0:0:
120,216,73264,5,0,0:0:0:0:
224,192,73603,1,0,0:0:0:0:
192,280,73942,1,0,0:0:0:0:
344,192,74281,1,0,0:0:0:0:
88,296,74620,1,0,0:0:0:0:
144,324,74959,2,0,L|144:156,1,140.000000596046
144,184,75637,2,0,L|288:184,1,140.000000596046
368,144,76315,1,0,0:0:0:0:
392,256,76654,1,0,0:0:0:0:
216,296,76993,1,0,0:0:0:0:
216,112,77332,2,0,L|64:112,3,140.000000596046
264,168,78688,5,0,0:0:0:0:
360,168,79027,1,0,0:0:0:0:
360,224,79366,1,0,0:0:0:0:
264,224,79705,1,0,0:0:0:0:
360,88,80044,2,0,L|208:88,3,140.000000596046
152,184,81399,5,0,0:0:0:0:
272,256,81738,1,0,0:0:0:0:
280,144,82077,1,0,0:0:0:0:
192,264,82416,1,0,0:0:0:0:
200,304,82755,2,0,P|128:256|272:288,1,560.000002384184
248,176,84450,1,0,0:0:0:0:
136,240,84789,1,0,0:0:0:0:
232,96,85128,1,0,0:0:0:0:
304,248,85467,1,0,0:0:0:0:
120,176,86145,5,0,0:0:0:0:
152,176,86230,1,0,0:0:0:0:
192,176,86315,1,0,0:0:0:0:
280,176,86823,1,0,0:0:0:0:
200,224,87501,5,0,0:0:0:0:
280,304,87840,1,0,0:0:0:0:
344,216,88179,1,0,0:0:0:0:
152,72,88518,2,0,L|152:232,2,140.000000596046
128,216,89535,5,0,0:0:0:0:
184,216,89874,1,0,0:0:0:0:
288,208,90213,1,0,0:0:0:0:
336,208,90552,1,0,0:0:0:0:
376,208,90891,1,0,0:0:0:0:
176,232,91569,1,0,0:0:0:0:
248,232,91908,1,0,0:0:0:0:
328,232,92247,1,0,0:0:0:0:
360,232,92332,1,0,0:0:0:0:
392,232,92416,1,0,0:0:0:0:
176,232,92840,1,0,0:0:0:0:
232,232,93179,5,8,0:0:0:0:
384,232,93518,1,0,0:0:0:0:
188,232,93942,2,0,L|332:232,3,140.000000596046
176,240,105806,6,8,P|224:88|296:248,1,420.000001788138
224,136,107162,1,8,0:0:0:0:
280,160,107501,1,8,0:0:0:0:
232,192,107840,1,8,0:0:0:0:
280,216,108179,1,8,0:0:0:0:
192,216,108518,6,8,P|240:64|312:224,1,420.000001788138
120,128,109874,1,8,0:0:0:0:
400,288,110213,1,8,0:0:0:0:
400,80,110552,1,8,0:0:0:0:
168,272,110891,1,8,0:0:0:0:
192,120,111230,6,8,P|248:280|312:128,1,420.000001788138
72,136,112586,1,8,0:0:0:0:
256,192,112925,1,8,0:0:0:0:
80,296,113264,1,8,0:0:0:0:
256,192,113603,1,8,0:0:0:0:
72,72,113942,1,8,0:0:0:0:
256,192,114281,12,8,116654,0:0:0:0:
40,128,116993,5,0,0:0:0:0:
184,144,117332,1,0,0:0:0:0:
48,208,117671,1,0,0:0:0:0:
176,224,118010,1,0,0:0:0:0:
336,224,118349,1,0,0:0:0:0:
440,192,118688,1,0,0:0:0:0:
344,160,119027,1,0,0:0:0:0:
432,128,119366,5,0,0:0:0:0:
352,88,119705,1,0,0:0:0:0:
264,144,120044,1,0,0:0:0:0:
264,200,120383,1,0,0:0:0:0:
208,200,120722,1,0,0:0:0:0:
208,144,121061,1,0,0:0:0:0:
136,304,121399,1,0,0:0:0:0:
320,192,121738,1,0,0:0:0:0:
152,144,122077,5,0,0:0:0:0:
216,296,122416,1,0,0:0:0:0:
248,152,122755,1,0,0:0:0:0:
360,216,123094,1,0,0:0:0:0:
360,272,123433,1,0,0:0:0:0:
360,160,123772,1,0,0:0:0:0:
216,168,124111,1,0,0:0:0:0:
216,224,124450,1,0,0:0:0:0:
256,192,124789,12,0,127162,0:0:0:0:
208,240,127501,6,0,P|240:48|288:248,1,560.000002384184
280,248,129196,1,0,0:0:0:0:
224,256,129535,1,0,0:0:0:0:
336,240,129874,1,0,0:0:0:0:
136,176,130213,1,0,0:0:0:0:
128,240,130383,2,0,L|240:248,1,105.000000447034
224,96,130891,5,0,0:0:0:0:
352,152,131230,1,0,0:0:0:0:
176,144,131569,1,0,0:0:0:0:
176,80,131738,2,0,L|288:80,1,105.000000447034
152,224,132247,5,0,0:0:0:0:
168,104,132586,1,0,0:0:0:0:
288,128,132925,1,0,0:0:0:0:
256,240,133264,1,0,0:0:0:0:
360,192,133603,1,0,0:0:0:0:
168,208,133942,1,0,0:0:0:0:
224,104,134281,1,0,0:0:0:0:
312,160,134620,5,0,0:0:0:0:
280,248,134959,1,0,0:0:0:0:
184,120,135298,1,0,0:0:0:0:
112,56,135467,2,0,L|328:56,1,210.000000894069
320,200,136315,1,0,0:0:0:0:
128,136,136654,1,0,0:0:0:0:
96,80,136823,2,0,L|272:80,2,175.000000745057
224,112,138010,5,0,0:0:0:0:
336,144,138349,1,0,0:0:0:0:
360,224,138688,1,0,0:0:0:0:
176,192,139027,1,0,0:0:0:0:
280,168,139366,1,0,0:0:0:0:
184,120,139705,1,0,0:0:0:0:
240,224,140044,1,0,0:0:0:0:
216,288,140383,1,0,0:0:0:0:
272,264,140722,1,0,0:0:0:0:
272,264,141061,2,0,P|272:96|200:200,1,420.000001788138
224,240,142416,1,0,0:0:0:0:
304,160,142755,1,0,0:0:0:0:
176,224,143094,1,0,0:0:0:0:
152,128,143433,1,0,0:0:0:0:
128,64,143772,2,0,L|344:64,2,210.000000894069
248,232,145128,5,0,0:0:0:0:
312,128,145467,1,0,0:0:0:0:
320,256,145806,1,0,0:0:0:0:
392,152,146145,1,0,0:0:0:0:
384,264,146484,1,0,0:0:0:0:
91,127,146823,5,0,0:0:0:0:
179,105,147162,1,0,0:0:0:0:
136,192,147501,1,0,0:0:0:0:
208,168,147840,1,0,0:0:0:0:
168,232,148179,1,0,0:0:0:0:
248,208,148518,1,0,0:0:0:0:
208,280,148857,1,0,0:0:0:0:
288,256,149196,1,0,0:0:0:0:
224,328,149535,1,0,0:0:0:0:
328,280,149874,1,0,0:0:0:0:
144,280,150213,1,0,0:0:0:0:
256,192,150552,12,0,151569,0:0:0:0:
184,240,151908,5,0,0:0:0:0:
304,240,152247,1,0,0:0:0:0:
112,248,152586,1,0,0:0:0:0:
232,136,152925,1,0,0:0:0:0:
152,72,153264,2,0,L|296:72,1,140.000000596046
304,208,153942,5,0,0:0:0:0:
160,264,154281,1,0,0:0:0:0:
176,160,154620,1,0,0:0:0:0:
80,224,155298,1,0,0:0:0:0:
232,232,155637,1,0,0:0:0:0:
112,296,155976,1,0,0:0:0:0:
248,304,156315,1,0,0:0:0:0:
320,232,156654,1,0,0:0:0:0:
224,176,156993,5,0,0:0:0:0:
336,160,157332,1,0,0:0:0:0:
208,256,157671,1,0,0:0:0:0:
168,152,158010,1,0,0:0:0:0:
304,264,158349,1,0,0:0:0:0:
152,72,158688,2,0,L|296:72,1,140.000000596046
144,216,159366,5,0,0:0:0:0:
296,264,159705,1,0,0:0:0:0:
264,152,160044,1,0,0:0:0:0:
128,224,160722,5,0,0:0:0:0:
288,256,161061,1,0,0:0:0:0:
72,80,161399,2,0,L|288:80,2,210.000000894069
112,144,162755,5,0,0:0:0:0:
112,208,163094,1,0,0:0:0:0:
112,80,163433,1,0,0:0:0:0:
112,208,163772,1,0,0:0:0:0:
112,336,164111,2,0,L|328:336,2,210.000000894069
288,272,165467,5,0,0:0:0:0:
288,208,165806,1,0,0:0:0:0:
88,88,166145,1,0,0:0:0:0:
192,232,166484,1,0,0:0:0:0:
344,96,166823,2,0,L|344:264,3,140.000000596046
224,240,168179,1,0,0:0:0:0:
352,240,168518,1,0,0:0:0:0:
288,112,168857,1,0,0:0:0:0:
288,112,169196,1,0,0:0:0:0:
224,104,169535,2,0,L|224:256,3,140.000000596046
336,240,170891,1,0,0:0:0:0:
392,240,171230,1,0,0:0:0:0:
248,232,171569,1,0,0:0:0:0:
184,232,171908,1,0,0:0:0:0:
120,240,172247,2,0,L|120:72,3,140.000000596046
176,104,173603,5,0,0:0:0:0:
232,104,173942,1,0,0:0:0:0:
192,280,174281,1,0,0:0:0:0:
248,280,174620,1,0,0:0:0:0:
304,280,174959,1,0,0:0:0:0:
256,184,175298,1,0,0:0:0:0:
240,280,175637,5,0,0:0:0:0:
160,192,175976,1,0,0:0:0:0:
256,184,176315,1,0,0:0:0:0:
376,112,176654,1,0,0:0:0:0:
264,304,176993,1,0,0:0:0:0:
152,120,177332,1,0,0:0:0:0:
192,224,177671,5,0,0:0:0:0:
304,144,178010,1,0,0:0:0:0:
248,264,178349,1,0,0:0:0:0:
384,200,178688,1,0,0:0:0:0:
224,256,179027,1,0,0:0:0:0:
208,160,179366,1,0,0:0:0:0:
128,256,179705,1,0,0:0:0:0:
312,184,180044,5,0,0:0:0:0:
112,160,180383,1,0,0:0:0:0:
400,192,180722,1,0,0:0:0:0:
224,152,181061,1,0,0:0:0:0:
280,336,181399,1,0,0:0:0:0:
248,280,181738,2,0,P|80:208|216:160,1,420.000001788138
272,144,183094,2,0,P|424:152|280:272,1,420.000001788138
232,280,184450,5,0,0:0:0:0:
176,280,184789,1,0,0:0:0:0:
232,224,185128,1,0,0:0:0:0:
176,224,185467,1,0,0:0:0:0:
352,232,185806,1,0,0:0:0:0:
272,136,186145,5,0,0:0:0:0:
216,232,186484,1,0,0:0:0:0:
168,144,186823,1,0,0:0:0:0:
216,232,187162,1,0,0:0:0:0:
280,144,187501,1,0,0:0:0:0:
328,240,187840,5,0,0:0:0:0:
424,72,188179,1,0,0:0:0:0:
176,72,188518,1,0,0:0:0:0:
392,224,188857,1,0,0:0:0:0:
192,232,189196,1,0,0:0:0:0:
392,224,189535,1,0,0:0:0:0:
392,80,189874,1,0,0:0:0:0:
96,208,190552,5,0,0:0:0:0:
304,216,191230,1,0,0:0:0:0:
360,216,191908,1,0,0:0:0:0:
256,192,192586,12,0,193942,0:0:0:0:
120,192,194281,5,0,0:0:0:0:
344,256,194620,1,0,0:0:0:0:
208,112,194959,1,0,0:0:0:0:
248,328,195298,1,0,0:0:0:0:
