osu file format v14

[General]
AudioFilename: audio.mp3
AudioLeadIn: 0
PreviewTime: 93502
Countdown: 0
SampleSet: Soft
StackLeniency: 0.7
Mode: 3
LetterboxInBreaks: 0
SpecialStyle: 0
WidescreenStoryboard: 1

[Editor]
DistanceSpacing: 2
BeatDivisor: 4
GridSize: 16
TimelineZoom: 1.9

[Metadata]
Title:Joudan ja Nai ne (Cut Ver.)
TitleUnicode:冗談じゃないね (Cut Ver.)
Artist:Maneki Kecak
ArtistUnicode:まねきケチャ
Creator:lenpai
Version:Hard
Source:
Tags:idol jpop j-pop pop japanese きみわずらい kecha kimi wazurai
BeatmapID:2559518
BeatmapSetID:1229030

[Difficulty]
HPDrainRate:8
CircleSize:4
OverallDifficulty:8
ApproachRate:5
SliderMultiplier:1.4
SliderTickRate:1

[Events]
//Background and Video events
0,0,"Background.jpg",0,0
//Break Periods
//Storyboard Layer 0 (Background)
//Storyboard Layer 1 (Fail)
//Storyboard Layer 2 (Pass)
//Storyboard Layer 3 (Foreground)
//Storyboard Layer 4 (Overlay)
//Storyboard Sound Samples

[TimingPoints]
680,322.58064516129,4,2,1,50,1,0
21325,-100,4,2,1,50,0,1
41970,-100,4,2,1,50,0,0
93583,-100,4,2,1,50,0,1
116809,-100,4,2,1,50,0,0
137454,-100,4,2,1,50,0,1
158099,-100,4,2,1,50,0,0

[HitObjects]
320,192,680,5,0,0:0:0:70:LR_Clap Drum hit.wav
448,192,680,1,0,0:0:0:0:
320,192,1002,1,0,0:0:0:70:LR_Clap Drum hit.wav
448,192,1002,1,0,0:0:0:0:
320,192,1325,1,0,0:0:0:70:LR_Clap Drum hit.wav
448,192,1325,1,0,0:0:0:0:
320,192,1486,1,0,0:0:0:70:LR_Clap Drum hit.wav
448,192,1486,1,0,0:0:0:0:
320,192,1809,1,0,0:0:0:70:LR_Clap Drum hit.wav
448,192,1809,1,0,0:0:0:0:
320,192,2131,1,0,0:0:0:70:LR_Clap Drum hit.wav
448,192,2131,1,0,0:0:0:0:
320,192,2454,1,0,0:0:0:70:LR_Clap Drum hit.wav
448,192,2454,1,0,0:0:0:0:
192,192,2615,1,0,0:0:0:70:LR_Clap Drum hit.wav
320,192,2776,1,2,0:0:0:0:
64,192,2938,1,0,0:0:0:70:LR_Clap Drum hit.wav
448,192,2938,1,0,0:0:0:0:
64,192,3260,1,0,0:0:0:70:LR_Clap Drum hit.wav
192,192,3260,1,0,0:0:0:0:
64,192,3583,1,0,0:0:0:70:LR_Clap Drum hit.wav
192,192,3583,1,0,0:0:0:0:
64,192,3905,1,0,0:0:0:70:LR_Clap Drum hit.wav
192,192,3905,1,0,0:0:0:0:
64,192,4067,1,0,0:0:0:70:LR_Clap Drum hit.wav
192,192,4067,1,0,0:0:0:0:
64,192,4389,1,0,0:0:0:70:LR_Clap Drum hit.wav
192,192,4389,1,0,0:0:0:0:
64,192,4712,1,0,0:0:0:70:LR_Clap Drum hit.wav
192,192,4712,1,0,0:0:0:0:
64,192,5034,1,0,0:0:0:70:LR_Clap Drum hit.wav
192,192,5034,1,0,0:0:0:0:
448,192,5196,1,0,0:0:0:70:LR_Clap Drum hit.wav
64,192,5357,1,2,0:0:0:0:
192,192,5518,1,0,0:0:0:70:LR_Clap Drum hit.wav
320,192,5518,1,0,0:0:0:0:
64,192,5841,1,0,0:0:0:70:LR_Clap Drum hit.wav
448,192,5841,1,0,0:0:0:0:
64,192,6163,1,0,0:0:0:70:LR_Clap Drum hit.wav
448,192,6163,1,0,0:0:0:0:
64,192,6486,1,0,0:0:0:70:LR_Clap Drum hit.wav
448,192,6486,1,0,0:0:0:0:
64,192,6647,1,0,0:0:0:70:LR_Clap Drum hit.wav
448,192,6647,1,0,0:0:0:0:
64,192,6970,1,0,0:0:0:70:LR_Clap Drum hit.wav
448,192,6970,1,0,0:0:0:0:
64,192,7292,1,0,0:0:0:70:LR_Clap Drum hit.wav
448,192,7292,1,0,0:0:0:0:
64,192,7615,1,0,0:0:0:70:LR_Clap Drum hit.wav
448,192,7615,1,0,0:0:0:0:
320,192,7776,1,0,0:0:0:70:LR_Clap Drum hit.wav
192,192,7938,1,2,0:0:0:0:
64,192,8099,1,0,0:0:0:70:LR_Clap Drum hit.wav
448,192,8099,1,0,0:0:0:0:
448,192,8421,1,2,0:0:0:0:
64,192,8583,1,0,0:0:0:70:LR_Clap Drum hit.wav
320,192,8583,1,0,0:0:0:0:
320,192,8744,1,0,0:0:0:70:LR_Clap Drum hit.wav
192,192,8905,1,0,0:0:0:70:LR_Clap Drum hit.wav
192,192,9067,1,0,0:0:0:70:LR_Clap Drum hit.wav
448,192,9067,1,0,0:0:0:0:
64,192,9389,1,0,0:0:0:70:LR_Clap Drum hit.wav
192,192,9389,1,0,0:0:0:0:
64,192,9712,1,0,0:0:0:70:LR_Clap Drum hit.wav
320,192,9712,1,0,0:0:0:0:
192,192,9873,1,0,0:0:0:70:LR_Clap Drum hit.wav
448,192,9873,1,0,0:0:0:0:
192,192,10196,1,0,0:0:0:70:LR_Clap Drum hit.wav
448,192,10196,1,0,0:0:0:0:
64,192,10357,1,0,0:0:0:70:LR_Clap Drum hit.wav
320,192,10357,1,0,0:0:0:0:
192,192,10518,1,2,0:0:0:0:
320,192,10679,1,0,0:0:0:70:LR_Clap Drum hit.wav
448,192,10679,1,0,0:0:0:0:
320,192,11002,1,4,0:0:0:0:
448,192,11002,1,0,0:0:0:70:LR_Clap Drum hit.wav
64,192,11002,1,2,0:0:0:0:
192,192,11163,1,0,0:0:0:0:
320,192,11325,1,2,0:0:0:0:
448,192,11325,1,0,0:0:0:70:LR_Clap Drum hit.wav
192,192,11486,1,0,0:0:0:0:
320,192,11647,1,2,0:0:0:0:
448,192,11647,1,0,0:0:0:70:LR_Clap Drum hit.wav
320,192,11809,1,0,0:0:0:70:LR_Clap Drum hit.wav
448,192,11809,1,0,0:0:0:0:
192,192,11970,1,2,0:0:0:0:
320,192,12131,1,0,0:0:0:70:LR_Clap Drum hit.wav
448,192,12131,1,0,0:0:0:0:
192,192,12292,1,2,0:0:0:0:
320,192,12454,1,0,0:0:0:70:LR_Clap Drum hit.wav
448,192,12454,1,0,0:0:0:0:
192,192,12615,1,2,0:0:0:0:
320,192,12776,1,0,0:0:0:70:LR_Clap Drum hit.wav
448,192,12776,1,0,0:0:0:0:
64,192,12938,1,2,0:0:0:0:
192,192,12938,1,0,0:0:0:70:LR_Clap Drum hit.wav
320,192,13099,1,0,0:0:0:70:LR_Clap Drum hit.wav
192,192,13260,1,0,0:0:0:70:LR_Clap Drum hit.wav
448,192,13260,1,0,0:0:0:0:
320,192,13421,1,0,0:0:0:0:
64,192,13583,1,2,0:0:0:0:
192,192,13583,1,0,0:0:0:70:LR_Clap Drum hit.wav
320,192,13744,1,0,0:0:0:0:
64,192,13905,1,2,0:0:0:0:
192,192,13905,1,0,0:0:0:70:LR_Clap Drum hit.wav
320,192,14067,1,0,0:0:0:0:
64,192,14228,1,2,0:0:0:0:
192,192,14228,1,0,0:0:0:70:LR_Clap Drum hit.wav
64,192,14389,1,0,0:0:0:70:LR_Clap Drum hit.wav
192,192,14389,1,0,0:0:0:0:
320,192,14550,1,2,0:0:0:0:
64,192,14712,1,0,0:0:0:70:LR_Clap Drum hit.wav
192,192,14712,1,0,0:0:0:0:
320,192,14873,1,2,0:0:0:0:
64,192,15034,1,0,0:0:0:70:LR_Clap Drum hit.wav
192,192,15034,1,0,0:0:0:0:
320,192,15196,1,2,0:0:0:0:
64,192,15357,1,0,0:0:0:70:LR_Clap Drum hit.wav
192,192,15357,1,0,0:0:0:0:
320,192,15518,1,0,0:0:0:70:LR_Clap Drum hit.wav
448,192,15518,1,0,0:0:0:0:
192,192,15679,1,0,0:0:0:70:LR_Clap Drum hit.wav
64,192,15841,1,0,0:0:0:70:LR_Clap Drum hit.wav
448,192,15841,1,0,0:0:0:0:
320,192,16002,1,0,0:0:0:0:
64,192,16163,1,2,0:0:0:0:
448,192,16163,1,0,0:0:0:70:LR_Clap Drum hit.wav
192,192,16325,1,0,0:0:0:0:
64,192,16486,1,2,0:0:0:0:
320,192,16486,1,0,0:0:0:70:LR_Clap Drum hit.wav
448,192,16647,1,0,0:0:0:0:
64,192,16809,1,2,0:0:0:0:
320,192,16809,1,0,0:0:0:70:LR_Clap Drum hit.wav
192,192,16970,1,0,0:0:0:70:LR_Clap Drum hit.wav
448,192,16970,1,0,0:0:0:0:
320,192,17131,1,2,0:0:0:0:
64,192,17292,1,0,0:0:0:70:LR_Clap Drum hit.wav
448,192,17292,1,0,0:0:0:0:
192,192,17454,1,2,0:0:0:0:
64,192,17615,1,0,0:0:0:70:LR_Clap Drum hit.wav
320,192,17615,1,0,0:0:0:0:
192,192,17776,1,2,0:0:0:0:
320,192,17938,1,0,0:0:0:70:LR_Clap Drum hit.wav
448,192,17938,1,0,0:0:0:0:
64,192,18099,1,0,0:0:0:70:LR_Clap Drum hit.wav
192,192,18099,1,2,0:0:0:0:
320,192,18260,1,0,0:0:0:70:LR_Clap Drum hit.wav
64,192,18421,1,0,0:0:0:70:LR_Clap Drum hit.wav
448,192,18421,1,2,0:0:0:0:
320,192,18583,1,0,0:0:0:0:
192,192,18744,1,2,0:0:0:0:
64,192,18905,1,0,0:0:0:70:LR_Clap Drum hit.wav
320,192,18905,1,0,0:0:0:0:
64,192,19067,1,0,0:0:0:70:LR_Clap Drum hit.wav
320,192,19067,1,0,0:0:0:0:
192,192,19228,1,0,0:0:0:70:LR_Clap Drum hit.wav
448,192,19228,1,0,0:0:0:0:
192,192,19389,1,0,0:0:0:70:LR_Clap Drum hit.wav
448,192,19389,128,0,19712:0:0:0:0:
64,192,19712,1,0,0:0:0:70:LR_Clap Drum hit.wav
192,192,19712,128,0,20034:0:0:0:0:
64,192,20034,1,0,0:0:0:70:LR_Clap Drum hit.wav
320,192,20034,128,0,20196:0:0:0:0:
192,192,20196,1,0,0:0:0:70:LR_Clap Drum hit.wav
448,192,20196,128,0,20518:0:0:0:0:
64,192,20518,1,0,0:0:0:70:LR_Clap Drum hit.wav
320,192,20518,128,0,20679:0:0:0:0:
192,192,20679,128,0,20841:0:0:0:70:LR_Clap Drum hit.wav
320,192,20841,128,2,21002:0:0:0:0:
64,192,21002,1,0,0:0:0:70:LR_Clap Drum hit.wav
192,192,21002,1,0,0:0:0:0:
448,192,21002,128,0,21325:0:0:0:0:
64,192,21325,1,2,0:0:0:0:
192,192,21325,1,4,0:0:0:0:
320,192,21325,1,0,0:0:0:0:
192,192,21486,1,0,0:0:0:0:
320,192,21567,1,0,0:0:0:0:
64,192,21647,1,8,0:0:0:0:
448,192,21647,1,0,0:0:0:0:
192,192,21809,1,0,0:0:0:0:
64,192,21970,1,2,0:0:0:0:
448,192,21970,1,0,0:0:0:0:
320,192,22131,1,0,0:0:0:0:
192,192,22292,1,8,0:0:0:0:
448,192,22292,1,0,0:0:0:0:
320,192,22454,1,0,0:0:0:0:
64,192,22615,1,2,0:0:0:0:
192,192,22615,1,0,0:0:0:0:
320,192,22776,1,0,0:0:0:0:
64,192,22938,1,8,0:0:0:0:
448,192,22938,1,0,0:0:0:0:
192,192,23099,1,0,0:0:0:0:
320,192,23260,1,2,0:0:0:0:
448,192,23260,1,0,0:0:0:0:
192,192,23421,1,0,0:0:0:0:
64,192,23583,1,8,0:0:0:0:
320,192,23583,1,0,0:0:0:0:
448,192,23744,1,0,0:0:0:0:
64,192,23905,1,2,0:0:0:0:
192,192,23905,1,0,0:0:0:0:
192,192,24067,1,0,0:0:0:0:
320,192,24147,1,0,0:0:0:0:
64,192,24228,1,8,0:0:0:0:
448,192,24228,1,0,0:0:0:0:
192,192,24389,1,0,0:0:0:0:
64,192,24550,1,2,0:0:0:0:
448,192,24550,1,0,0:0:0:0:
192,192,24712,1,0,0:0:0:0:
64,192,24873,1,8,0:0:0:0:
320,192,24873,1,0,0:0:0:0:
448,192,25034,1,0,0:0:0:0:
64,192,25196,1,2,0:0:0:0:
192,192,25196,1,0,0:0:0:0:
320,192,25357,1,0,0:0:0:0:
192,192,25518,1,8,0:0:0:0:
448,192,25518,1,0,0:0:0:0:
64,192,25679,1,0,0:0:0:0:
320,192,25841,1,2,0:0:0:0:
448,192,25841,1,0,0:0:0:0:
320,192,26002,1,8,0:0:0:0:
64,192,26002,1,0,0:0:0:0:
192,192,26163,1,8,0:0:0:0:
448,192,26163,1,0,0:0:0:0:
320,192,26325,1,0,0:0:0:0:
64,192,26486,1,2,0:0:0:0:
192,192,26486,1,4,0:0:0:0:
448,192,26486,1,0,0:0:0:0:
64,192,26647,1,0,0:0:0:0:
192,192,26728,1,0,0:0:0:0:
320,192,26809,1,8,0:0:0:0:
448,192,26809,1,0,0:0:0:0:
64,192,26970,1,0,0:0:0:0:
320,192,27131,1,2,0:0:0:0:
448,192,27131,1,0,0:0:0:0:
192,192,27292,1,0,0:0:0:0:
64,192,27454,1,8,0:0:0:0:
448,192,27454,1,0,0:0:0:0:
320,192,27615,1,0,0:0:0:0:
64,192,27776,1,2,0:0:0:0:
192,192,27776,1,0,0:0:0:0:
320,192,27938,1,0,0:0:0:0:
192,192,28099,1,8,0:0:0:0:
448,192,28099,1,0,0:0:0:0:
64,192,28260,1,0,0:0:0:0:
320,192,28421,1,2,0:0:0:0:
448,192,28421,1,0,0:0:0:0:
64,192,28583,1,0,0:0:0:0:
192,192,28744,1,8,0:0:0:0:
448,192,28744,1,0,0:0:0:0:
320,192,28905,1,0,0:0:0:0:
64,192,29067,1,2,0:0:0:0:
192,192,29067,1,0,0:0:0:0:
192,192,29228,1,0,0:0:0:0:
320,192,29309,1,0,0:0:0:0:
64,192,29389,1,8,0:0:0:0:
448,192,29389,1,0,0:0:0:0:
192,192,29550,1,0,0:0:0:0:
320,192,29712,1,2,0:0:0:0:
448,192,29712,1,0,0:0:0:0:
192,192,29873,1,0,0:0:0:0:
64,192,30034,1,8,0:0:0:0:
448,192,30034,1,0,0:0:0:0:
192,192,30196,1,4,0:0:0:0:
320,192,30196,1,2,0:0:0:0:
448,192,30196,1,0,0:0:0:0:
64,192,30518,1,2,0:0:0:0:
192,192,30518,1,0,0:0:0:0:
448,192,30679,1,8,0:0:0:0:
192,192,30679,1,0,0:0:0:0:
64,192,30841,1,2,0:0:0:0:
320,192,30841,1,4,0:0:0:0:
448,192,30841,1,0,0:0:0:0:
64,192,31163,1,2,0:0:0:0:
192,192,31163,1,0,0:0:0:0:
192,192,31325,1,8,0:0:0:0:
448,192,31325,1,0,0:0:0:0:
320,192,31486,1,0,0:0:0:0:
64,192,31647,1,2,0:0:0:0:
192,192,31647,1,4,0:0:0:0:
448,192,31647,1,0,0:0:0:0:
192,192,31809,1,0,0:0:0:0:
320,192,31889,1,0,0:0:0:0:
64,192,31970,1,8,0:0:0:0:
448,192,31970,1,0,0:0:0:0:
192,192,32131,1,0,0:0:0:0:
320,192,32292,1,2,0:0:0:0:
448,192,32292,1,0,0:0:0:0:
192,192,32454,1,0,0:0:0:0:
64,192,32615,1,8,0:0:0:0:
320,192,32615,1,0,0:0:0:0:
448,192,32776,1,0,0:0:0:0:
64,192,32938,1,2,0:0:0:0:
192,192,32938,1,0,0:0:0:0:
320,192,33099,1,0,0:0:0:0:
64,192,33260,1,8,0:0:0:0:
448,192,33260,1,0,0:0:0:0:
192,192,33421,1,0,0:0:0:0:
320,192,33583,1,2,0:0:0:0:
448,192,33583,1,0,0:0:0:0:
192,192,33744,1,0,0:0:0:0:
64,192,33905,1,8,0:0:0:0:
448,192,33905,1,0,0:0:0:0:
320,192,34067,1,0,0:0:0:0:
192,192,34228,1,2,0:0:0:0:
448,192,34228,1,0,0:0:0:0:
192,192,34389,1,0,0:0:0:0:
320,192,34470,1,0,0:0:0:0:
64,192,34550,1,8,0:0:0:0:
448,192,34550,1,0,0:0:0:0:
192,192,34712,1,0,0:0:0:0:
320,192,34873,1,2,0:0:0:0:
448,192,34873,1,0,0:0:0:0:
192,192,35034,1,0,0:0:0:0:
64,192,35196,1,8,0:0:0:0:
320,192,35196,1,0,0:0:0:0:
448,192,35357,1,0,0:0:0:0:
64,192,35518,1,2,0:0:0:0:
192,192,35518,1,0,0:0:0:0:
320,192,35679,1,0,0:0:0:0:
64,192,35841,1,8,0:0:0:0:
448,192,35841,1,0,0:0:0:0:
192,192,36002,1,0,0:0:0:0:
320,192,36163,1,2,0:0:0:0:
448,192,36163,1,0,0:0:0:0:
64,192,36325,1,8,0:0:0:0:
192,192,36325,1,0,0:0:0:0:
192,192,36486,1,8,0:0:0:0:
448,192,36486,1,0,0:0:0:0:
320,192,36647,1,0,0:0:0:0:
192,192,36809,1,2,0:0:0:0:
320,192,36809,1,4,0:0:0:0:
448,192,36809,1,0,0:0:0:0:
192,192,36970,1,0,0:0:0:0:
320,192,37050,1,0,0:0:0:0:
64,192,37131,1,8,0:0:0:0:
448,192,37131,1,0,0:0:0:0:
192,192,37292,1,0,0:0:0:0:
320,192,37454,1,2,0:0:0:0:
448,192,37454,1,0,0:0:0:0:
192,192,37615,1,0,0:0:0:0:
64,192,37776,1,8,0:0:0:0:
448,192,37776,1,0,0:0:0:0:
320,192,37938,1,0,0:0:0:0:
64,192,38099,1,2,0:0:0:0:
192,192,38099,1,0,0:0:0:0:
320,192,38260,1,0,0:0:0:0:
192,192,38421,1,8,0:0:0:0:
448,192,38421,1,0,0:0:0:0:
64,192,38583,1,0,0:0:0:0:
320,192,38744,1,2,0:0:0:0:
448,192,38744,1,0,0:0:0:0:
192,192,38905,1,0,0:0:0:0:
64,192,39067,1,8,0:0:0:0:
448,192,39067,1,0,0:0:0:0:
320,192,39228,1,0,0:0:0:0:
192,192,39389,1,2,0:0:0:0:
320,192,39389,1,4,0:0:0:0:
448,192,39389,1,0,0:0:0:0:
192,192,39550,1,0,0:0:0:0:
320,192,39631,1,0,0:0:0:0:
64,192,39712,1,0,0:0:0:0:
448,192,39712,1,0,0:0:0:0:
192,192,39873,1,0,0:0:0:0:
64,192,40034,1,2,0:0:0:0:
192,192,40034,1,4,0:0:0:0:
448,192,40034,1,0,0:0:0:0:
320,192,40196,1,0,0:0:0:0:
64,192,40357,1,0,0:0:0:0:
448,192,40357,1,0,0:0:0:0:
64,192,40518,1,2,0:0:0:0:
192,192,40518,1,4,0:0:0:0:
320,192,40518,1,0,0:0:0:0:
64,192,40841,1,2,0:0:0:0:
320,192,40841,1,0,0:0:0:0:
192,192,41002,1,2,0:0:0:0:
320,192,41002,1,0,0:0:0:0:
192,192,41163,1,2,0:0:0:0:
64,192,41163,1,4,0:0:0:0:
448,192,41163,1,0,0:0:0:0:
320,192,41486,1,2,0:0:0:0:
192,192,41567,1,2,0:0:0:0:
64,192,41647,1,8,0:0:0:0:
448,192,41647,1,0,0:0:0:0:
64,192,41809,1,8,0:0:0:0:
320,192,41809,1,0,0:0:0:0:
320,192,41970,1,2,0:0:0:0:
448,192,41970,1,0,0:0:0:0:
192,192,42292,1,0,0:0:0:0:
64,192,42615,1,8,0:0:0:0:
448,192,42615,1,0,0:0:0:0:
320,192,42938,1,0,0:0:0:0:
64,192,43260,1,2,0:0:0:0:
192,192,43260,1,0,0:0:0:0:
320,192,43583,1,2,0:0:0:0:
448,192,43583,1,0,0:0:0:0:
64,192,43905,1,8,0:0:0:0:
448,192,43905,1,0,0:0:0:0:
192,192,44228,1,0,0:0:0:0:
320,192,44550,1,2,0:0:0:0:
448,192,44550,1,0,0:0:0:0:
192,192,44873,1,0,0:0:0:0:
64,192,45196,1,8,0:0:0:0:
448,192,45196,1,0,0:0:0:0:
320,192,45518,1,0,0:0:0:0:
64,192,45841,1,2,0:0:0:0:
192,192,45841,1,0,0:0:0:0:
320,192,46163,1,2,0:0:0:0:
448,192,46163,1,0,0:0:0:0:
64,192,46486,1,8,0:0:0:0:
320,192,46486,1,0,0:0:0:0:
192,192,46809,1,0,0:0:0:0:
320,192,47131,1,2,0:0:0:0:
448,192,47131,1,0,0:0:0:0:
192,192,47454,1,0,0:0:0:0:
64,192,47776,1,8,0:0:0:0:
448,192,47776,1,0,0:0:0:0:
192,192,48099,1,0,0:0:0:0:
320,192,48421,1,2,0:0:0:0:
448,192,48421,1,0,0:0:0:0:
64,192,48744,1,2,0:0:0:0:
192,192,48744,1,0,0:0:0:0:
192,192,49067,1,8,0:0:0:0:
448,192,49067,1,0,0:0:0:0:
320,192,49389,1,0,0:0:0:0:
64,192,49712,1,2,0:0:0:0:
192,192,49712,1,0,0:0:0:0:
320,192,50034,1,0,0:0:0:0:
64,192,50357,1,8,0:0:0:0:
448,192,50357,1,0,0:0:0:0:
192,192,50679,1,0,0:0:0:0:
320,192,51002,1,2,0:0:0:0:
448,192,51002,1,0,0:0:0:0:
64,192,51325,1,2,0:0:0:0:
192,192,51325,1,0,0:0:0:0:
64,192,51647,1,8,0:0:0:0:
320,192,51647,1,4,0:0:0:0:
448,192,51647,1,0,0:0:0:0:
192,192,51970,1,8,0:0:0:0:
448,192,51970,1,0,0:0:0:0:
64,192,52292,1,2,0:0:0:0:
192,192,52292,1,4,0:0:0:0:
320,192,52292,1,0,0:0:0:0:
320,192,52507,1,0,0:0:0:0:
64,192,52615,1,8,0:0:0:0:
448,192,52615,1,0,0:0:0:0:
192,192,52830,1,0,0:0:0:0:
320,192,52938,1,2,0:0:0:0:
448,192,52938,1,0,0:0:0:0:
320,192,53153,1,0,0:0:0:0:
64,192,53260,1,8,0:0:0:0:
448,192,53260,1,0,0:0:0:0:
192,192,53583,128,2,53905:0:0:0:0:
320,192,53583,1,4,0:0:0:0:
448,192,53583,1,0,0:0:0:0:
64,192,53905,1,8,0:0:0:0:
320,192,53905,1,0,0:0:0:0:
192,192,54120,128,4,54550:0:0:0:0:
320,192,54120,1,2,0:0:0:0:
448,192,54120,1,0,0:0:0:0:
448,192,54443,1,0,0:0:0:0:
64,192,54550,1,8,0:0:0:0:
320,192,54550,1,0,0:0:0:0:
192,192,54766,1,0,0:0:0:0:
320,192,54873,1,2,0:0:0:0:
448,192,54873,1,4,0:0:0:0:
192,192,55088,1,0,0:0:0:0:
64,192,55196,1,8,0:0:0:0:
448,192,55196,1,0,0:0:0:0:
320,192,55411,1,0,0:0:0:0:
64,192,55518,1,2,0:0:0:0:
192,192,55518,1,0,0:0:0:0:
192,192,55733,1,0,0:0:0:0:
64,192,55841,1,8,0:0:0:0:
448,192,55841,1,0,0:0:0:0:
64,192,56163,1,2,0:0:0:0:
192,192,56163,1,4,0:0:0:0:
320,192,56163,128,0,56486:0:0:0:0:
192,192,56486,1,8,0:0:0:0:
448,192,56486,1,0,0:0:0:0:
64,192,56701,1,4,0:0:0:0:
192,192,56701,1,2,0:0:0:0:
320,192,56701,128,0,57131:0:0:0:0:
64,192,57024,1,0,0:0:0:0:
192,192,57131,1,8,0:0:0:0:
448,192,57131,1,0,0:0:0:0:
320,192,57346,1,0,0:0:0:0:
64,192,57454,128,2,58099:0:0:0:0:
192,192,58099,128,0,58744:0:0:0:0:
320,192,58744,128,0,59389:0:0:0:0:
448,192,59389,128,0,60034:0:0:0:0:
64,192,60034,1,2,0:0:0:0:
192,192,60034,1,0,0:0:0:0:
320,192,60249,1,2,0:0:0:0:
448,192,60249,1,0,0:0:0:0:
64,192,60464,1,2,0:0:0:0:
192,192,60464,1,0,0:0:0:0:
192,192,60679,1,2,0:0:0:0:
448,192,60679,1,0,0:0:0:0:
64,192,60895,1,2,0:0:0:0:
320,192,60895,1,0,0:0:0:0:
320,192,61110,1,2,0:0:0:0:
448,192,61110,1,0,0:0:0:0:
64,192,61325,1,2,0:0:0:0:
192,192,61325,1,0,0:0:0:0:
64,192,61970,128,2,62615:0:0:0:0:
192,192,61970,1,4,0:0:0:0:
320,192,61970,128,0,62615:0:0:0:0:
192,192,62615,1,2,0:0:0:0:
448,192,62615,1,4,0:0:0:0:
192,192,63260,128,4,63905:0:0:0:0:
320,192,63260,1,2,0:0:0:0:
448,192,63260,128,0,63905:0:0:0:0:
64,192,63905,1,2,0:0:0:0:
320,192,63905,1,4,0:0:0:0:
64,192,64550,128,2,65196:0:0:0:0:
192,192,64550,1,4,0:0:0:0:
448,192,64550,128,0,65196:0:0:0:0:
192,192,65196,1,2,0:0:0:0:
320,192,65196,1,4,0:0:0:0:
192,192,65841,1,4,0:0:0:0:
320,192,65841,1,2,0:0:0:0:
448,192,65841,1,0,0:0:0:0:
64,192,66486,1,2,0:0:0:0:
192,192,66486,1,8,0:0:0:0:
320,192,66486,1,0,0:0:0:0:
192,192,66809,1,8,0:0:0:0:
320,192,66809,1,2,0:0:0:0:
448,192,66809,1,0,0:0:0:0:
64,192,67131,1,2,0:0:0:0:
192,192,67131,1,8,0:0:0:0:
320,192,67131,1,0,0:0:0:0:
320,192,67346,1,8,0:0:0:0:
64,192,67454,1,8,0:0:0:0:
192,192,67454,1,0,0:0:0:0:
448,192,67454,1,0,0:0:0:0:
192,192,67669,1,8,0:0:0:0:
64,192,67776,1,2,0:0:0:0:
320,192,67776,1,4,0:0:0:0:
448,192,67776,1,0,0:0:0:0:
448,192,67991,1,0,0:0:0:0:
64,192,68099,1,8,0:0:0:0:
320,192,68099,1,0,0:0:0:0:
192,192,68314,1,0,0:0:0:0:
320,192,68421,1,2,0:0:0:0:
448,192,68421,1,0,0:0:0:0:
448,192,68636,1,2,0:0:0:0:
64,192,68744,1,8,0:0:0:0:
320,192,68744,1,0,0:0:0:0:
320,192,68959,1,0,0:0:0:0:
64,192,69067,1,2,0:0:0:0:
192,192,69067,1,0,0:0:0:0:
64,192,69282,1,0,0:0:0:0:
192,192,69389,1,8,0:0:0:0:
448,192,69389,1,0,0:0:0:0:
320,192,69604,1,0,0:0:0:0:
64,192,69712,1,2,0:0:0:0:
192,192,69712,1,0,0:0:0:0:
64,192,69927,1,2,0:0:0:0:
192,192,70034,1,8,0:0:0:0:
448,192,70034,1,0,0:0:0:0:
320,192,70357,1,2,0:0:0:0:
448,192,70357,1,0,0:0:0:0:
192,192,70572,1,0,0:0:0:0:
64,192,70679,1,8,0:0:0:0:
320,192,70679,1,0,0:0:0:0:
192,192,70895,1,0,0:0:0:0:
320,192,71002,1,2,0:0:0:0:
448,192,71002,1,0,0:0:0:0:
192,192,71217,1,2,0:0:0:0:
64,192,71325,1,8,0:0:0:0:
320,192,71325,1,0,0:0:0:0:
192,192,71540,1,0,0:0:0:0:
320,192,71647,1,2,0:0:0:0:
448,192,71647,1,0,0:0:0:0:
64,192,71862,1,2,0:0:0:0:
192,192,71970,1,8,0:0:0:0:
320,192,71970,1,4,0:0:0:0:
448,192,71970,1,0,0:0:0:0:
320,192,72185,1,2,0:0:0:0:
64,192,72292,1,4,0:0:0:0:
192,192,72292,1,8,0:0:0:0:
448,192,72292,1,0,0:0:0:0:
448,192,72507,1,2,0:0:0:0:
64,192,72615,1,8,0:0:0:0:
192,192,72615,1,4,0:0:0:0:
320,192,72615,1,0,0:0:0:0:
192,192,72830,1,2,0:0:0:0:
64,192,72938,1,4,0:0:0:0:
320,192,72938,1,8,0:0:0:0:
448,192,72938,1,0,0:0:0:0:
320,192,73153,1,0,0:0:0:0:
192,192,73260,1,8,0:0:0:0:
448,192,73260,1,0,0:0:0:0:
320,192,73475,1,0,0:0:0:0:
64,192,73583,1,2,0:0:0:0:
192,192,73583,1,0,0:0:0:0:
320,192,73798,1,2,0:0:0:0:
192,192,73905,1,8,0:0:0:0:
448,192,73905,1,0,0:0:0:0:
320,192,74228,1,2,0:0:0:0:
448,192,74228,1,0,0:0:0:0:
64,192,74443,1,2,0:0:0:0:
192,192,74550,1,8,0:0:0:0:
320,192,74550,1,0,0:0:0:0:
448,192,74550,1,0,0:0:0:0:
192,192,74766,1,2,0:0:0:0:
64,192,74873,1,8,0:0:0:0:
320,192,74873,1,0,0:0:0:0:
448,192,74873,1,0,0:0:0:0:
320,192,75088,1,2,0:0:0:0:
64,192,75196,1,8,0:0:0:0:
192,192,75196,1,0,0:0:0:0:
448,192,75196,1,0,0:0:0:0:
448,192,75411,1,2,0:0:0:0:
64,192,75518,1,8,0:0:0:0:
192,192,75518,1,4,0:0:0:0:
320,192,75518,1,0,0:0:0:0:
192,192,75841,1,0,0:0:0:0:
320,192,76056,1,2,0:0:0:0:
448,192,76056,1,0,0:0:0:0:
320,192,76163,1,2,0:0:0:0:
448,192,76163,1,0,0:0:0:0:
64,192,76486,1,8,0:0:0:0:
320,192,76486,1,0,0:0:0:0:
448,192,76486,1,0,0:0:0:0:
64,192,76809,1,2,0:0:0:0:
192,192,76809,1,0,0:0:0:0:
448,192,76809,1,0,0:0:0:0:
320,192,77131,1,0,0:0:0:0:
64,192,77346,1,2,0:0:0:0:
192,192,77346,1,0,0:0:0:0:
64,192,77454,1,2,0:0:0:0:
192,192,77454,1,0,0:0:0:0:
64,192,77776,1,8,0:0:0:0:
320,192,77776,1,0,0:0:0:0:
448,192,77776,1,0,0:0:0:0:
64,192,78099,1,2,0:0:0:0:
192,192,78099,1,0,0:0:0:0:
320,192,78206,1,2,0:0:0:0:
192,192,78314,1,2,0:0:0:0:
64,192,78421,1,2,0:0:0:0:
320,192,78421,1,4,0:0:0:0:
448,192,78421,1,0,0:0:0:0:
320,192,78744,1,2,0:0:0:0:
448,192,78744,1,0,0:0:0:0:
192,192,78852,1,2,0:0:0:0:
320,192,78959,1,2,0:0:0:0:
64,192,79067,1,2,0:0:0:0:
192,192,79067,1,4,0:0:0:0:
448,192,79067,1,0,0:0:0:0:
64,192,79389,1,2,0:0:0:0:
192,192,79389,1,4,0:0:0:0:
448,192,79389,1,0,0:0:0:0:
320,192,79497,1,2,0:0:0:0:
64,192,79604,1,2,0:0:0:0:
320,192,79712,1,4,0:0:0:0:
448,192,79712,1,2,0:0:0:0:
192,192,79819,1,2,0:0:0:0:
448,192,79927,1,2,0:0:0:0:
64,192,80034,1,4,0:0:0:0:
192,192,80034,1,2,0:0:0:0:
320,192,80142,1,2,0:0:0:0:
192,192,80249,1,2,0:0:0:0:
64,192,80357,1,2,0:0:0:0:
320,192,80357,1,4,0:0:0:0:
448,192,80357,1,0,0:0:0:0:
64,192,80679,1,2,0:0:0:0:
320,192,80679,128,0,81002:0:0:0:0:
448,192,80679,1,0,0:0:0:0:
192,192,80841,1,0,0:0:0:0:
64,192,81002,128,2,81163:0:0:0:0:
320,192,81163,128,0,81647:0:0:0:0:
64,192,81325,1,2,0:0:0:0:
448,192,81486,1,0,0:0:0:0:
64,192,81647,1,2,0:0:0:0:
192,192,81647,1,0,0:0:0:0:
320,192,81809,1,0,0:0:0:0:
64,192,81970,1,2,0:0:0:0:
320,192,81970,128,4,82292:0:0:0:0:
448,192,81970,128,0,82292:0:0:0:0:
192,192,82131,1,0,0:0:0:0:
64,192,82292,1,2,0:0:0:0:
320,192,82454,128,4,82938:0:0:0:0:
448,192,82454,128,0,82938:0:0:0:0:
64,192,82615,1,2,0:0:0:0:
192,192,82776,1,0,0:0:0:0:
64,192,82938,1,2,0:0:0:0:
320,192,83099,1,0,0:0:0:0:
64,192,83260,1,2,0:0:0:0:
192,192,83260,1,4,0:0:0:0:
448,192,83260,128,0,83583:0:0:0:0:
320,192,83421,1,0,0:0:0:0:
192,192,83583,128,2,83744:0:0:0:0:
320,192,83744,1,0,0:0:0:0:
448,192,83744,128,0,84228:0:0:0:0:
64,192,83905,1,2,0:0:0:0:
192,192,84067,1,0,0:0:0:0:
64,192,84228,1,2,0:0:0:0:
192,192,84228,1,0,0:0:0:0:
320,192,84389,1,0,0:0:0:0:
64,192,84550,128,2,84873:0:0:0:0:
192,192,84550,128,4,84873:0:0:0:0:
448,192,84550,1,0,0:0:0:0:
320,192,84712,1,0,0:0:0:0:
448,192,84873,1,2,0:0:0:0:
64,192,85034,128,4,85518:0:0:0:0:
192,192,85034,128,0,85518:0:0:0:0:
448,192,85196,1,2,0:0:0:0:
320,192,85357,1,0,0:0:0:0:
448,192,85518,1,2,0:0:0:0:
192,192,85679,1,0,0:0:0:0:
64,192,85841,1,2,0:0:0:0:
320,192,85841,1,4,0:0:0:0:
448,192,85841,128,0,86163:0:0:0:0:
192,192,86002,1,0,0:0:0:0:
64,192,86163,128,10,86325:0:0:0:0:
448,192,86325,128,0,86809:0:0:0:0:
64,192,86486,1,2,0:0:0:0:
192,192,86647,1,0,0:0:0:0:
64,192,86809,1,2,0:0:0:0:
320,192,86809,1,8,0:0:0:0:
192,192,86970,1,0,0:0:0:0:
320,192,87131,128,2,87454:0:0:0:0:
448,192,87131,128,4,87454:0:0:0:0:
64,192,87292,1,0,0:0:0:0:
192,192,87454,1,10,0:0:0:0:
320,192,87615,128,4,87938:0:0:0:0:
448,192,87615,128,0,87938:0:0:0:0:
192,192,87776,1,2,0:0:0:0:
64,192,87938,1,8,0:0:0:0:
320,192,88099,1,2,0:0:0:0:
448,192,88099,1,8,0:0:0:0:
64,192,88179,1,8,0:0:0:0:
192,192,88260,1,8,0:0:0:0:
320,192,88341,1,8,0:0:0:0:
64,192,88421,1,2,0:0:0:0:
192,192,88421,1,4,0:0:0:0:
448,192,88421,1,0,0:0:0:0:
192,192,88744,1,0,0:0:0:0:
320,192,88959,1,2,0:0:0:0:
448,192,88959,1,0,0:0:0:0:
320,192,89067,1,2,0:0:0:0:
448,192,89067,1,0,0:0:0:0:
64,192,89389,1,8,0:0:0:0:
192,192,89389,1,0,0:0:0:0:
448,192,89389,1,0,0:0:0:0:
192,192,89712,1,2,0:0:0:0:
320,192,89712,1,0,0:0:0:0:
320,192,90034,1,0,0:0:0:0:
64,192,90249,1,2,0:0:0:0:
192,192,90249,1,0,0:0:0:0:
64,192,90357,1,2,0:0:0:0:
192,192,90357,1,0,0:0:0:0:
64,192,90679,1,8,0:0:0:0:
320,192,90679,1,0,0:0:0:0:
448,192,90679,1,0,0:0:0:0:
64,192,91002,1,2,0:0:0:0:
192,192,91002,1,0,0:0:0:0:
320,192,91110,1,2,0:0:0:0:
192,192,91217,1,2,0:0:0:0:
64,192,91325,1,4,0:0:0:0:
320,192,91325,1,2,0:0:0:0:
448,192,91325,1,0,0:0:0:0:
320,192,91647,1,2,0:0:0:0:
448,192,91647,1,0,0:0:0:0:
192,192,91755,1,2,0:0:0:0:
320,192,91862,1,2,0:0:0:0:
64,192,91970,1,4,0:0:0:0:
192,192,91970,1,2,0:0:0:0:
448,192,91970,1,0,0:0:0:0:
64,192,92292,1,2,0:0:0:0:
192,192,92292,1,0,0:0:0:0:
320,192,92400,1,2,0:0:0:0:
192,192,92507,1,2,0:0:0:0:
320,192,92615,1,2,0:0:0:0:
448,192,92615,1,0,0:0:0:0:
64,192,92723,1,2,0:0:0:0:
192,192,92830,1,2,0:0:0:0:
320,192,92938,1,2,0:0:0:0:
448,192,92938,1,0,0:0:0:0:
64,192,93260,1,0,0:0:0:50:Cymatics - Main Clap 9_Reverb.wav
192,192,93260,1,0,0:0:0:0:
448,192,93260,1,0,0:0:0:0:
64,192,93583,1,2,0:0:0:0:
320,192,93583,1,4,0:0:0:0:
448,192,93583,1,0,0:0:0:0:
192,192,93744,1,0,0:0:0:0:
320,192,93905,1,8,0:0:0:0:
448,192,93905,1,0,0:0:0:0:
64,192,94067,1,0,0:0:0:0:
192,192,94228,1,2,0:0:0:0:
448,192,94228,1,0,0:0:0:0:
320,192,94389,1,0,0:0:0:0:
192,192,94550,1,8,0:0:0:0:
64,192,94550,1,0,0:0:0:0:
192,192,94712,1,0,0:0:0:0:
448,192,94712,1,0,0:0:0:0:
64,192,94873,1,2,0:0:0:0:
320,192,95034,1,0,0:0:0:0:
448,192,95034,1,0,0:0:0:0:
64,192,95196,1,8,0:0:0:0:
320,192,95196,1,0,0:0:0:0:
192,192,95357,1,0,0:0:0:0:
448,192,95357,1,0,0:0:0:0:
64,192,95518,1,2,0:0:0:0:
192,192,95518,1,0,0:0:0:0:
320,192,95679,1,0,0:0:0:0:
448,192,95841,1,8,0:0:0:0:
64,192,95841,1,0,0:0:0:0:
192,192,96002,1,0,0:0:0:0:
320,192,96002,1,0,0:0:0:0:
64,192,96163,1,2,0:0:0:0:
192,192,96163,1,0,0:0:0:0:
320,192,96325,1,0,0:0:0:0:
192,192,96486,1,8,0:0:0:0:
448,192,96486,1,0,0:0:0:0:
320,192,96647,1,0,0:0:0:0:
192,192,96809,1,2,0:0:0:0:
64,192,96809,1,0,0:0:0:0:
192,192,96970,1,0,0:0:0:0:
64,192,97131,1,8,0:0:0:0:
320,192,97131,1,0,0:0:0:0:
192,192,97292,1,0,0:0:0:0:
448,192,97292,1,0,0:0:0:0:
64,192,97454,1,2,0:0:0:0:
320,192,97454,1,4,0:0:0:0:
448,192,97454,1,0,0:0:0:0:
192,192,97615,1,0,0:0:0:0:
448,192,97776,1,8,0:0:0:0:
320,192,97776,1,4,0:0:0:0:
192,192,97938,1,0,0:0:0:0:
64,192,97938,1,0,0:0:0:0:
64,192,98099,1,2,0:0:0:0:
320,192,98099,1,4,0:0:0:0:
448,192,98099,1,0,0:0:0:0:
192,192,98260,1,0,0:0:0:0:
192,192,98421,1,8,0:0:0:0:
64,192,98421,1,4,0:0:0:0:
448,192,98421,1,0,0:0:0:0:
320,192,98583,1,0,0:0:0:0:
64,192,98744,1,4,0:0:0:0:
320,192,98744,1,2,0:0:0:0:
448,192,98744,1,0,0:0:0:0:
192,192,98905,1,0,0:0:0:0:
448,192,99067,1,8,0:0:0:0:
64,192,99067,1,0,0:0:0:0:
192,192,99228,1,0,0:0:0:0:
320,192,99389,1,2,0:0:0:0:
448,192,99389,1,0,0:0:0:0:
64,192,99550,1,0,0:0:0:0:
448,192,99712,1,8,0:0:0:0:
192,192,99873,1,0,0:0:0:0:
320,192,99873,1,0,0:0:0:0:
64,192,100034,1,2,0:0:0:0:
320,192,100196,1,0,0:0:0:0:
448,192,100196,1,0,0:0:0:0:
320,192,100357,1,8,0:0:0:0:
64,192,100357,1,0,0:0:0:0:
192,192,100518,1,0,0:0:0:0:
448,192,100518,1,0,0:0:0:0:
64,192,100679,1,2,0:0:0:0:
192,192,100679,1,0,0:0:0:0:
320,192,100841,1,0,0:0:0:0:
448,192,101002,1,8,0:0:0:0:
192,192,101002,1,0,0:0:0:0:
448,192,101163,1,0,0:0:0:0:
64,192,101163,1,0,0:0:0:0:
64,192,101325,1,2,0:0:0:0:
320,192,101325,1,0,0:0:0:0:
192,192,101486,1,0,0:0:0:0:
64,192,101647,1,8,0:0:0:0:
448,192,101647,1,0,0:0:0:0:
448,192,101809,1,0,0:0:0:0:
64,192,101970,1,2,0:0:0:0:
192,192,101970,1,0,0:0:0:0:
320,192,102131,1,0,0:0:0:0:
320,192,102292,1,8,0:0:0:0:
64,192,102292,1,0,0:0:0:0:
192,192,102454,1,0,0:0:0:0:
448,192,102454,1,0,0:0:0:0:
320,192,102615,1,2,0:0:0:0:
448,192,102615,1,0,0:0:0:0:
64,192,102776,1,8,0:0:0:0:
320,192,102776,1,0,0:0:0:0:
64,192,102938,1,2,0:0:0:0:
192,192,102938,1,0,0:0:0:0:
192,192,103099,1,8,0:0:0:0:
448,192,103099,1,0,0:0:0:0:
320,192,103260,1,2,0:0:0:0:
448,192,103260,1,0,0:0:0:0:
64,192,103421,1,8,0:0:0:0:
192,192,103421,1,0,0:0:0:0:
64,192,103583,1,0,0:0:0:70:LR_Clap Drum hit.wav
320,192,103583,1,4,0:0:0:0:
448,192,103583,1,0,0:0:0:0:
192,192,103744,1,8,0:0:0:0:
320,192,103744,1,0,0:0:0:0:
64,192,103905,1,2,0:0:0:0:
192,192,103905,1,4,0:0:0:0:
448,192,103905,1,0,0:0:0:0:
320,192,104067,1,8,0:0:0:0:
192,192,104228,1,2,0:0:0:0:
64,192,104228,1,0,0:0:0:0:
320,192,104309,1,2,0:0:0:0:
448,192,104389,1,8,0:0:0:0:
64,192,104550,1,2,0:0:0:0:
320,192,104550,1,0,0:0:0:0:
192,192,104712,1,8,0:0:0:0:
320,192,104873,1,2,0:0:0:0:
64,192,104954,1,2,0:0:0:0:
192,192,105034,1,8,0:0:0:0:
448,192,105034,1,0,0:0:0:0:
320,192,105196,1,2,0:0:0:0:
192,192,105357,1,8,0:0:0:0:
448,192,105357,1,0,0:0:0:0:
192,192,105518,1,2,0:0:0:0:
64,192,105518,1,0,0:0:0:0:
320,192,105599,1,2,0:0:0:0:
448,192,105679,1,8,0:0:0:0:
320,192,105841,1,2,0:0:0:0:
64,192,105841,1,0,0:0:0:0:
192,192,106002,1,8,0:0:0:0:
192,192,106163,1,2,0:0:0:0:
64,192,106163,1,0,0:0:0:0:
320,192,106244,1,2,0:0:0:0:
448,192,106325,1,8,0:0:0:0:
320,192,106486,1,2,0:0:0:0:
64,192,106486,1,0,0:0:0:0:
192,192,106647,1,8,0:0:0:0:
192,192,106809,1,2,0:0:0:0:
448,192,106809,1,0,0:0:0:0:
64,192,106889,1,2,0:0:0:0:
320,192,106970,1,8,0:0:0:0:
64,192,107131,1,2,0:0:0:0:
192,192,107131,1,0,0:0:0:0:
192,192,107292,1,8,0:0:0:0:
448,192,107292,1,0,0:0:0:0:
320,192,107454,1,2,0:0:0:0:
64,192,107454,1,0,0:0:0:0:
192,192,107534,1,2,0:0:0:0:
448,192,107615,1,8,0:0:0:0:
192,192,107776,1,2,0:0:0:0:
320,192,107776,1,4,0:0:0:0:
448,192,107776,1,0,0:0:0:0:
64,192,107938,1,8,0:0:0:0:
320,192,107938,1,0,0:0:0:0:
64,192,108099,1,2,0:0:0:0:
192,192,108099,1,4,0:0:0:0:
192,192,108260,1,8,0:0:0:0:
448,192,108260,1,0,0:0:0:0:
64,192,108421,1,2,0:0:0:0:
320,192,108421,1,4,0:0:0:0:
448,192,108421,1,0,0:0:0:0:
192,192,108583,1,8,0:0:0:0:
64,192,108744,1,2,0:0:0:0:
192,192,108744,1,4,0:0:0:0:
448,192,108744,1,0,0:0:0:0:
448,192,108905,1,8,0:0:0:0:
64,192,109067,1,2,0:0:0:0:
192,192,109067,1,4,0:0:0:0:
320,192,109067,1,0,0:0:0:0:
192,192,109228,1,8,0:0:0:0:
320,192,109389,1,2,0:0:0:0:
448,192,109389,1,0,0:0:0:0:
64,192,109470,1,2,0:0:0:0:
192,192,109550,1,8,0:0:0:0:
192,192,109712,1,2,0:0:0:0:
64,192,109712,1,0,0:0:0:0:
320,192,109873,1,8,0:0:0:0:
192,192,110034,1,2,0:0:0:0:
64,192,110115,1,2,0:0:0:0:
320,192,110196,1,8,0:0:0:0:
448,192,110196,1,0,0:0:0:0:
192,192,110357,1,2,0:0:0:0:
64,192,110518,1,8,0:0:0:0:
320,192,110518,1,0,0:0:0:0:
192,192,110679,1,2,0:0:0:0:
448,192,110679,1,0,0:0:0:0:
64,192,110760,1,2,0:0:0:0:
320,192,110841,1,8,0:0:0:0:
64,192,111002,1,2,0:0:0:0:
320,192,111002,1,0,0:0:0:0:
192,192,111163,1,8,0:0:0:0:
320,192,111325,1,2,0:0:0:0:
192,192,111405,1,2,0:0:0:0:
64,192,111486,1,8,0:0:0:0:
448,192,111486,1,0,0:0:0:0:
192,192,111647,1,2,0:0:0:0:
320,192,111647,1,4,0:0:0:0:
448,192,111647,1,0,0:0:0:0:
320,192,111970,1,0,0:0:0:0:
192,192,112131,1,0,0:0:0:0:
64,192,112292,1,2,0:0:0:0:
192,192,112292,1,4,0:0:0:0:
320,192,112292,1,0,0:0:0:0:
192,192,112615,1,0,0:0:0:0:
320,192,112776,1,0,0:0:0:0:
64,192,112938,1,2,0:0:0:0:
320,192,112938,1,4,0:0:0:0:
448,192,112938,1,0,0:0:0:0:
192,192,113099,1,8,0:0:0:0:
448,192,113099,1,0,0:0:0:0:
64,192,113260,1,2,0:0:0:0:
192,192,113341,1,2,0:0:0:0:
320,192,113421,1,8,0:0:0:0:
448,192,113421,1,0,0:0:0:0:
64,192,113583,1,2,0:0:0:0:
192,192,113583,1,0,0:0:0:0:
192,192,113744,1,8,0:0:0:0:
448,192,113744,1,0,0:0:0:0:
448,192,113905,1,2,0:0:0:0:
320,192,113986,1,2,0:0:0:0:
192,192,114067,1,8,0:0:0:0:
64,192,114228,1,2,0:0:0:0:
192,192,114228,1,4,0:0:0:0:
448,192,114228,1,0,0:0:0:0:
320,192,114550,1,0,0:0:0:0:
64,192,114712,1,0,0:0:0:0:
64,192,114873,1,4,0:0:0:0:
320,192,114873,1,2,0:0:0:0:
448,192,114873,1,0,0:0:0:0:
192,192,115196,1,0,0:0:0:0:
320,192,115357,1,0,0:0:0:0:
64,192,115518,1,4,0:0:0:0:
192,192,115518,1,2,0:0:0:0:
320,192,115518,1,0,0:0:0:0:
192,192,115679,1,8,0:0:0:0:
448,192,115679,1,0,0:0:0:0:
192,192,115841,1,2,0:0:0:0:
320,192,115841,1,0,0:0:0:0:
64,192,116002,1,8,0:0:0:0:
448,192,116002,1,0,0:0:0:0:
320,192,116163,1,2,0:0:0:0:
448,192,116163,1,0,0:0:0:0:
64,192,116325,1,8,0:0:0:0:
320,192,116325,1,0,0:0:0:0:
64,192,116486,1,2,0:0:0:0:
192,192,116567,1,0,0:0:0:0:
320,192,116647,1,8,0:0:0:0:
64,192,116809,1,0,0:0:0:70:LR_Clap Drum hit.wav
320,192,116809,1,0,0:0:0:0:
448,192,116809,1,0,0:0:0:0:
192,192,116970,1,0,0:0:0:0:
320,192,117131,1,0,0:0:0:70:LR_Clap Drum hit.wav
448,192,117131,1,0,0:0:0:0:
192,192,117292,1,0,0:0:0:0:
320,192,117454,1,0,0:0:0:70:LR_Clap Drum hit.wav
448,192,117454,1,0,0:0:0:0:
320,192,117615,1,0,0:0:0:70:LR_Clap Drum hit.wav
448,192,117615,1,0,0:0:0:0:
192,192,117776,1,0,0:0:0:0:
320,192,117938,1,0,0:0:0:70:LR_Clap Drum hit.wav
448,192,117938,1,0,0:0:0:0:
192,192,118099,1,0,0:0:0:0:
320,192,118260,1,0,0:0:0:70:LR_Clap Drum hit.wav
448,192,118260,1,0,0:0:0:0:
192,192,118421,1,0,0:0:0:0:
320,192,118583,1,0,0:0:0:70:LR_Clap Drum hit.wav
448,192,118583,1,0,0:0:0:0:
64,192,118744,1,0,0:0:0:70:LR_Clap Drum hit.wav
192,192,118744,1,0,0:0:0:0:
320,192,118905,1,2,0:0:0:0:
64,192,119067,1,0,0:0:0:70:LR_Clap Drum hit.wav
448,192,119067,1,0,0:0:0:0:
64,192,119389,1,0,0:0:0:70:LR_Clap Drum hit.wav
192,192,119389,1,0,0:0:0:0:
320,192,119550,1,0,0:0:0:0:
64,192,119712,1,0,0:0:0:70:LR_Clap Drum hit.wav
192,192,119712,1,0,0:0:0:0:
320,192,119873,1,0,0:0:0:0:
64,192,120034,1,0,0:0:0:70:LR_Clap Drum hit.wav
192,192,120034,1,0,0:0:0:0:
64,192,120196,1,0,0:0:0:70:LR_Clap Drum hit.wav
192,192,120196,1,0,0:0:0:0:
320,192,120357,1,0,0:0:0:0:
64,192,120518,1,0,0:0:0:70:LR_Clap Drum hit.wav
192,192,120518,1,0,0:0:0:0:
320,192,120679,1,0,0:0:0:0:
64,192,120841,1,0,0:0:0:70:LR_Clap Drum hit.wav
192,192,120841,1,0,0:0:0:0:
320,192,121002,1,0,0:0:0:0:
64,192,121163,1,0,0:0:0:70:LR_Clap Drum hit.wav
192,192,121163,1,0,0:0:0:0:
320,192,121325,1,0,0:0:0:70:LR_Clap Drum hit.wav
448,192,121325,1,0,0:0:0:0:
192,192,121486,1,2,0:0:0:0:
64,192,121647,1,0,0:0:0:70:LR_Clap Drum hit.wav
448,192,121647,1,0,0:0:0:0:
64,192,121970,1,0,0:0:0:70:LR_Clap Drum hit.wav
448,192,121970,1,0,0:0:0:0:
192,192,122131,1,0,0:0:0:0:
64,192,122292,1,0,0:0:0:70:LR_Clap Drum hit.wav
448,192,122292,1,0,0:0:0:0:
320,192,122454,1,0,0:0:0:0:
64,192,122615,1,0,0:0:0:70:LR_Clap Drum hit.wav
448,192,122615,1,0,0:0:0:0:
64,192,122776,1,0,0:0:0:70:LR_Clap Drum hit.wav
448,192,122776,1,0,0:0:0:0:
192,192,122938,1,0,0:0:0:0:
64,192,123099,1,0,0:0:0:70:LR_Clap Drum hit.wav
448,192,123099,1,0,0:0:0:0:
320,192,123260,1,0,0:0:0:0:
64,192,123421,1,0,0:0:0:70:LR_Clap Drum hit.wav
448,192,123421,1,0,0:0:0:0:
192,192,123583,1,0,0:0:0:0:
64,192,123744,1,0,0:0:0:70:LR_Clap Drum hit.wav
448,192,123744,1,0,0:0:0:0:
320,192,123905,1,0,0:0:0:70:LR_Clap Drum hit.wav
192,192,124067,1,2,0:0:0:0:
64,192,124228,1,0,0:0:0:70:LR_Clap Drum hit.wav
448,192,124228,1,0,0:0:0:0:
448,192,124550,1,2,0:0:0:0:
64,192,124712,1,0,0:0:0:70:LR_Clap Drum hit.wav
192,192,124712,1,0,0:0:0:0:
192,192,124873,1,0,0:0:0:70:LR_Clap Drum hit.wav
448,192,124873,1,0,0:0:0:0:
64,192,125034,1,0,0:0:0:70:LR_Clap Drum hit.wav
320,192,125034,1,0,0:0:0:0:
320,192,125196,1,0,0:0:0:70:LR_Clap Drum hit.wav
448,192,125196,1,0,0:0:0:0:
64,192,125518,1,0,0:0:0:70:LR_Clap Drum hit.wav
192,192,125518,1,0,0:0:0:0:
64,192,125841,1,0,0:0:0:70:LR_Clap Drum hit.wav
320,192,125841,1,0,0:0:0:0:
192,192,126002,1,0,0:0:0:70:LR_Clap Drum hit.wav
448,192,126002,1,0,0:0:0:0:
192,192,126325,1,0,0:0:0:70:LR_Clap Drum hit.wav
448,192,126325,1,0,0:0:0:0:
64,192,126486,1,0,0:0:0:70:LR_Clap Drum hit.wav
320,192,126486,1,0,0:0:0:0:
192,192,126647,1,2,0:0:0:0:
320,192,126809,1,0,0:0:0:70:LR_Clap Drum hit.wav
448,192,126809,1,0,0:0:0:0:
320,192,127131,1,2,0:0:0:0:
448,192,127131,1,0,0:0:0:70:LR_Clap Drum hit.wav
64,192,127131,1,4,0:0:0:0:
192,192,127292,1,0,0:0:0:0:
320,192,127454,1,2,0:0:0:0:
448,192,127454,1,0,0:0:0:70:LR_Clap Drum hit.wav
192,192,127615,1,0,0:0:0:0:
320,192,127776,1,2,0:0:0:0:
448,192,127776,1,0,0:0:0:70:LR_Clap Drum hit.wav
320,192,127938,1,0,0:0:0:70:LR_Clap Drum hit.wav
448,192,127938,1,0,0:0:0:0:
192,192,128099,1,2,0:0:0:0:
320,192,128260,1,0,0:0:0:70:LR_Clap Drum hit.wav
448,192,128260,1,0,0:0:0:0:
192,192,128421,1,2,0:0:0:0:
320,192,128583,1,0,0:0:0:70:LR_Clap Drum hit.wav
448,192,128583,1,0,0:0:0:0:
192,192,128744,1,2,0:0:0:0:
320,192,128905,1,0,0:0:0:70:LR_Clap Drum hit.wav
448,192,128905,1,0,0:0:0:0:
64,192,129067,1,0,0:0:0:70:LR_Clap Drum hit.wav
192,192,129067,1,0,0:0:0:0:
320,192,129228,1,0,0:0:0:70:LR_Clap Drum hit.wav
192,192,129389,1,0,0:0:0:70:LR_Clap Drum hit.wav
448,192,129389,1,0,0:0:0:0:
320,192,129550,1,0,0:0:0:0:
64,192,129712,1,2,0:0:0:0:
192,192,129712,1,0,0:0:0:70:LR_Clap Drum hit.wav
320,192,129873,1,0,0:0:0:0:
64,192,130034,1,2,0:0:0:0:
192,192,130034,1,0,0:0:0:70:LR_Clap Drum hit.wav
320,192,130196,1,0,0:0:0:0:
64,192,130357,1,2,0:0:0:0:
192,192,130357,1,0,0:0:0:70:LR_Clap Drum hit.wav
64,192,130518,1,0,0:0:0:70:LR_Clap Drum hit.wav
192,192,130518,1,0,0:0:0:0:
320,192,130679,1,2,0:0:0:0:
64,192,130841,1,0,0:0:0:70:LR_Clap Drum hit.wav
192,192,130841,1,0,0:0:0:0:
320,192,131002,1,2,0:0:0:0:
64,192,131163,1,0,0:0:0:70:LR_Clap Drum hit.wav
192,192,131163,1,0,0:0:0:0:
320,192,131325,1,2,0:0:0:0:
64,192,131486,1,0,0:0:0:70:LR_Clap Drum hit.wav
192,192,131486,1,0,0:0:0:0:
320,192,131647,1,0,0:0:0:70:LR_Clap Drum hit.wav
448,192,131647,1,0,0:0:0:0:
192,192,131809,1,0,0:0:0:70:LR_Clap Drum hit.wav
64,192,131970,1,0,0:0:0:70:LR_Clap Drum hit.wav
448,192,131970,1,0,0:0:0:0:
320,192,132131,1,0,0:0:0:0:
64,192,132292,1,2,0:0:0:0:
448,192,132292,1,0,0:0:0:70:LR_Clap Drum hit.wav
192,192,132454,1,0,0:0:0:0:
320,192,132615,1,2,0:0:0:0:
448,192,132615,1,0,0:0:0:70:LR_Clap Drum hit.wav
192,192,132776,1,0,0:0:0:0:
64,192,132938,1,2,0:0:0:0:
320,192,132938,1,0,0:0:0:70:LR_Clap Drum hit.wav
192,192,133099,1,0,0:0:0:70:LR_Clap Drum hit.wav
448,192,133099,1,0,0:0:0:0:
320,192,133260,1,2,0:0:0:0:
64,192,133421,1,0,0:0:0:70:LR_Clap Drum hit.wav
448,192,133421,1,0,0:0:0:0:
192,192,133583,1,2,0:0:0:0:
64,192,133744,1,0,0:0:0:70:LR_Clap Drum hit.wav
320,192,133744,1,0,0:0:0:0:
192,192,133905,1,2,0:0:0:0:
320,192,134067,1,0,0:0:0:70:LR_Clap Drum hit.wav
448,192,134067,1,0,0:0:0:0:
64,192,134228,1,0,0:0:0:70:LR_Clap Drum hit.wav
192,192,134228,1,2,0:0:0:0:
320,192,134389,1,0,0:0:0:70:LR_Clap Drum hit.wav
448,192,134389,1,0,0:0:0:0:
64,192,134550,1,0,0:0:0:70:LR_Clap Drum hit.wav
448,192,134550,1,2,0:0:0:0:
320,192,134712,1,0,0:0:0:0:
192,192,134873,1,2,0:0:0:0:
64,192,135034,1,0,0:0:0:70:LR_Clap Drum hit.wav
320,192,135034,1,0,0:0:0:0:
64,192,135196,1,0,0:0:0:70:LR_Clap Drum hit.wav
320,192,135196,1,0,0:0:0:0:
192,192,135357,1,0,0:0:0:70:LR_Clap Drum hit.wav
448,192,135357,1,0,0:0:0:0:
192,192,135518,1,0,0:0:0:70:LR_Clap Drum hit.wav
448,192,135518,128,0,135841:0:0:0:0:
64,192,135841,1,0,0:0:0:70:LR_Clap Drum hit.wav
192,192,135841,128,0,136163:0:0:0:0:
64,192,136163,1,0,0:0:0:70:LR_Clap Drum hit.wav
320,192,136163,128,0,136325:0:0:0:0:
192,192,136325,1,0,0:0:0:70:LR_Clap Drum hit.wav
448,192,136325,128,0,136647:0:0:0:0:
64,192,136647,1,0,0:0:0:70:LR_Clap Drum hit.wav
320,192,136647,128,0,136809:0:0:0:0:
192,192,136809,128,0,136970:0:0:0:70:LR_Clap Drum hit.wav
320,192,136970,128,2,137131:0:0:0:0:
64,192,137131,1,0,0:0:0:70:LR_Clap Drum hit.wav
192,192,137131,1,0,0:0:0:0:
448,192,137131,128,0,137454:0:0:0:0:
64,192,137454,1,4,0:0:0:0:
192,192,137454,1,2,0:0:0:0:
320,192,137454,1,0,0:0:0:0:
192,192,137615,1,0,0:0:0:0:
320,192,137696,1,0,0:0:0:0:
64,192,137776,1,8,0:0:0:0:
448,192,137776,1,0,0:0:0:0:
64,192,137938,1,0,0:0:0:0:
192,192,138018,1,0,0:0:0:0:
320,192,138099,1,2,0:0:0:0:
448,192,138099,1,0,0:0:0:0:
192,192,138260,1,0,0:0:0:0:
64,192,138421,1,8,0:0:0:0:
192,192,138421,1,0,0:0:0:0:
448,192,138421,1,0,0:0:0:0:
320,192,138583,128,0,138905:0:0:0:0:
64,192,138744,1,2,0:0:0:0:
192,192,138905,128,0,139067:0:0:0:0:
64,192,139067,128,8,139228:0:0:0:0:
320,192,139067,1,0,0:0:0:0:
448,192,139228,128,0,139389:0:0:0:0:
64,192,139389,128,2,139712:0:0:0:0:
192,192,139389,1,0,0:0:0:0:
320,192,139550,1,0,0:0:0:0:
448,192,139550,1,0,0:0:0:0:
192,192,139712,1,8,0:0:0:0:
320,192,139712,128,0,140034:0:0:0:0:
64,192,140034,1,2,0:0:0:0:
192,192,140034,128,0,140196:0:0:0:0:
448,192,140196,128,0,140357:0:0:0:0:
64,192,140357,1,8,0:0:0:0:
320,192,140357,128,0,140518:0:0:0:0:
192,192,140518,128,0,140679:0:0:0:0:
64,192,140679,128,2,141002:0:0:0:0:
448,192,140679,1,0,0:0:0:0:
320,192,140841,1,0,0:0:0:0:
192,192,141002,128,8,141163:0:0:0:0:
448,192,141002,1,0,0:0:0:0:
320,192,141163,128,0,141486:0:0:0:0:
192,192,141325,1,2,0:0:0:0:
64,192,141486,128,0,141647:0:0:0:0:
192,192,141647,128,8,141809:0:0:0:0:
448,192,141647,1,0,0:0:0:0:
320,192,141809,128,0,141970:0:0:0:0:
192,192,141970,1,2,0:0:0:0:
448,192,141970,128,0,142292:0:0:0:0:
64,192,142131,1,8,0:0:0:0:
320,192,142131,1,0,0:0:0:0:
64,192,142292,1,8,0:0:0:0:
320,192,142292,1,4,0:0:0:0:
192,192,142454,1,4,0:0:0:0:
64,192,142615,1,2,0:0:0:0:
320,192,142615,1,4,0:0:0:0:
448,192,142615,1,0,0:0:0:0:
64,192,142776,1,0,0:0:0:0:
192,192,142857,1,0,0:0:0:0:
320,192,142938,1,8,0:0:0:0:
448,192,142938,1,0,0:0:0:0:
192,192,143099,1,0,0:0:0:0:
320,192,143179,1,0,0:0:0:0:
64,192,143260,1,2,0:0:0:0:
448,192,143260,1,0,0:0:0:0:
192,192,143421,1,0,0:0:0:0:
64,192,143583,1,8,0:0:0:0:
320,192,143583,1,0,0:0:0:0:
448,192,143583,1,0,0:0:0:0:
320,192,143744,128,0,144067:0:0:0:0:
192,192,143905,1,2,0:0:0:0:
448,192,144067,128,0,144228:0:0:0:0:
64,192,144228,1,8,0:0:0:0:
192,192,144228,128,0,144389:0:0:0:0:
448,192,144389,128,0,144550:0:0:0:0:
64,192,144550,128,2,144873:0:0:0:0:
192,192,144550,1,0,0:0:0:0:
320,192,144712,1,8,0:0:0:0:
448,192,144712,1,0,0:0:0:0:
192,192,144873,128,8,145196:0:0:0:0:
320,192,144873,1,0,0:0:0:0:
64,192,145196,1,2,0:0:0:0:
320,192,145196,128,4,145518:0:0:0:0:
448,192,145196,1,0,0:0:0:0:
192,192,145357,1,0,0:0:0:0:
64,192,145518,1,8,0:0:0:0:
448,192,145518,1,0,0:0:0:0:
192,192,145679,128,0,145841:0:0:0:0:
64,192,145841,1,2,0:0:0:0:
448,192,145841,128,4,146002:0:0:0:0:
192,192,146002,1,0,0:0:0:0:
192,192,146163,128,8,146325:0:0:0:0:
448,192,146163,1,0,0:0:0:0:
64,192,146325,128,4,146486:0:0:0:0:
320,192,146325,1,0,0:0:0:0:
448,192,146486,1,2,0:0:0:0:
192,192,146647,1,0,0:0:0:0:
320,192,146728,1,0,0:0:0:0:
64,192,146809,1,8,0:0:0:0:
448,192,146809,128,4,146970:0:0:0:0:
192,192,146970,128,4,147131:0:0:0:0:
320,192,147131,1,2,0:0:0:0:
448,192,147131,1,0,0:0:0:0:
64,192,147292,1,8,0:0:0:0:
320,192,147292,1,0,0:0:0:0:
192,192,147373,1,0,0:0:0:0:
448,192,147454,1,8,0:0:0:0:
320,192,147534,1,0,0:0:0:0:
192,192,147615,1,8,0:0:0:0:
64,192,147696,1,0,0:0:0:0:
320,192,147776,1,4,0:0:0:0:
448,192,147776,1,2,0:0:0:0:
192,192,147938,1,0,0:0:0:0:
320,192,148018,1,0,0:0:0:0:
64,192,148099,1,8,0:0:0:0:
448,192,148099,1,0,0:0:0:0:
64,192,148260,1,0,0:0:0:0:
192,192,148341,1,0,0:0:0:0:
320,192,148421,1,2,0:0:0:0:
448,192,148421,1,0,0:0:0:0:
192,192,148583,1,0,0:0:0:0:
64,192,148744,1,8,0:0:0:0:
192,192,148744,1,0,0:0:0:0:
448,192,148744,1,0,0:0:0:0:
320,192,148905,128,0,149228:0:0:0:0:
64,192,149067,1,2,0:0:0:0:
192,192,149228,128,0,149389:0:0:0:0:
64,192,149389,128,8,149550:0:0:0:0:
320,192,149389,1,0,0:0:0:0:
448,192,149550,128,0,149712:0:0:0:0:
64,192,149712,128,2,150034:0:0:0:0:
192,192,149712,1,0,0:0:0:0:
320,192,149873,1,8,0:0:0:0:
448,192,149873,1,0,0:0:0:0:
192,192,150034,1,8,0:0:0:0:
320,192,150034,128,0,150357:0:0:0:0:
64,192,150357,1,2,0:0:0:0:
192,192,150357,128,0,150518:0:0:0:0:
448,192,150518,128,0,150679:0:0:0:0:
64,192,150679,1,8,0:0:0:0:
320,192,150679,128,0,150841:0:0:0:0:
192,192,150841,128,0,151002:0:0:0:0:
64,192,151002,128,2,151325:0:0:0:0:
448,192,151002,1,0,0:0:0:0:
320,192,151163,1,0,0:0:0:0:
192,192,151325,128,8,151486:0:0:0:0:
448,192,151325,1,0,0:0:0:0:
320,192,151486,128,0,151809:0:0:0:0:
192,192,151647,1,2,0:0:0:0:
64,192,151809,128,0,151970:0:0:0:0:
192,192,151970,128,8,152131:0:0:0:0:
448,192,151970,1,0,0:0:0:0:
320,192,152131,128,0,152292:0:0:0:0:
192,192,152292,1,2,0:0:0:0:
448,192,152292,128,0,152615:0:0:0:0:
64,192,152454,1,8,0:0:0:0:
320,192,152454,1,0,0:0:0:0:
64,192,152615,1,8,0:0:0:0:
320,192,152615,1,4,0:0:0:0:
192,192,152776,1,4,0:0:0:0:
64,192,152938,1,2,0:0:0:0:
320,192,152938,1,4,0:0:0:0:
448,192,152938,1,0,0:0:0:0:
64,192,153099,1,0,0:0:0:0:
192,192,153179,1,0,0:0:0:0:
320,192,153260,1,8,0:0:0:0:
448,192,153260,1,0,0:0:0:0:
192,192,153421,1,0,0:0:0:0:
320,192,153502,1,0,0:0:0:0:
64,192,153583,1,2,0:0:0:0:
448,192,153583,1,0,0:0:0:0:
192,192,153744,1,0,0:0:0:0:
64,192,153905,1,8,0:0:0:0:
320,192,153905,1,0,0:0:0:0:
448,192,153905,1,0,0:0:0:0:
320,192,154067,128,0,154389:0:0:0:0:
192,192,154228,1,2,0:0:0:0:
448,192,154389,128,0,154550:0:0:0:0:
64,192,154550,1,8,0:0:0:0:
192,192,154550,128,0,154712:0:0:0:0:
448,192,154712,128,0,154873:0:0:0:0:
64,192,154873,128,2,155196:0:0:0:0:
192,192,154873,1,0,0:0:0:0:
320,192,155034,1,0,0:0:0:0:
448,192,155034,1,0,0:0:0:0:
192,192,155196,128,8,155518:0:0:0:0:
320,192,155196,1,0,0:0:0:0:
64,192,155518,1,4,0:0:0:0:
320,192,155518,128,2,155841:0:0:0:0:
448,192,155518,1,0,0:0:0:0:
192,192,155679,1,0,0:0:0:0:
448,192,155841,1,0,0:0:0:0:
192,192,156002,128,2,156163:0:0:0:0:
320,192,156002,1,0,0:0:0:0:
64,192,156163,1,4,0:0:0:0:
320,192,156163,1,2,0:0:0:0:
448,192,156163,128,0,156325:0:0:0:0:
192,192,156325,1,0,0:0:0:0:
192,192,156486,128,2,156647:0:0:0:0:
448,192,156486,1,0,0:0:0:0:
64,192,156647,128,4,156809:0:0:0:0:
320,192,156647,1,2,0:0:0:0:
448,192,156647,1,0,0:0:0:0:
192,192,156809,1,0,0:0:0:0:
64,192,156970,1,2,0:0:0:0:
192,192,157050,1,0,0:0:0:0:
320,192,157131,1,2,0:0:0:0:
448,192,157131,1,0,0:0:0:0:
64,192,157292,1,4,0:0:0:0:
192,192,157292,128,2,157615:0:0:0:0:
320,192,157292,1,0,0:0:0:0:
320,192,157615,1,2,0:0:0:0:
448,192,157615,1,0,0:0:0:0:
64,192,157696,1,2,0:0:0:0:
192,192,157776,1,8,0:0:0:0:
448,192,157776,1,0,0:0:0:0:
