osu file format v14

[General]
AudioFilename: audio.mp3
AudioLeadIn: 0
PreviewTime: 93502
Countdown: 0
SampleSet: Soft
StackLeniency: 0.7
Mode: 3
LetterboxInBreaks: 0
SpecialStyle: 0
WidescreenStoryboard: 1

[Editor]
DistanceSpacing: 2
BeatDivisor: 4
GridSize: 16
TimelineZoom: 0.9000001

[Metadata]
Title:Joudan ja Nai ne (Cut Ver.)
TitleUnicode:冗談じゃないね (Cut Ver.)
Artist:Maneki Kecak
ArtistUnicode:まねきケチャ
Creator:lenpai
Version:Easy
Source:
Tags:idol jpop j-pop pop japanese きみわずらい kecha kimi wazurai
BeatmapID:2563812
BeatmapSetID:1229030

[Difficulty]
HPDrainRate:7
CircleSize:4
OverallDifficulty:7
ApproachRate:5
SliderMultiplier:1.4
SliderTickRate:1

[Events]
//Background and Video events
0,0,"Background.jpg",0,0
//Break Periods
//Storyboard Layer 0 (Background)
//Storyboard Layer 1 (Fail)
//Storyboard Layer 2 (Pass)
//Storyboard Layer 3 (Foreground)
//Storyboard Layer 4 (Overlay)
//Storyboard Sound Samples

[TimingPoints]
680,322.58064516129,4,2,1,50,1,0
21325,-100,4,2,1,50,0,1
41970,-100,4,2,1,50,0,0
93583,-100,4,2,1,50,0,1
116809,-100,4,2,1,50,0,0
137454,-100,4,2,1,50,0,1
158099,-100,4,2,1,50,0,0

[HitObjects]
320,192,680,5,0,0:0:0:70:LR_Clap Drum hit.wav
320,192,1325,1,0,0:0:0:70:LR_Clap Drum hit.wav
320,192,1809,1,0,0:0:0:70:LR_Clap Drum hit.wav
64,192,2131,1,0,0:0:0:70:LR_Clap Drum hit.wav
320,192,2454,1,0,0:0:0:70:LR_Clap Drum hit.wav
192,192,2615,1,0,0:0:0:70:LR_Clap Drum hit.wav
448,192,2938,1,0,0:0:0:70:LR_Clap Drum hit.wav
192,192,3260,1,0,0:0:0:70:LR_Clap Drum hit.wav
192,192,3905,1,0,0:0:0:70:LR_Clap Drum hit.wav
192,192,4389,1,0,0:0:0:70:LR_Clap Drum hit.wav
448,192,4712,1,0,0:0:0:70:LR_Clap Drum hit.wav
192,192,5034,1,0,0:0:0:70:LR_Clap Drum hit.wav
320,192,5196,1,0,0:0:0:70:LR_Clap Drum hit.wav
64,192,5518,1,0,0:0:0:70:LR_Clap Drum hit.wav
448,192,5841,1,0,0:0:0:70:LR_Clap Drum hit.wav
448,192,6486,1,0,0:0:0:70:LR_Clap Drum hit.wav
448,192,6970,1,0,0:0:0:70:LR_Clap Drum hit.wav
192,192,7292,1,0,0:0:0:70:LR_Clap Drum hit.wav
448,192,7615,1,0,0:0:0:70:LR_Clap Drum hit.wav
64,192,7776,1,0,0:0:0:70:LR_Clap Drum hit.wav
320,192,8099,1,0,0:0:0:70:LR_Clap Drum hit.wav
192,192,8583,1,0,0:0:0:70:LR_Clap Drum hit.wav
448,192,8744,1,0,0:0:0:70:LR_Clap Drum hit.wav
320,192,8905,1,0,0:0:0:70:LR_Clap Drum hit.wav
64,192,9067,1,0,0:0:0:70:LR_Clap Drum hit.wav
320,192,9389,1,0,0:0:0:70:LR_Clap Drum hit.wav
320,192,9712,1,0,0:0:0:70:LR_Clap Drum hit.wav
64,192,9873,1,0,0:0:0:70:LR_Clap Drum hit.wav
448,192,10196,1,0,0:0:0:70:LR_Clap Drum hit.wav
192,192,10357,1,0,0:0:0:70:LR_Clap Drum hit.wav
320,192,10679,1,0,0:0:0:70:LR_Clap Drum hit.wav
64,192,11002,1,6,0:0:0:0:
448,192,11002,1,0,0:0:0:70:LR_Clap Drum hit.wav
192,192,11325,1,0,0:0:0:70:LR_Clap Drum hit.wav
448,192,11647,1,0,0:0:0:70:LR_Clap Drum hit.wav
448,192,12131,1,0,0:0:0:70:LR_Clap Drum hit.wav
192,192,12454,1,0,0:0:0:70:LR_Clap Drum hit.wav
448,192,12776,1,0,0:0:0:70:LR_Clap Drum hit.wav
64,192,12938,1,0,0:0:0:70:LR_Clap Drum hit.wav
320,192,13260,1,0,0:0:0:70:LR_Clap Drum hit.wav
64,192,13583,1,0,0:0:0:70:LR_Clap Drum hit.wav
448,192,13905,1,0,0:0:0:70:LR_Clap Drum hit.wav
64,192,14228,1,0,0:0:0:70:LR_Clap Drum hit.wav
64,192,14712,1,0,0:0:0:70:LR_Clap Drum hit.wav
320,192,15034,1,0,0:0:0:70:LR_Clap Drum hit.wav
64,192,15357,1,0,0:0:0:70:LR_Clap Drum hit.wav
448,192,15518,1,0,0:0:0:70:LR_Clap Drum hit.wav
192,192,15841,1,0,0:0:0:70:LR_Clap Drum hit.wav
320,192,16163,1,0,0:0:0:70:LR_Clap Drum hit.wav
64,192,16486,1,0,0:0:0:70:LR_Clap Drum hit.wav
448,192,16809,1,0,0:0:0:70:LR_Clap Drum hit.wav
192,192,16970,1,0,0:0:0:70:LR_Clap Drum hit.wav
192,192,17292,1,0,0:0:0:70:LR_Clap Drum hit.wav
320,192,17615,1,0,0:0:0:70:LR_Clap Drum hit.wav
320,192,17938,1,0,0:0:0:70:LR_Clap Drum hit.wav
64,192,18099,1,0,0:0:0:70:LR_Clap Drum hit.wav
448,192,18421,1,0,0:0:0:70:LR_Clap Drum hit.wav
192,192,18905,1,0,0:0:0:70:LR_Clap Drum hit.wav
320,192,19067,1,0,0:0:0:70:LR_Clap Drum hit.wav
192,192,19228,1,0,0:0:0:70:LR_Clap Drum hit.wav
320,192,19389,1,0,0:0:0:70:LR_Clap Drum hit.wav
448,192,19712,1,0,0:0:0:70:LR_Clap Drum hit.wav
64,192,20034,1,0,0:0:0:70:LR_Clap Drum hit.wav
320,192,20196,1,0,0:0:0:70:LR_Clap Drum hit.wav
320,192,20518,1,0,0:0:0:70:LR_Clap Drum hit.wav
64,192,20679,1,0,0:0:0:70:LR_Clap Drum hit.wav
192,192,21002,1,0,0:0:0:70:LR_Clap Drum hit.wav
448,192,21002,1,0,0:0:0:0:
64,192,21325,1,2,0:0:0:0:
448,192,21325,1,4,0:0:0:0:
192,192,21647,1,8,0:0:0:0:
448,192,21970,1,2,0:0:0:0:
192,192,22292,1,8,0:0:0:0:
64,192,22615,1,2,0:0:0:0:
320,192,22938,1,8,0:0:0:0:
64,192,23260,1,2,0:0:0:0:
320,192,23583,1,8,0:0:0:0:
64,192,23905,1,2,0:0:0:0:
448,192,24228,1,8,0:0:0:0:
64,192,24550,1,2,0:0:0:0:
448,192,24873,1,8,0:0:0:0:
192,192,25196,1,2,0:0:0:0:
448,192,25518,1,8,0:0:0:0:
192,192,25841,1,2,0:0:0:0:
448,192,26002,1,8,0:0:0:0:
320,192,26163,1,8,0:0:0:0:
64,192,26486,1,2,0:0:0:0:
192,192,26486,1,4,0:0:0:0:
320,192,26809,1,8,0:0:0:0:
192,192,27131,1,2,0:0:0:0:
320,192,27454,1,8,0:0:0:0:
64,192,27776,1,2,0:0:0:0:
448,192,28099,1,8,0:0:0:0:
64,192,28421,1,2,0:0:0:0:
448,192,28744,1,8,0:0:0:0:
192,192,29067,1,2,0:0:0:0:
320,192,29389,1,8,0:0:0:0:
192,192,29712,1,2,0:0:0:0:
320,192,30034,1,8,0:0:0:0:
64,192,30196,1,6,0:0:0:0:
192,192,30518,1,2,0:0:0:0:
320,192,30679,1,8,0:0:0:0:
448,192,30841,1,6,0:0:0:0:
448,192,31163,1,2,0:0:0:0:
192,192,31325,1,8,0:0:0:0:
64,192,31647,1,2,0:0:0:0:
448,192,31647,1,4,0:0:0:0:
320,192,31970,1,8,0:0:0:0:
64,192,32292,1,2,0:0:0:0:
320,192,32615,1,8,0:0:0:0:
448,192,32938,1,2,0:0:0:0:
192,192,33260,1,8,0:0:0:0:
448,192,33583,1,2,0:0:0:0:
192,192,33905,1,8,0:0:0:0:
448,192,34228,1,2,0:0:0:0:
64,192,34550,1,8,0:0:0:0:
448,192,34873,1,2,0:0:0:0:
64,192,35196,1,8,0:0:0:0:
320,192,35518,1,2,0:0:0:0:
64,192,35841,1,8,0:0:0:0:
320,192,36163,1,2,0:0:0:0:
64,192,36325,1,8,0:0:0:0:
192,192,36486,1,8,0:0:0:0:
320,192,36809,1,2,0:0:0:0:
448,192,36809,1,4,0:0:0:0:
192,192,37131,1,8,0:0:0:0:
320,192,37454,1,2,0:0:0:0:
192,192,37776,1,8,0:0:0:0:
448,192,38099,1,2,0:0:0:0:
64,192,38421,1,8,0:0:0:0:
448,192,38744,1,2,0:0:0:0:
64,192,39067,1,8,0:0:0:0:
320,192,39389,1,2,0:0:0:0:
448,192,39389,1,4,0:0:0:0:
64,192,40034,1,2,0:0:0:0:
192,192,40034,1,4,0:0:0:0:
320,192,40518,1,2,0:0:0:0:
448,192,40518,1,4,0:0:0:0:
64,192,40841,1,2,0:0:0:0:
192,192,41002,1,2,0:0:0:0:
320,192,41163,1,2,0:0:0:0:
448,192,41163,1,4,0:0:0:0:
192,192,41647,1,8,0:0:0:0:
448,192,41647,1,0,0:0:0:0:
64,192,41970,1,2,0:0:0:0:
320,192,41970,1,0,0:0:0:0:
192,192,42615,1,8,0:0:0:0:
448,192,42615,1,0,0:0:0:0:
320,192,43260,1,2,0:0:0:0:
320,192,43583,1,2,0:0:0:0:
192,192,43905,1,8,0:0:0:0:
448,192,43905,1,0,0:0:0:0:
192,192,44550,1,2,0:0:0:0:
64,192,45196,1,8,0:0:0:0:
320,192,45196,1,0,0:0:0:0:
192,192,45841,1,2,0:0:0:0:
192,192,46163,1,2,0:0:0:0:
64,192,46486,1,8,0:0:0:0:
320,192,46486,1,0,0:0:0:0:
320,192,47131,1,2,0:0:0:0:
192,192,47776,1,8,0:0:0:0:
448,192,47776,1,0,0:0:0:0:
320,192,48421,1,2,0:0:0:0:
320,192,48744,1,2,0:0:0:0:
64,192,49067,1,8,0:0:0:0:
448,192,49067,1,0,0:0:0:0:
192,192,49712,1,2,0:0:0:0:
64,192,50357,1,8,0:0:0:0:
448,192,50357,1,0,0:0:0:0:
192,192,51002,1,2,0:0:0:0:
192,192,51325,1,2,0:0:0:0:
64,192,51647,1,8,0:0:0:0:
448,192,51647,1,4,0:0:0:0:
320,192,51970,1,8,0:0:0:0:
64,192,52292,1,2,0:0:0:0:
448,192,52292,1,4,0:0:0:0:
64,192,52615,1,8,0:0:0:0:
320,192,52615,1,0,0:0:0:0:
192,192,52938,1,2,0:0:0:0:
64,192,53260,1,8,0:0:0:0:
448,192,53260,1,0,0:0:0:0:
192,192,53583,1,2,0:0:0:0:
448,192,53583,1,4,0:0:0:0:
192,192,54120,1,4,0:0:0:0:
448,192,54120,1,2,0:0:0:0:
64,192,54550,1,8,0:0:0:0:
320,192,54550,1,0,0:0:0:0:
64,192,54873,1,2,0:0:0:0:
448,192,54873,1,4,0:0:0:0:
192,192,55196,1,8,0:0:0:0:
448,192,55196,1,0,0:0:0:0:
320,192,55518,1,2,0:0:0:0:
64,192,55841,1,8,0:0:0:0:
448,192,55841,1,0,0:0:0:0:
64,192,56163,1,2,0:0:0:0:
320,192,56163,1,4,0:0:0:0:
64,192,56701,1,4,0:0:0:0:
320,192,56701,1,2,0:0:0:0:
192,192,57131,1,8,0:0:0:0:
448,192,57131,1,0,0:0:0:0:
64,192,57454,1,2,0:0:0:0:
192,192,58099,1,0,0:0:0:0:
320,192,58744,1,0,0:0:0:0:
448,192,59389,1,0,0:0:0:0:
320,192,60034,1,2,0:0:0:0:
448,192,60034,1,0,0:0:0:0:
192,192,60249,1,2,0:0:0:0:
64,192,60464,1,2,0:0:0:0:
320,192,60679,1,2,0:0:0:0:
192,192,60895,1,2,0:0:0:0:
448,192,61110,1,2,0:0:0:0:
64,192,61325,1,2,0:0:0:0:
192,192,61325,1,0,0:0:0:0:
64,192,61970,1,2,0:0:0:0:
320,192,61970,128,4,62615:0:0:0:0:
192,192,62615,1,2,0:0:0:0:
448,192,62615,1,4,0:0:0:0:
192,192,63260,128,4,63905:0:0:0:0:
448,192,63260,1,2,0:0:0:0:
64,192,63905,1,2,0:0:0:0:
320,192,63905,1,4,0:0:0:0:
192,192,64550,1,2,0:0:0:0:
448,192,64550,128,4,65196:0:0:0:0:
64,192,65196,1,2,0:0:0:0:
320,192,65196,1,4,0:0:0:0:
192,192,65841,1,4,0:0:0:0:
448,192,65841,1,2,0:0:0:0:
320,192,66486,1,2,0:0:0:0:
448,192,66486,1,8,0:0:0:0:
64,192,66809,1,8,0:0:0:0:
192,192,66809,1,2,0:0:0:0:
320,192,67131,1,2,0:0:0:0:
448,192,67131,1,8,0:0:0:0:
320,192,67454,1,8,0:0:0:0:
448,192,67454,1,0,0:0:0:0:
64,192,67776,1,2,0:0:0:0:
192,192,67776,1,4,0:0:0:0:
192,192,68099,1,8,0:0:0:0:
448,192,68099,1,0,0:0:0:0:
320,192,68421,1,2,0:0:0:0:
64,192,68744,1,8,0:0:0:0:
448,192,68744,1,0,0:0:0:0:
192,192,69067,1,2,0:0:0:0:
64,192,69389,1,8,0:0:0:0:
320,192,69389,1,0,0:0:0:0:
192,192,69712,1,2,0:0:0:0:
192,192,70034,1,8,0:0:0:0:
448,192,70034,1,0,0:0:0:0:
320,192,70357,1,2,0:0:0:0:
64,192,70679,1,8,0:0:0:0:
448,192,70679,1,0,0:0:0:0:
320,192,71002,1,2,0:0:0:0:
64,192,71325,1,8,0:0:0:0:
320,192,71325,1,0,0:0:0:0:
192,192,71647,1,2,0:0:0:0:
64,192,71970,1,8,0:0:0:0:
320,192,71970,1,4,0:0:0:0:
192,192,72292,1,4,0:0:0:0:
448,192,72292,1,8,0:0:0:0:
64,192,72615,1,8,0:0:0:0:
320,192,72615,1,4,0:0:0:0:
192,192,72938,1,4,0:0:0:0:
448,192,72938,1,8,0:0:0:0:
64,192,73260,1,8,0:0:0:0:
448,192,73260,1,0,0:0:0:0:
192,192,73583,1,2,0:0:0:0:
192,192,73905,1,8,0:0:0:0:
448,192,73905,1,0,0:0:0:0:
320,192,74228,1,2,0:0:0:0:
64,192,74550,1,8,0:0:0:0:
320,192,74550,1,0,0:0:0:0:
192,192,74873,1,8,0:0:0:0:
448,192,74873,1,0,0:0:0:0:
64,192,75196,1,8,0:0:0:0:
320,192,75196,1,0,0:0:0:0:
192,192,75518,1,8,0:0:0:0:
448,192,75518,1,4,0:0:0:0:
192,192,76056,1,2,0:0:0:0:
448,192,76163,1,2,0:0:0:0:
64,192,76486,1,8,0:0:0:0:
320,192,76486,1,0,0:0:0:0:
64,192,76809,1,2,0:0:0:0:
192,192,76809,1,0,0:0:0:0:
320,192,77346,1,2,0:0:0:0:
64,192,77454,1,2,0:0:0:0:
192,192,77776,1,8,0:0:0:0:
448,192,77776,1,0,0:0:0:0:
192,192,78099,1,2,0:0:0:0:
320,192,78099,1,0,0:0:0:0:
64,192,78421,1,2,0:0:0:0:
448,192,78421,1,4,0:0:0:0:
192,192,78744,1,2,0:0:0:0:
320,192,78744,1,0,0:0:0:0:
64,192,79067,1,2,0:0:0:0:
448,192,79067,1,4,0:0:0:0:
64,192,79389,1,2,0:0:0:0:
320,192,79389,1,4,0:0:0:0:
192,192,79712,1,4,0:0:0:0:
320,192,79712,1,2,0:0:0:0:
192,192,80034,1,4,0:0:0:0:
448,192,80034,1,2,0:0:0:0:
320,192,80357,1,2,0:0:0:0:
448,192,80357,1,4,0:0:0:0:
64,192,80679,1,2,0:0:0:0:
192,192,80679,1,0,0:0:0:0:
320,192,81002,1,2,0:0:0:0:
192,192,81325,1,2,0:0:0:0:
320,192,81647,1,2,0:0:0:0:
448,192,81970,1,4,0:0:0:0:
64,192,81970,1,2,0:0:0:0:
192,192,82454,128,4,82938:0:0:0:0:
320,192,82454,128,0,82938:0:0:0:0:
320,192,83260,1,2,0:0:0:0:
448,192,83260,1,4,0:0:0:0:
192,192,83583,1,2,0:0:0:0:
320,192,83905,1,2,0:0:0:0:
192,192,84228,1,2,0:0:0:0:
64,192,84550,1,2,0:0:0:0:
448,192,84550,1,4,0:0:0:0:
192,192,85034,128,4,85518:0:0:0:0:
320,192,85034,128,0,85518:0:0:0:0:
64,192,85841,1,2,0:0:0:0:
192,192,85841,1,4,0:0:0:0:
192,192,86163,1,2,0:0:0:0:
448,192,86163,1,8,0:0:0:0:
64,192,86486,1,2,0:0:0:0:
64,192,86809,1,2,0:0:0:0:
320,192,86809,1,8,0:0:0:0:
320,192,87131,1,2,0:0:0:0:
448,192,87131,1,4,0:0:0:0:
64,192,87615,128,4,87938:0:0:0:0:
192,192,87615,128,0,87938:0:0:0:0:
448,192,88099,1,10,0:0:0:0:
320,192,88260,1,8,0:0:0:0:
64,192,88421,1,2,0:0:0:0:
192,192,88421,1,4,0:0:0:0:
192,192,88959,1,2,0:0:0:0:
448,192,89067,1,2,0:0:0:0:
64,192,89389,1,8,0:0:0:0:
448,192,89389,1,0,0:0:0:0:
192,192,89712,1,2,0:0:0:0:
320,192,89712,1,0,0:0:0:0:
320,192,90249,1,2,0:0:0:0:
64,192,90357,1,2,0:0:0:0:
64,192,90679,1,8,0:0:0:0:
448,192,90679,1,0,0:0:0:0:
192,192,91002,1,2,0:0:0:0:
320,192,91002,1,0,0:0:0:0:
64,192,91325,1,4,0:0:0:0:
448,192,91325,1,2,0:0:0:0:
192,192,91647,1,2,0:0:0:0:
320,192,91647,1,0,0:0:0:0:
64,192,91970,1,4,0:0:0:0:
448,192,91970,1,2,0:0:0:0:
192,192,92292,1,2,0:0:0:0:
320,192,92292,1,0,0:0:0:0:
64,192,92615,1,2,0:0:0:0:
320,192,92938,1,2,0:0:0:0:
448,192,92938,1,0,0:0:0:0:
64,192,93260,1,0,0:0:0:50:Cymatics - Main Clap 9_Reverb.wav
448,192,93260,1,0,0:0:0:0:
64,192,93583,1,2,0:0:0:0:
192,192,93583,1,4,0:0:0:0:
192,192,93905,1,8,0:0:0:0:
448,192,93905,1,0,0:0:0:0:
320,192,94228,1,2,0:0:0:0:
64,192,94550,1,8,0:0:0:0:
448,192,94550,1,0,0:0:0:0:
192,192,94873,1,2,0:0:0:0:
64,192,95196,1,8,0:0:0:0:
320,192,95196,1,0,0:0:0:0:
448,192,95518,1,2,0:0:0:0:
64,192,95841,1,8,0:0:0:0:
320,192,95841,1,0,0:0:0:0:
192,192,96163,1,2,0:0:0:0:
64,192,96486,1,8,0:0:0:0:
448,192,96486,1,0,0:0:0:0:
320,192,96809,1,2,0:0:0:0:
192,192,97131,1,8,0:0:0:0:
448,192,97131,1,0,0:0:0:0:
64,192,97454,1,2,0:0:0:0:
448,192,97454,1,4,0:0:0:0:
64,192,97776,1,8,0:0:0:0:
320,192,97776,1,4,0:0:0:0:
192,192,98099,1,2,0:0:0:0:
320,192,98099,1,4,0:0:0:0:
192,192,98421,1,8,0:0:0:0:
448,192,98421,1,4,0:0:0:0:
320,192,98744,1,4,0:0:0:0:
448,192,98744,1,2,0:0:0:0:
64,192,99067,1,8,0:0:0:0:
320,192,99067,1,0,0:0:0:0:
192,192,99389,1,2,0:0:0:0:
64,192,99712,1,8,0:0:0:0:
448,192,99712,1,0,0:0:0:0:
320,192,100034,1,2,0:0:0:0:
192,192,100357,1,8,0:0:0:0:
448,192,100357,1,0,0:0:0:0:
64,192,100679,1,2,0:0:0:0:
192,192,101002,1,8,0:0:0:0:
448,192,101002,1,0,0:0:0:0:
320,192,101325,1,2,0:0:0:0:
64,192,101647,1,8,0:0:0:0:
448,192,101647,1,0,0:0:0:0:
320,192,101970,1,2,0:0:0:0:
192,192,102292,1,8,0:0:0:0:
448,192,102292,1,0,0:0:0:0:
64,192,102615,1,2,0:0:0:0:
192,192,102615,1,0,0:0:0:0:
320,192,102938,1,2,0:0:0:0:
448,192,102938,1,0,0:0:0:0:
64,192,103260,1,2,0:0:0:0:
192,192,103260,1,0,0:0:0:0:
320,192,103583,1,6,0:0:0:0:
192,192,103744,1,8,0:0:0:0:
64,192,103905,1,2,0:0:0:0:
448,192,103905,1,4,0:0:0:0:
192,192,104228,1,2,0:0:0:0:
448,192,104228,1,0,0:0:0:0:
64,192,104550,1,2,0:0:0:0:
320,192,104550,1,0,0:0:0:0:
192,192,104873,1,2,0:0:0:0:
448,192,104873,1,0,0:0:0:0:
192,192,105196,1,2,0:0:0:0:
320,192,105196,1,0,0:0:0:0:
64,192,105518,1,2,0:0:0:0:
448,192,105518,1,0,0:0:0:0:
192,192,105841,1,2,0:0:0:0:
320,192,105841,1,0,0:0:0:0:
64,192,106163,1,2,0:0:0:0:
448,192,106163,1,0,0:0:0:0:
64,192,106486,1,2,0:0:0:0:
320,192,106486,1,0,0:0:0:0:
192,192,106809,1,2,0:0:0:0:
448,192,106809,1,0,0:0:0:0:
64,192,107131,1,2,0:0:0:0:
320,192,107131,1,0,0:0:0:0:
192,192,107454,1,2,0:0:0:0:
448,192,107454,1,0,0:0:0:0:
64,192,107776,1,2,0:0:0:0:
192,192,107776,1,4,0:0:0:0:
64,192,108099,1,2,0:0:0:0:
320,192,108099,1,4,0:0:0:0:
192,192,108421,1,2,0:0:0:0:
448,192,108421,1,4,0:0:0:0:
320,192,108744,1,2,0:0:0:0:
448,192,108744,1,4,0:0:0:0:
64,192,109067,1,2,0:0:0:0:
192,192,109067,1,4,0:0:0:0:
64,192,109389,1,2,0:0:0:0:
448,192,109389,1,0,0:0:0:0:
192,192,109712,1,2,0:0:0:0:
320,192,109712,1,0,0:0:0:0:
64,192,110034,1,2,0:0:0:0:
448,192,110034,1,0,0:0:0:0:
320,192,110357,1,2,0:0:0:0:
448,192,110357,1,0,0:0:0:0:
64,192,110679,1,2,0:0:0:0:
192,192,110679,1,0,0:0:0:0:
320,192,111002,1,2,0:0:0:0:
448,192,111002,1,0,0:0:0:0:
64,192,111325,1,2,0:0:0:0:
192,192,111325,1,0,0:0:0:0:
192,192,111647,1,2,0:0:0:0:
448,192,111647,1,4,0:0:0:0:
192,192,112292,1,2,0:0:0:0:
320,192,112292,1,4,0:0:0:0:
64,192,112938,1,2,0:0:0:0:
320,192,112938,1,4,0:0:0:0:
192,192,113260,1,2,0:0:0:0:
448,192,113260,1,0,0:0:0:0:
320,192,113583,1,2,0:0:0:0:
448,192,113583,1,0,0:0:0:0:
192,192,113905,1,2,0:0:0:0:
448,192,113905,1,0,0:0:0:0:
64,192,114228,1,2,0:0:0:0:
320,192,114228,1,4,0:0:0:0:
192,192,114873,1,4,0:0:0:0:
320,192,114873,1,2,0:0:0:0:
192,192,115518,1,4,0:0:0:0:
448,192,115518,1,2,0:0:0:0:
64,192,115841,1,2,0:0:0:0:
320,192,115841,1,0,0:0:0:0:
64,192,116163,1,2,0:0:0:0:
192,192,116163,1,0,0:0:0:0:
64,192,116486,1,2,0:0:0:0:
320,192,116486,1,0,0:0:0:0:
192,192,116809,1,0,0:0:0:70:LR_Clap Drum hit.wav
448,192,116809,1,0,0:0:0:0:
192,192,117454,1,0,0:0:0:70:LR_Clap Drum hit.wav
192,192,117938,1,0,0:0:0:70:LR_Clap Drum hit.wav
448,192,118260,1,0,0:0:0:70:LR_Clap Drum hit.wav
192,192,118583,1,0,0:0:0:70:LR_Clap Drum hit.wav
320,192,118744,1,0,0:0:0:70:LR_Clap Drum hit.wav
64,192,119067,1,0,0:0:0:70:LR_Clap Drum hit.wav
448,192,119067,1,0,0:0:0:0:
320,192,119389,1,0,0:0:0:70:LR_Clap Drum hit.wav
320,192,120034,1,0,0:0:0:70:LR_Clap Drum hit.wav
320,192,120518,1,0,0:0:0:70:LR_Clap Drum hit.wav
64,192,120841,1,0,0:0:0:70:LR_Clap Drum hit.wav
320,192,121163,1,0,0:0:0:70:LR_Clap Drum hit.wav
192,192,121325,1,0,0:0:0:70:LR_Clap Drum hit.wav
64,192,121647,1,0,0:0:0:70:LR_Clap Drum hit.wav
448,192,121647,1,0,0:0:0:0:
64,192,121970,1,0,0:0:0:70:LR_Clap Drum hit.wav
64,192,122615,1,0,0:0:0:70:LR_Clap Drum hit.wav
64,192,123099,1,0,0:0:0:70:LR_Clap Drum hit.wav
320,192,123421,1,0,0:0:0:70:LR_Clap Drum hit.wav
64,192,123744,1,0,0:0:0:70:LR_Clap Drum hit.wav
448,192,123905,1,0,0:0:0:70:LR_Clap Drum hit.wav
64,192,124228,1,0,0:0:0:70:LR_Clap Drum hit.wav
448,192,124228,1,0,0:0:0:0:
320,192,124712,1,0,0:0:0:70:LR_Clap Drum hit.wav
64,192,124873,1,0,0:0:0:70:LR_Clap Drum hit.wav
192,192,125034,1,0,0:0:0:70:LR_Clap Drum hit.wav
448,192,125196,1,0,0:0:0:70:LR_Clap Drum hit.wav
64,192,125518,1,0,0:0:0:70:LR_Clap Drum hit.wav
320,192,125518,1,0,0:0:0:0:
192,192,125841,1,0,0:0:0:70:LR_Clap Drum hit.wav
448,192,126002,1,0,0:0:0:70:LR_Clap Drum hit.wav
64,192,126325,1,0,0:0:0:70:LR_Clap Drum hit.wav
320,192,126486,1,0,0:0:0:70:LR_Clap Drum hit.wav
192,192,126809,1,0,0:0:0:70:LR_Clap Drum hit.wav
64,192,127131,1,6,0:0:0:0:
448,192,127131,1,0,0:0:0:70:LR_Clap Drum hit.wav
64,192,127454,1,0,0:0:0:70:LR_Clap Drum hit.wav
64,192,127776,1,0,0:0:0:70:LR_Clap Drum hit.wav
320,192,127938,1,0,0:0:0:70:LR_Clap Drum hit.wav
64,192,128260,1,0,0:0:0:70:LR_Clap Drum hit.wav
320,192,128583,1,0,0:0:0:70:LR_Clap Drum hit.wav
64,192,128905,1,0,0:0:0:70:LR_Clap Drum hit.wav
448,192,129067,1,0,0:0:0:70:LR_Clap Drum hit.wav
320,192,129228,1,0,0:0:0:70:LR_Clap Drum hit.wav
192,192,129389,1,0,0:0:0:70:LR_Clap Drum hit.wav
448,192,129712,1,0,0:0:0:70:LR_Clap Drum hit.wav
448,192,130034,1,0,0:0:0:70:LR_Clap Drum hit.wav
448,192,130357,1,0,0:0:0:70:LR_Clap Drum hit.wav
192,192,130518,1,0,0:0:0:70:LR_Clap Drum hit.wav
448,192,130841,1,0,0:0:0:70:LR_Clap Drum hit.wav
192,192,131163,1,0,0:0:0:70:LR_Clap Drum hit.wav
448,192,131486,1,0,0:0:0:70:LR_Clap Drum hit.wav
64,192,131647,1,0,0:0:0:70:LR_Clap Drum hit.wav
192,192,131809,1,0,0:0:0:70:LR_Clap Drum hit.wav
320,192,131970,1,0,0:0:0:70:LR_Clap Drum hit.wav
64,192,132292,1,0,0:0:0:70:LR_Clap Drum hit.wav
448,192,132615,1,0,0:0:0:70:LR_Clap Drum hit.wav
64,192,132938,1,0,0:0:0:70:LR_Clap Drum hit.wav
320,192,133099,1,0,0:0:0:70:LR_Clap Drum hit.wav
320,192,133421,1,0,0:0:0:70:LR_Clap Drum hit.wav
192,192,133744,1,0,0:0:0:70:LR_Clap Drum hit.wav
192,192,134067,1,0,0:0:0:70:LR_Clap Drum hit.wav
448,192,134228,1,0,0:0:0:70:LR_Clap Drum hit.wav
64,192,134550,1,0,0:0:0:70:LR_Clap Drum hit.wav
320,192,135034,1,0,0:0:0:70:LR_Clap Drum hit.wav
192,192,135196,1,0,0:0:0:70:LR_Clap Drum hit.wav
320,192,135357,1,0,0:0:0:70:LR_Clap Drum hit.wav
192,192,135518,1,0,0:0:0:70:LR_Clap Drum hit.wav
64,192,135841,1,0,0:0:0:70:LR_Clap Drum hit.wav
448,192,136163,1,0,0:0:0:70:LR_Clap Drum hit.wav
192,192,136325,1,0,0:0:0:70:LR_Clap Drum hit.wav
192,192,136647,1,0,0:0:0:70:LR_Clap Drum hit.wav
448,192,136809,1,0,0:0:0:70:LR_Clap Drum hit.wav
64,192,137131,1,0,0:0:0:70:LR_Clap Drum hit.wav
320,192,137131,1,0,0:0:0:0:
64,192,137454,1,4,0:0:0:0:
448,192,137454,1,2,0:0:0:0:
320,192,137776,1,8,0:0:0:0:
64,192,138099,1,2,0:0:0:0:
192,192,138099,1,0,0:0:0:0:
448,192,138421,1,8,0:0:0:0:
192,192,138744,1,2,0:0:0:0:
320,192,138744,1,0,0:0:0:0:
64,192,139067,1,8,0:0:0:0:
192,192,139228,1,0,0:0:0:0:
320,192,139389,1,2,0:0:0:0:
448,192,139389,1,0,0:0:0:0:
64,192,139712,1,8,0:0:0:0:
192,192,139712,1,0,0:0:0:0:
320,192,140034,1,2,0:0:0:0:
448,192,140034,1,0,0:0:0:0:
64,192,140357,1,8,0:0:0:0:
192,192,140679,1,2,0:0:0:0:
320,192,140679,1,0,0:0:0:0:
448,192,141002,1,8,0:0:0:0:
64,192,141325,1,2,0:0:0:0:
192,192,141325,1,0,0:0:0:0:
320,192,141647,1,8,0:0:0:0:
448,192,141809,1,0,0:0:0:0:
64,192,141970,1,2,0:0:0:0:
192,192,141970,1,0,0:0:0:0:
320,192,142292,1,8,0:0:0:0:
448,192,142292,1,4,0:0:0:0:
64,192,142615,1,2,0:0:0:0:
448,192,142615,1,4,0:0:0:0:
192,192,142938,1,8,0:0:0:0:
320,192,143260,1,2,0:0:0:0:
448,192,143260,1,0,0:0:0:0:
64,192,143583,1,8,0:0:0:0:
192,192,143905,1,2,0:0:0:0:
320,192,143905,1,0,0:0:0:0:
448,192,144228,1,8,0:0:0:0:
320,192,144389,1,0,0:0:0:0:
64,192,144550,1,2,0:0:0:0:
192,192,144550,1,0,0:0:0:0:
320,192,144873,1,8,0:0:0:0:
448,192,144873,1,0,0:0:0:0:
64,192,145196,1,2,0:0:0:0:
192,192,145196,1,4,0:0:0:0:
448,192,145518,1,8,0:0:0:0:
192,192,145841,1,2,0:0:0:0:
320,192,145841,1,4,0:0:0:0:
64,192,146163,1,8,0:0:0:0:
320,192,146325,1,4,0:0:0:0:
448,192,146325,1,0,0:0:0:0:
192,192,146647,1,0,0:0:0:0:
320,192,146809,1,12,0:0:0:0:
192,192,146970,1,4,0:0:0:0:
448,192,147292,1,8,0:0:0:0:
320,192,147454,1,8,0:0:0:0:
192,192,147615,1,8,0:0:0:0:
64,192,147776,1,4,0:0:0:0:
448,192,147776,1,2,0:0:0:0:
320,192,148099,1,8,0:0:0:0:
64,192,148421,1,2,0:0:0:0:
192,192,148421,1,0,0:0:0:0:
448,192,148744,1,8,0:0:0:0:
192,192,149067,1,2,0:0:0:0:
320,192,149067,1,0,0:0:0:0:
64,192,149389,1,8,0:0:0:0:
192,192,149550,1,0,0:0:0:0:
320,192,149712,1,2,0:0:0:0:
448,192,149712,1,0,0:0:0:0:
64,192,150034,1,8,0:0:0:0:
192,192,150034,1,0,0:0:0:0:
320,192,150357,1,2,0:0:0:0:
448,192,150357,1,0,0:0:0:0:
64,192,150679,1,8,0:0:0:0:
192,192,151002,1,2,0:0:0:0:
320,192,151002,1,0,0:0:0:0:
448,192,151325,1,8,0:0:0:0:
320,192,151486,1,0,0:0:0:0:
64,192,151647,1,2,0:0:0:0:
192,192,151647,1,0,0:0:0:0:
320,192,151970,1,8,0:0:0:0:
448,192,152131,1,0,0:0:0:0:
64,192,152292,1,2,0:0:0:0:
192,192,152292,1,0,0:0:0:0:
320,192,152615,1,8,0:0:0:0:
448,192,152615,1,4,0:0:0:0:
64,192,152938,1,2,0:0:0:0:
448,192,152938,1,4,0:0:0:0:
192,192,153260,1,8,0:0:0:0:
320,192,153583,1,2,0:0:0:0:
448,192,153583,1,0,0:0:0:0:
64,192,153905,1,8,0:0:0:0:
192,192,154228,1,2,0:0:0:0:
320,192,154228,1,0,0:0:0:0:
448,192,154550,1,8,0:0:0:0:
320,192,154712,1,0,0:0:0:0:
64,192,154873,1,2,0:0:0:0:
192,192,154873,1,0,0:0:0:0:
320,192,155196,1,8,0:0:0:0:
448,192,155196,1,0,0:0:0:0:
64,192,155518,1,4,0:0:0:0:
192,192,155518,1,2,0:0:0:0:
64,192,156002,1,2,0:0:0:0:
192,192,156163,1,4,0:0:0:0:
448,192,156163,1,2,0:0:0:0:
448,192,156486,1,2,0:0:0:0:
64,192,156647,1,4,0:0:0:0:
320,192,156647,1,2,0:0:0:0:
192,192,156970,1,2,0:0:0:0:
320,192,157131,1,2,0:0:0:0:
64,192,157292,1,4,0:0:0:0:
448,192,157292,1,2,0:0:0:0:
192,192,157615,1,2,0:0:0:0:
64,192,157776,1,8,0:0:0:0:
448,192,157776,1,0,0:0:0:0:
