osu file format v14

[General]
AudioFilename: [Nightstep] The way I like it (cut).mp3
AudioLeadIn: 0
PreviewTime: 12296
Countdown: 0
SampleSet: Normal
StackLeniency: 0.7
Mode: 0
LetterboxInBreaks: 0
WidescreenStoryboard: 1

[Editor]
DistanceSpacing: 1.2
BeatDivisor: 8
GridSize: 8
TimelineZoom: 1.2

[Metadata]
Title:The Way I Like It (Mutrix Remix)
TitleUnicode:The Way I Like It (Mutrix Remix)
Artist:Mandy Capristo
ArtistUnicode:Mandy Capristo
Creator:pinfel
Version:Hard
Source:
Tags:The Way I Like It Mutrix Remix Mandy Capristo Pinfel
BeatmapID:979399
BeatmapSetID:451502

[Difficulty]
HPDrainRate:4
CircleSize:4.7
OverallDifficulty:6
ApproachRate:8
SliderMultiplier:1.99999990463257
SliderTickRate:4

[Events]
//Background and Video events
0,0,"Vital EDM pic.jpg",0,0
//Break Periods
2,23924,27260
//Storyboard Layer 0 (Background)
//Storyboard Layer 1 (Fail)
//Storyboard Layer 2 (Pass)
//Storyboard Layer 3 (Foreground)
//Storyboard Sound Samples

[TimingPoints]
867,714.285714285714,4,1,0,100,1,0

[HitObjects]
160,96,12296,5,2,0:0:0:0:
176,160,12474,1,0,0:0:0:0:
224,112,12653,1,0,0:0:0:0:
240,176,12832,1,2,0:0:0:0:
288,128,13010,2,0,L|352:128,1,49.9999976158143
352,192,13367,2,0,L|352:256,1,49.9999976158143,8|0,0:0|0:0,0:0:0:0:
288,240,13724,6,0,L|288:176,2,49.9999976158143,2|0|0,0:0|0:0|0:0,0:0:0:0:
288,304,14260,1,2,0:0:0:0:
232,336,14439,1,0,0:0:0:0:
184,304,14617,1,0,0:0:0:0:
208,248,14796,1,8,0:0:0:0:
264,248,14974,1,0,0:0:0:0:
200,248,15153,6,0,L|136:248,2,49.9999976158143,2|0|0,0:0|0:0|0:0,0:0:0:0:
200,184,15689,2,0,L|256:184,1,49.9999976158143,2|0,0:0|0:0,0:0:0:0:
264,200,16046,1,0,0:0:0:0:
264,200,16135,1,0,0:0:0:0:
264,200,16224,1,8,0:0:0:0:
320,184,16403,1,0,0:0:0:0:
288,128,16582,5,2,0:0:0:0:
232,104,16760,2,0,L|192:104,2,24.9999988079071
224,160,17116,2,0,L|256:160,2,24.9999988079071,2|0|0,0:0|0:0|0:0,0:0:0:0:
288,160,17474,1,0,0:0:0:0:
288,224,17653,1,8,0:0:0:0:
352,224,17832,1,0,0:0:0:0:
320,160,18009,6,0,L|352:224,1,49.9999976158143,2|0,0:0|0:0,0:0:0:0:
352,224,18367,2,0,L|384:160,1,49.9999976158143,0|2,0:0|0:0,0:0:0:0:
384,160,18724,2,0,L|320:160,1,49.9999976158143
288,224,19082,1,8,0:0:0:0:
288,288,19260,1,0,0:0:0:0:
224,288,19439,5,2,0:0:0:0:
224,224,19617,1,0,0:0:0:0:
224,224,19707,1,0,0:0:0:0:
224,224,19796,1,0,0:0:0:0:
288,224,19974,1,2,0:0:0:0:
288,160,20153,2,0,L|224:160,1,49.9999976158143
224,96,20510,2,0,L|288:96,1,49.9999976158143,8|0,0:0|0:0,0:0:0:0:
320,96,20867,5,2,0:0:0:0:
288,160,21046,1,0,0:0:0:0:
224,160,21224,2,0,L|224:224,2,49.9999976158143,0|2|0,0:0|0:0|0:0,0:0:0:0:
160,160,21760,1,0,0:0:0:0:
160,96,21939,1,8,0:0:0:0:
160,96,22117,1,0,0:0:0:0:
224,96,22296,5,2,0:0:0:0:
272,144,22474,1,0,0:0:0:0:
320,96,22653,2,0,L|352:160,1,49.9999976158143,0|2,0:0|0:0,0:0:0:0:
352,192,23010,1,0,0:0:0:0:
320,208,23099,5,0,0:0:0:0:
288,192,23189,1,0,0:0:0:0:
256,192,23278,1,0,0:0:0:0:
224,176,23367,1,0,0:0:0:0:
208,144,23456,1,0,0:0:0:0:
208,112,23545,1,0,0:0:0:0:
224,80,23634,1,0,0:0:0:0:
256,64,23724,1,0,0:0:0:0:
288,192,28010,6,0,L|224:192,1,49.9999976158143
192,192,28367,1,0,0:0:0:0:
64,192,28724,1,0,0:0:0:0:
256,192,29082,1,0,0:0:0:0:
448,192,29439,5,2,0:0:0:0:
256,192,29796,1,0,0:0:0:0:
64,160,30153,1,0,0:0:0:0:
256,192,30510,1,0,0:0:0:0:
448,224,30867,5,2,0:0:0:0:
368,144,31046,1,0,0:0:0:0:
256,192,31224,1,0,0:0:0:0:
96,96,31582,1,0,0:0:0:0:
256,192,31939,1,0,0:0:0:0:
416,288,32296,5,2,0:0:0:0:
256,192,32653,1,0,0:0:0:0:
256,32,33010,1,0,0:0:0:0:
256,192,33367,1,0,0:0:0:0:
256,352,33724,5,2,0:0:0:0:
177,265,33903,1,0,0:0:0:0:
256,192,34082,1,0,0:0:0:0:
256,32,34439,1,0,0:0:0:0:
256,192,34796,1,0,0:0:0:0:
128,96,35152,6,0,P|96:192|128:288,1,199.999990463257,2|0,0:0|0:0,0:0:0:0:
256,192,36582,12,0,37296,0:0:0:0:
384,288,38010,6,0,P|416:192|384:96,1,199.999990463257,2|0,0:0|0:0,0:0:0:0:
256,192,39439,12,0,40153,0:0:0:0:
160,128,40867,5,8,0:0:0:0:
384,128,41224,1,0,0:0:0:0:
160,288,41582,1,8,0:0:0:0:
256,64,41939,1,0,0:0:0:0:
352,288,42296,5,8,0:0:0:0:
96,128,42653,1,0,0:0:0:0:
416,128,43010,1,8,0:0:0:0:
160,320,43367,1,0,0:0:0:0:
256,32,43724,5,8,0:0:0:0:
352,320,44082,1,8,0:0:0:0:
64,128,44439,1,8,0:0:0:0:
448,128,44796,1,8,0:0:0:0:
160,160,45153,5,8,0:0:0:0:
352,160,45332,1,8,0:0:0:0:
192,256,45510,1,8,0:0:0:0:
256,96,45689,1,8,0:0:0:0:
320,256,45867,1,8,0:0:0:0:
192,64,46582,5,2,0:0:0:0:
256,80,46760,1,0,0:0:0:0:
206,128,46939,1,0,0:0:0:0:
272,144,47117,1,2,0:0:0:0:
336,144,47296,2,0,L|400:144,1,49.9999976158143
352,208,47653,2,0,L|288:208,1,49.9999976158143,8|0,0:0|0:0,0:0:0:0:
336,144,48010,6,0,L|400:144,2,49.9999976158143,2|0|0,0:0|0:0|0:0,0:0:0:0:
272,112,48546,1,2,0:0:0:0:
224,64,48725,1,0,0:0:0:0:
160,96,48903,1,0,0:0:0:0:
160,160,49082,1,8,0:0:0:0:
224,192,49260,1,0,0:0:0:0:
224,128,49439,6,0,L|288:128,2,49.9999976158143,2|0|0,0:0|0:0|0:0,0:0:0:0:
224,192,49975,2,0,L|288:192,1,49.9999976158143,2|0,0:0|0:0,0:0:0:0:
256,256,50332,1,0,0:0:0:0:
256,256,50421,1,0,0:0:0:0:
256,256,50510,1,8,0:0:0:0:
304,224,50689,1,0,0:0:0:0:
320,160,50866,5,2,0:0:0:0:
256,176,51045,2,0,L|224:176,2,24.9999988079071
224,224,51403,2,0,L|224:256,2,24.9999988079071,2|0|0,0:0|0:0|0:0,0:0:0:0:
288,256,51760,1,0,0:0:0:0:
288,320,51939,1,8,0:0:0:0:
224,288,52116,1,0,0:0:0:0:
192,224,52296,6,0,L|160:160,1,49.9999976158143,2|0,0:0|0:0,0:0:0:0:
160,160,52653,2,0,L|128:224,1,49.9999976158143,0|2,0:0|0:0,0:0:0:0:
128,224,53010,2,0,L|192:224,1,49.9999976158143
256,224,53367,1,8,0:0:0:0:
272,160,53546,1,0,0:0:0:0:
208,176,53724,5,2,0:0:0:0:
192,240,53903,1,0,0:0:0:0:
240,288,54082,1,0,0:0:0:0:
288,336,54260,1,2,0:0:0:0:
224,352,54439,2,0,L|160:320,1,49.9999976158143
144,272,54796,2,0,L|144:208,1,49.9999976158143,8|0,0:0|0:0,0:0:0:0:
208,240,55153,5,2,0:0:0:0:
256,208,55332,1,0,0:0:0:0:
288,160,55510,2,0,L|224:160,2,49.9999976158143,0|2|0,0:0|0:0|0:0,0:0:0:0:
288,96,56046,1,0,0:0:0:0:
352,96,56225,1,8,0:0:0:0:
352,96,56403,1,0,0:0:0:0:
352,160,56582,5,0,0:0:0:0:
320,208,56760,1,0,0:0:0:0:
352,256,56939,2,0,L|288:288,1,49.9999976158143,8|0,0:0|0:0,0:0:0:0:
240,288,57296,1,8,0:0:0:0:
256,256,57385,5,0,0:0:0:0:
272,224,57475,1,0,0:0:0:0:
304,208,57564,1,8,0:0:0:0:
320,192,57653,1,0,0:0:0:0:
336,160,57741,1,0,0:0:0:0:
336,128,57831,1,0,0:0:0:0:
320,96,57920,1,0,0:0:0:0:
304,80,58009,1,4,0:0:0:0:
