osu file format v14

[General]
AudioFilename: audio.mp3
AudioLeadIn: 0
PreviewTime: 128380
Countdown: 0
SampleSet: Normal
StackLeniency: 0.7
Mode: 1
LetterboxInBreaks: 0
WidescreenStoryboard: 0

[Editor]
DistanceSpacing: 0.5
BeatDivisor: 3
GridSize: 4
TimelineZoom: 2.2

[Metadata]
Title:Galactic Symphony
TitleUnicode:Galactic Symphony
Artist:Mandragora
ArtistUnicode:Mandragora
Creator:Nifty
Version:A Space Odyssey
Source:
Tags:2001 stanley kubrick psytrance stream sv electronic instrumental psychedelic hi tech acid trip ganja rastafari
BeatmapID:2217551
BeatmapSetID:1058831

[Difficulty]
HPDrainRate:4.5
CircleSize:2
OverallDifficulty:6.5
ApproachRate:10
SliderMultiplier:1.4
SliderTickRate:1

[Events]
//Background and Video events
0,0,"monolith.jpg",0,0
//Break Periods
2,123780,128380
2,201780,205930
2,240180,249130
//Storyboard Layer 0 (Background)
//Storyboard Layer 1 (Fail)
//Storyboard Layer 2 (Pass)
//Storyboard Layer 3 (Foreground)
//Storyboard Layer 4 (Overlay)
//Storyboard Sound Samples

[TimingPoints]
-20,300,4,1,0,10,1,0
-20,-250,4,1,0,10,0,0
9580,-250,4,1,0,10,0,0
9880,-244.863978060188,4,1,0,10,0,0
10180,-239.934737751332,4,1,0,10,0,0
10480,-235.200590823884,4,1,0,10,0,0
10780,-230.649115806615,4,1,0,10,0,0
11080,-226.270452020482,4,1,0,10,0,0
11380,-222.054940833461,4,1,0,10,0,0
11680,-217.994105439389,4,1,0,10,0,0
11980,-214.078669629515,4,1,0,10,0,0
12280,-210.301403972173,4,1,0,10,0,0
12580,-206.655121533877,4,1,0,10,0,0
12880,-203.133125325013,4,1,0,10,0,0
13180,-199.729566167409,4,1,0,10,0,0
13480,-196.437796989394,4,1,0,10,0,0
13780,-193.252772694156,4,1,0,10,0,0
14080,-190.169383870213,4,1,0,10,0,0
14380,-187.183192446784,4,1,0,15,0,0
14680,-184.288994629819,4,1,0,15,0,0
14980,-181.482933344948,4,1,0,15,0,0
15280,-178.761042963429,4,1,0,15,0,0
15580,-176.119902429574,4,1,0,15,0,0
15880,-173.555368501436,4,1,0,15,0,0
16180,-171.064448530984,4,1,0,15,0,0
16480,-168.644017775079,4,1,0,15,0,0
16780,-166.291125874068,4,1,0,20,0,0
17080,-164.003253824556,4,1,0,20,0,0
17380,-161.777219826122,4,1,0,20,0,0
17680,-159.610805013056,4,1,0,20,0,0
17980,-157.5016458922,4,1,0,20,0,0
18280,-155.447743909169,4,1,0,20,0,0
18580,-153.446484771204,4,1,0,20,0,0
18880,-151.496099732912,4,1,0,20,0,0
19180,-149.594673232876,4,1,0,25,0,0
19255,-149.126862221692,4,1,0,25,0,0
19330,-148.661746953921,4,1,0,25,0,0
19480,-147.740384686414,4,1,0,25,0,0
19630,-146.830588335484,4,1,0,25,0,0
19780,-145.931715631622,4,1,0,25,0,0
19930,-145.043781465435,4,1,0,25,0,0
20080,-144.166587375044,4,1,0,25,0,0
20230,-143.299939670725,4,1,0,25,0,0
20380,-142.44364929234,4,1,0,25,0,0
20530,-141.597531671828,4,1,0,25,0,0
20680,-140.761406600584,4,1,0,25,0,0
20830,-139.935098101501,4,1,0,25,0,0
20980,-139.11862784515,4,1,0,25,0,0
21130,-138.311438632598,4,1,0,25,0,0
21280,-137.513562275079,4,1,0,25,0,0
21430,-136.724838527966,4,1,0,25,0,0
21580,-135.945110802063,4,1,0,30,0,0
21655,-135.558664367592,4,1,0,30,0,0
21730,-135.174226059969,4,1,0,30,0,0
21880,-134.41203471594,4,1,0,30,0,0
22030,-133.658390539124,4,1,0,30,0,0
22180,-132.91315056003,4,1,0,30,0,0
22330,-132.176349685751,4,1,0,30,0,0
22480,-131.447499868553,4,1,0,30,0,0
22630,-130.726644050957,4,1,0,30,0,0
22780,-130.0136514334,4,1,0,30,0,0
22930,-129.3083940544,4,1,0,30,0,0
23080,-128.610746713995,4,1,0,30,0,0
23230,-127.920586899653,4,1,0,30,0,0
23380,-127.237794714542,4,1,0,30,0,0
23530,-126.5622528081,4,1,0,30,0,0
23680,-125.894004801597,4,1,0,30,0,0
23830,-125.23261959089,4,1,0,30,0,0
23980,-124.578147248878,4,1,0,40,0,0
24055,-124.253392428247,4,1,0,40,0,0
24130,-123.930479957963,4,1,0,40,0,0
24280,-123.289512131072,4,1,0,40,0,0
24430,-122.655140354277,4,1,0,40,0,0
24580,-122.027263331173,4,1,0,40,0,0
24730,-121.405781828954,4,1,0,40,0,0
24880,-120.790598626128,4,1,0,40,0,0
25030,-120.181762898207,4,1,0,40,0,0
25180,-119.578890977534,4,1,0,40,0,0
25330,-118.982037281832,4,1,0,40,0,0
25480,-118.391112142429,4,1,0,40,0,0
25630,-117.806027663211,4,1,0,40,0,0
25780,-117.226697677036,4,1,0,40,0,0
25930,-116.653037703428,4,1,0,40,0,0
26080,-116.084964907515,4,1,0,40,0,0
26230,-115.522398060148,4,1,0,40,0,0
26380,-114.96538966944,4,1,0,50,0,0
26455,-114.688763368409,4,1,0,50,0,0
26530,-114.413595996439,4,1,0,50,0,0
26680,-113.867073855323,4,1,0,50,0,0
26830,-113.325748063263,4,1,0,50,0,0
26980,-112.78954486035,4,1,0,50,0,0
27130,-112.258391876085,4,1,0,50,0,0
27280,-111.73221809682,4,1,0,50,0,0
27430,-111.210953834109,4,1,0,50,0,0
27580,-110.69465322686,4,1,0,50,0,0
27730,-110.183002949599,4,1,0,50,0,0
27880,-109.67606078686,4,1,0,50,0,0
28030,-109.173762051419,4,1,0,50,0,0
28180,-108.676043235677,4,1,0,50,0,0
28330,-108.182841984896,4,1,0,50,0,0
28480,-107.694097071151,4,1,0,50,0,0
28630,-107.209748368,4,1,0,50,0,0
28780,-106.729736825815,4,1,0,60,0,0
28855,-106.491396027658,4,1,0,60,0,0
28930,-106.254117347047,4,1,0,60,0,0
29005,-106.01778130228,4,1,0,60,0,0
29080,-105.782606166068,4,1,0,60,0,0
29230,-105.315261234505,4,1,0,60,0,0
29380,-104.852027576083,4,1,0,60,0,0
29530,-104.392851177551,4,1,0,60,0,0
29680,-103.937678967691,4,1,0,60,0,0
29830,-103.486458796866,4,1,0,60,0,0
29980,-103.039139417108,4,1,0,60,0,0
30180,-104.166666666667,4,1,0,60,0,0
30380,-105.263157894737,4,1,0,60,0,0
30580,-106.382978723404,4,1,0,60,0,0
30780,-106.382978723404,4,1,0,60,0,0
30980,-107.52688172043,4,1,0,60,0,0
31180,-99.5952449246263,4,1,0,60,0,0
31255,-99.387672549423,4,1,0,60,0,0
31330,-99.1808652340321,4,1,0,60,0,0
31405,-98.9750147472772,4,1,0,60,0,0
31480,-98.7699194234997,4,1,0,60,0,0
31630,-98.3624617370024,4,1,0,60,0,0
31780,-97.9582560687589,4,1,0,60,0,0
31930,-97.5573588491354,4,1,0,60,0,0
32080,-97.1597296239044,4,1,0,60,0,0
32230,-96.7653285957028,4,1,0,60,0,0
32380,-96.3741166107536,4,1,0,60,0,0
32580,-97.0873786407767,4,1,0,60,0,0
32780,-98.0392156862745,4,1,0,60,0,0
32980,-99.009900990099,4,1,0,60,0,0
33180,-100,4,1,0,60,0,0
33380,-101.010101010101,4,1,0,60,0,0
33580,-93.3548173886417,4,1,0,60,0,0
33655,-93.1724183553391,4,1,0,60,0,0
33730,-92.9906442112859,4,1,0,60,0,0
33805,-92.8096640847018,4,1,0,60,0,0
33880,-92.6293012416032,4,1,0,60,0,0
34030,-92.2707556144448,4,1,0,60,0,0
34180,-91.9149749715523,4,1,0,60,0,0
34255,-91.7381536228773,4,1,0,60,0,0
34330,-91.5620112877648,4,1,0,60,0,0
34480,-91.2116648773978,4,1,0,60,0,0
34630,-90.8639893289331,4,1,0,60,0,0
34780,-90.5189542164182,4,1,0,60,0,0
34980,-91.743119266055,4,1,0,60,0,0
35180,-92.5925925925926,4,1,0,60,0,0
35380,-93.4579439252336,4,1,0,60,0,0
35580,-94.3396226415094,4,1,0,60,0,0
35780,-95.2380952380952,4,1,0,60,0,0
35980,-87.8503030835456,4,1,0,60,0,0
36055,-87.6886841260683,4,1,0,60,0,0
36130,-87.5277353511394,4,1,0,60,0,0
36205,-87.3672999922243,4,1,0,60,0,0
36280,-87.2075277537957,4,1,0,60,0,0
36355,-87.0483388130263,4,1,0,60,0,0
36430,-86.889654483289,4,1,0,60,0,0
36505,-86.7316228700882,4,1,0,60,0,0
36580,-86.574090106313,4,1,0,60,0,0
36655,-86.4172032454845,4,1,0,60,0,0
36730,-86.2608095576977,4,1,0,60,0,0
36805,-86.1050550555722,4,1,0,60,0,0
36880,-85.9497881337722,4,1,0,60,0,0
36955,-85.7951537749439,4,1,0,60,0,0
37030,-85.6410748297455,4,1,0,60,0,0
37105,-85.4874752300041,4,1,0,60,0,0
37180,-85.3344984336853,4,1,0,60,0,0
37380,-84.9291521013171,4,1,0,60,0,0
37580,-84.5275669754177,4,1,0,60,0,0
37780,-84.1298325227424,4,1,0,60,0,0
37980,-83.7358235250772,4,1,0,60,0,0
38180,-83.3454878836497,4,1,0,60,0,0
38380,-100,4,1,0,20,0,0
39401,-111.111111111111,4,1,0,20,0,0
40696,-125,4,1,0,20,0,0
41946,-142.857142857143,4,1,0,20,0,0
42880,-153.846153846154,4,1,0,20,0,0
43180,-161.290322580645,4,1,0,20,0,0
43480,-147.193895574763,4,1,0,20,0,0
44080,-141.093076280561,4,1,0,20,0,0
44380,-164.27050753016,4,1,0,20,0,0
44680,-135.478041041718,4,1,0,20,0,0
45280,-130.292650321888,4,1,0,20,0,0
45580,-176.210522235125,4,1,0,20,0,0
45880,-125.489566170021,4,1,0,20,0,0
46480,-121.028011933362,4,1,0,20,0,0
46780,-190.02194753494,4,1,0,20,0,0
47080,-116.872947418861,4,1,0,20,0,0
47680,-112.993584224288,4,1,0,20,0,0
47980,-105.263157894737,4,1,0,40,0,0
56380,-105.263157894737,4,1,0,40,0,0
56530,-107.129695494554,4,1,0,40,0,0
56680,-109.063504406711,4,1,0,40,0,0
56830,-111.068534839423,4,1,0,40,0,0
56980,-113.148667165275,4,1,0,40,0,0
57130,-115.30820152645,4,1,0,40,0,0
57280,-117.551634555479,4,1,0,40,0,0
57580,-100,4,1,0,40,0,0
67105,-125,4,1,0,40,0,0
76780,-100,4,1,0,40,0,0
76855,-99.6892685499299,4,1,0,40,0,0
76930,-99.3804621986536,4,1,0,40,0,0
77005,-99.0735631113458,4,1,0,40,0,0
77080,-98.7685536728074,4,1,0,40,0,0
77155,-98.4655134385733,4,1,0,40,0,0
77230,-98.1642307212813,4,1,0,40,0,0
77305,-97.864786096937,4,1,0,40,0,0
77380,-97.5671627956895,4,1,0,40,0,0
77455,-97.271344251069,4,1,0,40,0,0
77530,-96.9773140969133,4,1,0,40,0,0
77605,-96.6850561643491,4,1,0,40,0,0
77680,-96.3945544788284,4,1,0,40,0,0
77755,-96.1058856205413,4,1,0,40,0,0
77830,-95.8188487173689,4,1,0,40,0,0
77905,-95.5335212796142,4,1,0,40,0,0
77980,-95.2498880813815,4,1,0,40,0,0
78055,-94.9679340770589,4,1,0,40,0,0
78130,-94.6876443986577,4,1,0,40,0,0
78205,-94.4090043531992,4,1,0,40,0,0
78280,-94.1319994201469,4,1,0,40,0,0
78355,-93.8566152488843,4,1,0,40,0,0
78430,-93.5829252337935,4,1,0,40,0,0
78505,-93.3107396928957,4,1,0,40,0,0
78580,-93.0401328613097,4,1,0,40,0,0
78655,-92.7710910436933,4,1,0,40,0,0
78730,-92.5036007026573,4,1,0,40,0,0
78805,-92.2376484564952,4,1,0,40,0,0
78880,-91.9732210769512,4,1,0,40,0,0
78955,-91.7103054870276,4,1,0,40,0,0
79030,-91.4489723878973,4,1,0,40,0,0
79105,-91.1890412657769,4,1,0,40,0,0
79180,-90.9305835924855,4,1,0,40,0,0
79255,-91.4258965680547,4,1,0,40,0,0
79330,-91.9485272144654,4,1,0,40,0,0
79405,-92.477252907716,4,1,0,40,0,0
79480,-93.0120078502135,4,1,0,40,0,0
79555,-93.5530707859955,4,1,0,40,0,0
79630,-94.100465420902,4,1,0,40,0,0
79705,-94.6542139582783,4,1,0,40,0,0
79780,-95.2146089678832,4,1,0,40,0,0
79855,-95.7816790719905,4,1,0,40,0,0
79930,-96.3554514060187,4,1,0,40,0,0
80005,-96.9362334069402,4,1,0,40,0,0
80080,-97.5239640760726,4,1,0,40,0,0
80155,-98.1189613911699,4,1,0,40,0,0
80230,-98.7212634742184,4,1,0,40,0,0
80305,-99.3309070103781,4,1,0,40,0,0
80380,-99.948226818508,4,1,0,40,0,0
80455,-99.3820424599838,4,1,0,40,0,0
80530,-98.7717730027113,4,1,0,40,0,0
80605,-98.1688563230069,4,1,0,40,0,0
80680,-97.5733507664387,4,1,0,40,0,0
80755,-96.9849324208991,4,1,0,40,0,0
80830,-96.4035684744906,4,1,0,40,0,0
80905,-95.8292246553262,4,1,0,40,0,0
80980,-95.261593097726,4,1,0,40,0,0
81055,-94.7006465213138,4,1,0,40,0,0
81130,-94.1463561594312,4,1,0,40,0,0
81205,-93.5984290439669,4,1,0,40,0,0
81280,-93.0569294377221,4,1,0,40,0,0
81355,-92.5215737179517,4,1,0,40,0,0
81430,-91.9923425574055,4,1,0,40,0,0
81505,-91.4692151209589,4,1,0,40,0,0
81580,-90.9519209955233,4,1,0,40,0,0
85480,-100.051826846306,4,1,0,40,0,0
85780,-105.263157894737,4,1,0,40,0,0
86230,-108.108108108108,4,1,0,40,0,0
86380,-111.175098556725,4,1,0,40,0,0
95980,-111.111111111111,4,1,0,20,0,0
96280,-111.912779656047,4,1,0,20,0,0
96880,-113.551458114274,4,1,0,20,0,0
97480,-115.238705454478,4,1,0,20,0,0
98080,-116.976987117324,4,1,0,20,0,0
98380,-117.865873350762,4,1,0,20,0,0
98680,-118.76851304197,4,1,0,20,0,0
99280,-120.615622135379,4,1,0,20,0,0
99880,-122.521242120353,4,1,0,20,0,0
100480,-124.487887950942,4,1,0,20,0,0
100780,-125.495078083038,4,1,0,20,0,0
101080,-126.518858901108,4,1,0,20,0,0
101680,-128.617032496379,4,1,0,20,0,0
102280,-130.786142423493,4,1,0,20,0,0
102880,-133.029493969108,4,1,0,20,0,0
103180,-134.180459299712,4,1,0,20,0,0
103480,-135.351331451047,4,1,0,20,0,0
104080,-137.755657280455,4,1,0,20,0,0
104380,-138.990042753337,4,1,0,20,0,0
104680,-140.246750132183,4,1,0,20,0,0
105280,-142.829801152351,4,1,0,20,0,0
105580,-111.111111111111,4,1,0,20,0,0
105880,-112.448751481512,4,1,0,20,0,0
106480,-115.223169996808,4,1,0,20,0,0
107080,-118.13795678041,4,1,0,20,0,0
107680,-121.203894038708,4,1,0,20,0,0
107980,-122.797473810369,4,1,0,20,0,0
108280,-124.433361579706,4,1,0,20,0,0
108880,-127.839637958145,4,1,0,20,0,0
109480,-131.4374791343,4,1,0,20,0,0
110080,-135.243878523948,4,1,0,20,0,0
110380,-137.230873103984,4,1,0,20,0,0
110680,-139.277123871681,4,1,0,20,0,0
111280,-143.558528812197,4,1,0,20,0,0
111880,-148.111504264871,4,1,0,20,0,0
112480,-152.96250124282,4,1,0,20,0,0
112780,-155.509386546572,4,1,0,20,0,0
113980,-166.604745236354,4,1,0,20,0,0
116380,-153.846153846154,4,1,0,20,0,0
117580,-142.857142857143,4,1,0,20,0,0
118780,-125,4,1,0,20,0,0
119980,-111.111111111111,4,1,0,20,0,0
121180,-83.3333333333333,4,1,0,20,0,0
122380,-62.5,4,1,0,20,0,0
123580,-50,4,1,0,20,0,0
124780,-100,4,1,0,20,0,0
125690,-111.111111111111,4,1,0,20,0,0
127180,-125,4,1,0,20,0,0
128305,-142.857142857143,4,1,0,20,0,0
129580,-100,4,1,0,40,0,0
139180,-100,4,1,0,60,0,0
146380,-100,4,1,0,70,0,0
146455,-99.6892685499299,4,1,0,70,0,0
146530,-99.3804621986536,4,1,0,70,0,0
146605,-99.0735631113458,4,1,0,70,0,0
146680,-98.7685536728074,4,1,0,70,0,0
146755,-98.4655134385733,4,1,0,70,0,0
146830,-98.1642307212813,4,1,0,70,0,0
146905,-97.864786096937,4,1,0,70,0,0
146980,-97.5671627956895,4,1,0,70,0,0
147055,-97.271344251069,4,1,0,70,0,0
147130,-96.9773140969133,4,1,0,70,0,0
147205,-96.6850561643491,4,1,0,70,0,0
147280,-96.3945544788284,4,1,0,70,0,0
147355,-96.1058856205413,4,1,0,70,0,0
147430,-95.8188487173689,4,1,0,70,0,0
147505,-95.5335212796142,4,1,0,70,0,0
147580,-95.2498880813815,4,1,0,70,0,0
147780,-94.5017019756526,4,1,0,70,0,0
147980,-93.7651782382273,4,1,0,70,0,0
148180,-93.0401328613097,4,1,0,70,0,0
148380,-92.3261291254777,4,1,0,70,0,0
148580,-91.6230006715966,4,1,0,70,0,0
148680,-91.2755206355697,4,1,0,70,0,0
148780,-90.9305835924855,4,1,0,70,0,1
157330,-95.2380952380952,4,1,0,70,0,1
157480,-90.9090909090909,4,1,0,70,0,1
157555,-95.2380952380952,4,1,0,70,0,1
157705,-90.9090909090909,4,1,0,70,0,1
157855,-95.2380952380952,4,1,0,70,0,1
158005,-90.9090909090909,4,1,0,70,0,1
158155,-95.2380952380952,4,1,0,70,0,1
158305,-90.9090909090909,4,1,0,70,0,1
166855,-95.2380952380952,4,1,0,70,0,1
167005,-90.9090909090909,4,1,0,70,0,1
167155,-95.2380952380952,4,1,0,70,0,1
167305,-90.9090909090909,4,1,0,70,0,1
167530,-95.2380952380952,4,1,0,70,0,0
167880,-111.111111111111,4,1,0,30,0,0
168280,-111.88761113237,4,1,0,30,0,0
168580,-112.67504067569,4,1,0,30,0,0
168880,-113.473632132101,4,1,0,30,0,0
169180,-114.283624528009,4,1,0,30,0,0
169480,-115.105263763712,4,1,0,30,0,0
169780,-115.938802862297,4,1,0,30,0,0
170080,-116.784502229416,4,1,0,30,0,0
170380,-117.6424915268,4,1,0,30,0,0
170680,-118.513321489902,4,1,0,30,0,0
170980,-119.397139960909,4,1,0,30,0,0
171280,-120.294239710331,4,1,0,30,0,0
171580,-121.204922374307,4,1,0,30,0,0
171880,-122.12949879275,4,1,0,30,0,0
172180,-123.068289363085,4,1,0,30,0,0
172480,-124.021624410432,4,1,0,30,0,0
172780,-124.989844575128,4,1,0,30,0,0
173080,-125.97330121854,4,1,0,30,0,0
173380,-126.972356848191,4,1,0,30,0,0
173680,-127.987385563279,4,1,0,30,0,0
173980,-129.018773521735,4,1,0,30,0,0
174280,-130.066919430047,4,1,0,30,0,0
174580,-131.132235057154,4,1,0,30,0,0
174880,-132.214970965592,4,1,0,30,0,0
175180,-133.315913387317,4,1,0,30,0,0
175480,-134.435344665337,4,1,0,30,0,0
175780,-135.573734486975,4,1,0,30,0,0
176080,-136.731568584555,4,1,0,30,0,0
176380,-137.909349426435,4,1,0,30,0,0
176680,-139.107596944084,4,1,0,30,0,0
176980,-140.326849297383,4,1,0,30,0,0
177280,-141.567663680533,4,1,0,30,0,0
177580,-142.830617171097,4,1,0,30,0,0
187180,600,4,1,0,30,1,0
187180,-71.4285714285714,4,1,0,30,0,0
187405,-100,4,1,0,30,0,0
199006,-166.666666666667,4,1,0,30,0,0
201580,1200,4,1,0,30,1,0
201580,-100,4,1,0,30,0,0
206356,-200,4,1,0,30,0,0
211180,-222.222222222222,4,1,0,30,0,0
215780,-166.666666666667,4,1,0,30,0,0
220611,-181.818181818182,4,1,0,30,0,0
225180,-250,4,1,0,30,0,0
230211,-285.714285714286,4,1,0,30,0,0
234980,-333.333333333333,4,1,0,30,0,0
239761,-400,4,1,0,30,0,0
244580,-444.444444444444,4,1,0,5,0,0
249580,600,4,1,0,5,1,0
249580,-1000,4,1,0,5,0,0
250180,-645.398630464106,4,1,0,5,0,0
250780,-476.449119998475,4,1,0,5,0,0
251380,-377.603576661078,4,1,0,5,0,0
251980,-312.72379296434,4,1,0,10,0,0
252580,-266.870199672283,4,1,0,10,0,0
253180,-232.743793304892,4,1,0,10,0,0
253780,-206.356183153494,4,1,0,10,0,0
254380,-185.342382984087,4,1,0,10,0,0
254980,-168.212822863487,4,1,0,10,0,0
255580,-153.981657704934,4,1,0,10,0,0
256180,-141.97083918963,4,1,0,10,0,0
256780,-131.697995424812,4,1,0,10,0,0
257380,-122.811499086282,4,1,0,10,0,0
257980,-115.048452655836,4,1,0,10,0,0
258580,-108.208478783564,4,1,0,10,0,0
259180,-102.136282484445,4,1,0,10,0,0
259780,-96.7092735489499,4,1,0,10,0,0
260380,-91.8298943037917,4,1,0,10,0,0
260980,-87.4192355537528,4,1,0,10,0,0
261580,-83.4129231641858,4,1,0,10,0,0
261617,-25,4,1,0,10,0,0
263980,300,4,1,0,20,1,0
263980,-90.9090909090909,4,1,0,20,0,0
282280,-95.2380952380952,4,1,0,25,0,0
282580,-100,4,1,0,25,0,0
282730,-97.5855386038632,4,1,0,30,0,0
282880,-95.2848301786114,4,1,0,30,0,0
282955,-94.1747280233855,4,1,0,30,0,0
283030,-93.090194158218,4,1,0,35,0,0
283105,-92.0303552923896,4,1,0,35,0,0
283180,-90.9943774574169,4,1,0,60,0,0
285430,-95.2380952380952,4,1,0,60,0,0
285580,-90.9090909090909,4,1,0,60,0,0
290230,-95.2380952380952,4,1,0,60,0,0
290380,-90.9090909090909,4,1,0,60,0,0
291730,-95.2380952380952,4,1,0,60,0,0
291880,-90.9090909090909,4,1,0,60,0,0
292030,-95.2380952380952,4,1,0,60,0,0
292180,-90.9090909090909,4,1,0,60,0,0
292255,-92.2882123957835,4,1,0,60,0,0
292330,-93.709909729244,4,1,0,60,0,0
292405,-95.1760042258146,4,1,0,60,0,0
292480,-96.6887020218575,4,1,0,60,0,0
292630,-99.8631874332165,4,1,0,60,0,0
292780,-90.7960086074616,4,1,0,70,0,0
299980,-90.9090909090909,4,1,0,60,0,0
300055,-91.4272339787486,4,1,0,60,0,0
300130,-91.9513172945716,4,1,0,60,0,0
300205,-92.481358070247,4,1,0,60,0,0
300280,-93.0176314920493,4,1,0,60,0,0
300355,-93.5601605866596,4,1,0,60,0,0
300430,-94.1090554556431,4,1,0,60,0,0
300505,-94.6643391861139,4,1,0,60,0,0
300580,-95.2263053145801,4,1,0,60,0,0
300655,-95.7949834083089,4,1,0,60,0,0
300730,-96.3704944384588,4,1,0,60,0,0
300805,-96.9528683021323,4,1,0,60,0,0
300880,-97.542418759358,4,1,0,60,0,0
300955,-98.1391829520463,4,1,0,60,0,0
301030,-98.7432940960397,4,1,0,60,0,0
301105,-99.3547899937804,4,1,0,60,0,0
301180,-99.9740067582429,4,1,0,50,0,0
301380,-101.663623535536,4,1,0,50,0,0
301580,-103.411226115885,4,1,0,50,0,0
301780,-105.219962331253,4,1,0,50,0,0
301980,-107.093211789677,4,1,0,50,0,0
302180,-109.034250929244,4,1,0,50,0,0
302380,-111.047073965125,4,1,0,50,0,0
309730,-112.994350282486,4,1,0,50,0,0
309880,-114.678899082569,4,1,0,50,0,0
310030,-117.647058823529,4,1,0,50,0,0
310067,-117.042568382121,4,1,0,50,0,0
310180,-115.265670079683,4,1,0,50,0,0
310217,-114.685343557149,4,1,0,50,0,0
310330,-112.978775807177,4,1,0,50,0,0
310367,-112.421192743887,4,1,0,50,0,0
310480,-110.780861055321,4,1,0,50,0,0
310517,-110.244710183194,4,1,0,50,0,0
310630,-108.666831840251,4,1,0,50,0,0
310667,-108.150900788853,4,1,0,50,0,0
310780,-106.631975730562,4,1,0,50,0,0
310855,-105.64291637835,4,1,0,50,0,0
310930,-104.671926779894,4,1,0,50,0,0
311005,-103.718731395453,4,1,0,50,0,0
311080,-102.782634257246,4,1,0,50,0,0
311155,-101.863386937243,4,1,0,50,0,0
311230,-100.960334703702,4,1,0,50,0,0
311305,-100.073253621651,4,1,0,50,0,0
311980,-125.11447974897,4,1,0,40,0,0

[HitObjects]
366,104,4780,5,0,0:0:0:0:
366,104,4930,1,0,0:0:0:0:
367,118,5980,1,0,0:0:0:0:
367,118,6130,1,0,0:0:0:0:
357,120,7180,1,0,0:0:0:0:
357,120,7330,1,0,0:0:0:0:
357,120,8380,1,0,0:0:0:0:
357,120,8530,1,0,0:0:0:0:
357,120,8980,1,0,0:0:0:0:
357,120,9280,1,0,0:0:0:0:
357,120,9580,1,8,0:0:0:0:
357,120,9880,1,0,0:0:0:0:
357,120,10180,1,0,0:0:0:0:
357,120,10480,1,0,0:0:0:0:
357,120,10780,1,0,0:0:0:0:
357,120,11080,1,0,0:0:0:0:
357,120,11380,1,0,0:0:0:0:
357,120,11680,1,0,0:0:0:0:
357,120,11980,1,8,0:0:0:0:
357,120,12280,1,0,0:0:0:0:
357,120,12580,1,0,0:0:0:0:
357,120,12880,1,0,0:0:0:0:
357,120,13180,1,0,0:0:0:0:
357,120,13480,1,0,0:0:0:0:
357,120,13780,1,0,0:0:0:0:
357,120,14080,1,0,0:0:0:0:
357,120,14380,1,8,0:0:0:0:
357,120,14680,1,0,0:0:0:0:
357,120,14980,1,0,0:0:0:0:
357,120,15280,1,0,0:0:0:0:
357,120,15580,1,0,0:0:0:0:
357,120,15880,1,0,0:0:0:0:
357,120,16180,1,0,0:0:0:0:
357,120,16480,1,0,0:0:0:0:
357,120,16780,1,8,0:0:0:0:
357,120,17080,1,0,0:0:0:0:
357,120,17380,1,0,0:0:0:0:
357,120,17680,1,0,0:0:0:0:
357,120,17980,1,0,0:0:0:0:
357,120,18280,1,0,0:0:0:0:
357,120,18580,1,0,0:0:0:0:
357,120,18880,1,0,0:0:0:0:
349,91,19180,1,8,0:0:0:0:
382,103,19255,1,8,0:0:0:0:
348,91,19330,1,0,0:0:0:0:
372,86,19480,1,0,0:0:0:0:
366,106,19630,1,0,0:0:0:0:
357,99,19780,1,0,0:0:0:0:
383,97,19930,1,0,0:0:0:0:
383,97,20080,1,0,0:0:0:0:
380,95,20230,1,0,0:0:0:0:
380,95,20380,1,0,0:0:0:0:
360,92,20530,1,0,0:0:0:0:
360,92,20680,1,0,0:0:0:0:
359,92,20830,1,0,0:0:0:0:
359,92,20980,1,0,0:0:0:0:
359,92,21130,1,0,0:0:0:0:
359,92,21280,1,0,0:0:0:0:
359,92,21430,1,0,0:0:0:0:
369,83,21580,1,8,0:0:0:0:
369,83,21655,1,8,0:0:0:0:
369,83,21730,1,0,0:0:0:0:
367,99,21880,1,0,0:0:0:0:
367,98,22030,1,0,0:0:0:0:
367,98,22180,1,0,0:0:0:0:
367,98,22330,1,0,0:0:0:0:
367,98,22480,1,0,0:0:0:0:
367,98,22630,1,0,0:0:0:0:
367,98,22780,1,0,0:0:0:0:
367,99,22930,1,0,0:0:0:0:
367,98,23080,1,0,0:0:0:0:
367,98,23230,1,0,0:0:0:0:
350,112,23380,1,0,0:0:0:0:
367,98,23530,1,0,0:0:0:0:
367,98,23680,1,0,0:0:0:0:
367,98,23830,1,0,0:0:0:0:
367,98,23980,1,8,0:0:0:0:
367,98,24055,1,8,0:0:0:0:
367,98,24130,1,0,0:0:0:0:
363,96,24280,1,0,0:0:0:0:
367,98,24430,1,0,0:0:0:0:
367,98,24580,1,0,0:0:0:0:
367,98,24730,1,0,0:0:0:0:
367,98,24880,1,0,0:0:0:0:
367,98,25030,1,0,0:0:0:0:
367,98,25180,1,0,0:0:0:0:
367,98,25330,1,0,0:0:0:0:
367,98,25480,1,0,0:0:0:0:
367,98,25630,1,0,0:0:0:0:
367,98,25780,1,0,0:0:0:0:
367,98,25930,1,0,0:0:0:0:
367,98,26080,1,0,0:0:0:0:
367,98,26230,1,0,0:0:0:0:
372,92,26380,1,8,0:0:0:0:
372,92,26455,1,8,0:0:0:0:
371,92,26530,1,0,0:0:0:0:
371,91,26680,1,0,0:0:0:0:
371,91,26830,1,0,0:0:0:0:
371,91,26980,1,0,0:0:0:0:
371,91,27130,1,0,0:0:0:0:
371,91,27280,1,0,0:0:0:0:
372,92,27430,1,0,0:0:0:0:
371,92,27580,1,0,0:0:0:0:
375,97,27730,1,0,0:0:0:0:
374,97,27880,1,0,0:0:0:0:
374,97,28030,1,0,0:0:0:0:
374,97,28180,1,0,0:0:0:0:
372,92,28330,1,0,0:0:0:0:
372,92,28480,1,0,0:0:0:0:
374,97,28630,1,0,0:0:0:0:
374,97,28780,1,8,0:0:0:0:
374,97,28855,1,8,0:0:0:0:
374,97,28930,1,0,0:0:0:0:
374,97,29005,1,0,0:0:0:0:
374,97,29080,1,0,0:0:0:0:
374,97,29230,1,0,0:0:0:0:
372,99,29380,1,8,0:0:0:0:
373,99,29530,1,8,0:0:0:0:
374,97,29680,1,0,0:0:0:0:
374,97,29830,1,0,0:0:0:0:
374,97,29980,1,8,0:0:0:0:
374,97,30180,1,0,0:0:0:0:
372,99,30380,1,0,0:0:0:0:
374,97,30580,1,8,0:0:0:0:
374,97,30780,1,8,0:0:0:0:
374,97,30980,1,0,0:0:0:0:
374,97,31180,1,8,0:0:0:0:
374,97,31255,1,8,0:0:0:0:
373,90,31330,1,0,0:0:0:0:
374,97,31405,1,0,0:0:0:0:
374,97,31480,1,0,0:0:0:0:
374,97,31630,1,0,0:0:0:0:
374,97,31780,1,8,0:0:0:0:
374,97,31930,1,8,0:0:0:0:
374,97,32080,1,0,0:0:0:0:
374,97,32230,1,0,0:0:0:0:
374,89,32380,1,8,0:0:0:0:
378,80,32580,1,0,0:0:0:0:
378,80,32780,1,0,0:0:0:0:
374,97,32980,1,8,0:0:0:0:
374,97,33180,1,8,0:0:0:0:
374,89,33380,1,0,0:0:0:0:
378,94,33580,1,8,0:0:0:0:
374,88,33655,1,8,0:0:0:0:
372,90,33730,1,8,0:0:0:0:
372,90,33805,1,8,0:0:0:0:
375,89,33880,1,0,0:0:0:0:
366,89,34030,1,0,0:0:0:0:
366,89,34180,1,8,0:0:0:0:
366,89,34255,1,8,0:0:0:0:
366,89,34330,1,0,0:0:0:0:
364,89,34480,1,8,0:0:0:0:
365,88,34630,1,0,0:0:0:0:
364,89,34780,1,8,0:0:0:0:
371,63,34980,1,0,0:0:0:0:
371,63,35180,1,0,0:0:0:0:
370,63,35380,1,8,0:0:0:0:
369,62,35580,1,8,0:0:0:0:
377,62,35780,1,0,0:0:0:0:
382,69,35980,1,8,0:0:0:0:
371,63,36055,1,0,0:0:0:0:
371,63,36130,1,0,0:0:0:0:
371,63,36205,1,0,0:0:0:0:
380,55,36280,1,8,0:0:0:0:
379,55,36355,1,0,0:0:0:0:
380,55,36430,1,0,0:0:0:0:
379,55,36505,1,0,0:0:0:0:
379,55,36580,1,8,0:0:0:0:
380,55,36655,1,8,0:0:0:0:
379,55,36730,1,0,0:0:0:0:
379,55,36805,1,0,0:0:0:0:
380,52,36880,1,8,0:0:0:0:
380,52,36955,1,8,0:0:0:0:
380,52,37030,1,0,0:0:0:0:
380,52,37105,1,0,0:0:0:0:
378,51,37180,1,8,0:0:0:0:
379,55,37380,1,8,0:0:0:0:
379,55,37580,1,8,0:0:0:0:
379,55,37780,1,8,0:0:0:0:
380,52,37980,1,8,0:0:0:0:
378,51,38180,1,8,0:0:0:0:
354,108,42880,1,8,0:0:0:0:
354,108,43480,1,8,0:0:0:0:
354,108,44080,1,8,0:0:0:0:
354,108,44680,1,8,0:0:0:0:
354,108,45280,1,8,0:0:0:0:
354,108,45880,1,8,0:0:0:0:
354,108,46480,1,8,0:0:0:0:
354,108,47080,1,8,0:0:0:0:
354,108,47680,1,8,0:0:0:0:
348,120,47980,5,0,0:0:0:0:
360,102,48055,1,0,0:0:0:0:
360,102,48130,1,0,0:0:0:0:
360,102,48205,1,0,0:0:0:0:
362,101,48280,1,8,0:0:0:0:
372,105,48430,1,8,0:0:0:0:
369,104,48580,1,0,0:0:0:0:
368,104,48655,1,0,0:0:0:0:
369,104,48730,1,0,0:0:0:0:
368,103,48805,1,0,0:0:0:0:
371,98,48880,1,8,0:0:0:0:
371,98,49030,1,8,0:0:0:0:
367,101,49105,1,8,0:0:0:0:
367,101,49180,1,0,0:0:0:0:
362,101,49255,1,0,0:0:0:0:
365,98,49330,1,0,0:0:0:0:
372,105,49405,1,0,0:0:0:0:
365,98,49480,1,8,0:0:0:0:
368,104,49630,1,8,0:0:0:0:
369,104,49780,1,0,0:0:0:0:
368,103,49855,1,0,0:0:0:0:
368,104,49930,1,0,0:0:0:0:
371,98,50005,1,0,0:0:0:0:
367,101,50080,1,8,0:0:0:0:
367,101,50155,1,0,0:0:0:0:
367,101,50230,1,8,0:0:0:0:
365,98,50305,1,8,0:0:0:0:
372,105,50380,1,0,0:0:0:0:
368,104,50455,1,0,0:0:0:0:
365,98,50530,1,0,0:0:0:0:
368,104,50605,1,0,0:0:0:0:
367,101,50680,1,8,0:0:0:0:
368,103,50830,1,8,0:0:0:0:
368,104,50980,1,0,0:0:0:0:
367,101,51055,1,0,0:0:0:0:
367,101,51130,1,0,0:0:0:0:
367,101,51205,1,0,0:0:0:0:
365,98,51280,1,8,0:0:0:0:
367,101,51430,1,8,0:0:0:0:
367,101,51505,1,8,0:0:0:0:
368,104,51580,1,0,0:0:0:0:
366,84,51655,1,0,0:0:0:0:
369,104,51730,1,0,0:0:0:0:
366,84,51805,1,0,0:0:0:0:
364,96,51880,1,8,0:0:0:0:
371,100,52030,1,8,0:0:0:0:
365,85,52180,1,0,0:0:0:0:
364,85,52255,1,0,0:0:0:0:
365,85,52330,1,0,0:0:0:0:
365,85,52405,1,0,0:0:0:0:
367,101,52480,1,8,0:0:0:0:
365,85,52555,1,0,0:0:0:0:
371,101,52630,1,8,0:0:0:0:
371,101,52705,1,0,0:0:0:0:
369,82,52780,1,8,0:0:0:0:
365,85,52855,1,8,0:0:0:0:
367,83,52930,1,0,0:0:0:0:
367,83,53005,1,0,0:0:0:0:
369,84,53080,1,8,0:0:0:0:
371,103,53230,1,0,0:0:0:0:
372,103,53305,1,0,0:0:0:0:
368,103,53380,1,8,0:0:0:0:
367,101,53455,1,8,0:0:0:0:
368,103,53530,1,0,0:0:0:0:
375,95,53605,1,0,0:0:0:0:
371,101,53680,1,8,0:0:0:0:
371,101,53755,1,0,0:0:0:0:
365,90,53830,1,8,0:0:0:0:
364,90,53905,1,8,0:0:0:0:
364,90,53980,1,0,0:0:0:0:
372,90,54055,1,0,0:0:0:0:
367,89,54130,1,8,0:0:0:0:
365,89,54205,1,0,0:0:0:0:
376,77,54280,1,8,0:0:0:0:
376,78,54430,1,0,0:0:0:0:
376,78,54505,1,0,0:0:0:0:
377,77,54580,1,8,0:0:0:0:
377,77,54655,1,0,0:0:0:0:
376,77,54730,1,0,0:0:0:0:
376,73,54805,1,0,0:0:0:0:
373,70,54880,1,8,0:0:0:0:
373,70,54955,1,0,0:0:0:0:
373,70,55030,1,8,0:0:0:0:
340,86,55105,1,8,0:0:0:0:
374,71,55180,1,0,0:0:0:0:
376,77,55255,1,0,0:0:0:0:
375,77,55330,1,8,0:0:0:0:
376,78,55405,1,0,0:0:0:0:
374,71,55480,1,8,0:0:0:0:
377,77,55630,1,0,0:0:0:0:
376,77,55705,1,0,0:0:0:0:
376,73,55780,1,8,0:0:0:0:
373,70,55855,1,8,0:0:0:0:
373,70,55930,1,0,0:0:0:0:
373,70,56005,1,0,0:0:0:0:
373,70,56080,1,8,0:0:0:0:
374,71,56155,1,0,0:0:0:0:
374,71,56230,1,8,0:0:0:0:
372,66,56305,1,8,0:0:0:0:
372,66,56380,1,0,0:0:0:0:
374,67,56530,1,8,0:0:0:0:
374,67,56680,1,0,0:0:0:0:
379,64,56830,1,0,0:0:0:0:
379,64,56980,1,8,0:0:0:0:
370,61,57130,1,8,0:0:0:0:
372,66,57280,1,0,0:0:0:0:
374,67,57580,1,0,0:0:0:0:
374,67,57655,1,8,0:0:0:0:
379,64,57730,1,0,0:0:0:0:
379,64,57805,1,0,0:0:0:0:
379,64,57880,1,8,0:0:0:0:
379,64,57955,1,0,0:0:0:0:
380,64,58030,1,0,0:0:0:0:
380,64,58105,1,0,0:0:0:0:
380,64,58180,1,8,0:0:0:0:
379,64,58255,1,8,0:0:0:0:
374,67,58330,1,0,0:0:0:0:
382,73,58405,1,0,0:0:0:0:
383,72,58480,1,8,0:0:0:0:
381,72,58555,1,0,0:0:0:0:
380,72,58630,1,8,0:0:0:0:
381,72,58705,1,0,0:0:0:0:
382,74,58780,1,0,0:0:0:0:
382,74,58855,1,0,0:0:0:0:
381,74,58930,1,8,0:0:0:0:
382,77,59005,1,0,0:0:0:0:
382,74,59080,1,8,0:0:0:0:
381,77,59155,1,0,0:0:0:0:
381,78,59230,1,0,0:0:0:0:
381,77,59305,1,0,0:0:0:0:
384,78,59380,1,8,0:0:0:0:
383,72,59455,1,8,0:0:0:0:
383,72,59530,1,0,0:0:0:0:
381,72,59680,1,0,0:0:0:0:
382,74,59830,1,8,0:0:0:0:
381,74,59905,1,0,0:0:0:0:
376,72,59980,1,8,0:0:0:0:
382,74,60055,1,8,0:0:0:0:
383,70,60130,1,0,0:0:0:0:
383,70,60205,1,0,0:0:0:0:
383,70,60280,1,8,0:0:0:0:
395,75,60355,1,0,0:0:0:0:
383,72,60430,1,8,0:0:0:0:
383,72,60505,1,0,0:0:0:0:
385,67,60580,1,8,0:0:0:0:
385,67,60655,1,0,0:0:0:0:
385,67,60730,1,0,0:0:0:0:
382,66,60805,1,0,0:0:0:0:
385,67,60880,1,8,0:0:0:0:
384,64,60955,1,8,0:0:0:0:
388,68,61030,1,0,0:0:0:0:
390,71,61105,1,0,0:0:0:0:
383,70,61180,1,8,0:0:0:0:
383,70,61255,1,0,0:0:0:0:
382,68,61330,1,8,0:0:0:0:
388,60,61405,1,8,0:0:0:0:
388,61,61480,1,0,0:0:0:0:
385,67,61630,1,0,0:0:0:0:
385,67,61705,1,0,0:0:0:0:
388,62,61780,1,8,0:0:0:0:
384,64,61930,1,0,0:0:0:0:
341,71,62005,1,0,0:0:0:0:
382,59,62080,1,8,0:0:0:0:
382,59,62155,1,8,0:0:0:0:
380,60,62230,1,0,0:0:0:0:
379,61,62380,1,8,0:0:0:0:
388,61,62455,1,0,0:0:0:0:
383,57,62530,1,8,0:0:0:0:
383,57,62605,1,8,0:0:0:0:
382,56,62680,1,0,0:0:0:0:
382,56,62755,1,0,0:0:0:0:
382,56,62830,1,8,0:0:0:0:
380,56,62905,1,0,0:0:0:0:
380,47,62980,1,0,0:0:0:0:
379,53,63055,1,0,0:0:0:0:
382,59,63130,1,8,0:0:0:0:
380,60,63205,1,8,0:0:0:0:
378,52,63280,1,0,0:0:0:0:
378,52,63355,1,0,0:0:0:0:
375,50,63430,1,8,0:0:0:0:
374,54,63505,1,0,0:0:0:0:
373,49,63580,1,0,0:0:0:0:
374,51,63655,1,0,0:0:0:0:
373,49,63730,1,8,0:0:0:0:
367,43,63805,1,0,0:0:0:0:
374,49,63880,1,8,0:0:0:0:
368,42,63955,1,8,0:0:0:0:
368,41,64030,1,0,0:0:0:0:
369,43,64105,1,0,0:0:0:0:
372,43,64180,1,8,0:0:0:0:
373,43,64330,1,0,0:0:0:0:
363,62,64405,1,0,0:0:0:0:
372,39,64480,1,8,0:0:0:0:
369,43,64555,1,8,0:0:0:0:
365,64,64630,1,0,0:0:0:0:
367,43,64780,1,8,0:0:0:0:
374,49,64855,1,8,0:0:0:0:
368,42,64930,1,0,0:0:0:0:
368,42,65005,1,0,0:0:0:0:
368,41,65080,1,8,0:0:0:0:
363,29,65155,1,0,0:0:0:0:
373,43,65230,1,8,0:0:0:0:
363,29,65305,1,0,0:0:0:0:
363,29,65380,1,8,0:0:0:0:
372,39,65455,1,0,0:0:0:0:
313,67,65530,1,0,0:0:0:0:
369,43,65605,1,0,0:0:0:0:
372,40,65680,1,8,0:0:0:0:
341,57,65755,1,0,0:0:0:0:
346,58,65830,1,8,0:0:0:0:
346,58,65905,1,8,0:0:0:0:
345,58,65980,1,0,0:0:0:0:
345,57,66055,1,0,0:0:0:0:
345,57,66130,1,8,0:0:0:0:
351,73,66167,1,8,0:0:0:0:
352,71,66205,1,8,0:0:0:0:
354,70,66280,1,0,0:0:0:0:
338,63,67180,1,0,0:0:0:0:
378,51,67380,1,0,0:0:0:0:
378,51,67480,1,8,0:0:0:0:
363,72,67680,1,0,0:0:0:0:
362,71,67780,1,8,0:0:0:0:
345,57,67980,1,8,0:0:0:0:
352,52,68080,1,0,0:0:0:0:
381,64,68155,1,0,0:0:0:0:
381,65,68230,1,8,0:0:0:0:
381,65,68305,1,0,0:0:0:0:
381,62,68380,1,0,0:0:0:0:
383,52,68580,1,8,0:0:0:0:
383,45,68680,1,0,0:0:0:0:
383,45,68880,1,0,0:0:0:0:
383,45,68980,1,8,0:0:0:0:
396,58,69130,1,0,0:0:0:0:
380,44,69180,1,8,0:0:0:0:
380,52,69280,1,0,0:0:0:0:
380,52,69380,1,8,0:0:0:0:
367,46,69480,1,8,0:0:0:0:
383,52,69580,1,0,0:0:0:0:
383,45,69780,1,0,0:0:0:0:
383,45,69880,1,8,0:0:0:0:
388,49,70080,1,0,0:0:0:0:
388,49,70180,1,8,0:0:0:0:
386,44,70380,1,8,0:0:0:0:
383,42,70480,1,0,0:0:0:0:
407,45,70555,1,0,0:0:0:0:
400,45,70630,1,8,0:0:0:0:
397,46,70705,1,8,0:0:0:0:
397,47,70780,1,0,0:0:0:0:
388,37,70930,1,0,0:0:0:0:
387,37,71005,1,0,0:0:0:0:
388,37,71080,1,8,0:0:0:0:
389,36,71230,1,8,0:0:0:0:
389,36,71380,1,8,0:0:0:0:
386,37,71530,1,8,0:0:0:0:
403,27,71680,1,0,0:0:0:0:
397,47,71780,1,8,0:0:0:0:
397,45,71880,1,8,0:0:0:0:
399,42,71980,1,0,0:0:0:0:
403,45,72180,1,0,0:0:0:0:
404,45,72280,1,8,0:0:0:0:
404,45,72480,1,0,0:0:0:0:
404,45,72580,1,8,0:0:0:0:
404,45,72780,1,8,0:0:0:0:
404,45,72880,1,0,0:0:0:0:
416,39,72955,1,0,0:0:0:0:
418,39,73030,1,8,0:0:0:0:
418,39,73105,1,0,0:0:0:0:
417,39,73180,1,0,0:0:0:0:
420,50,73330,1,8,0:0:0:0:
420,50,73380,1,8,0:0:0:0:
420,50,73480,1,0,0:0:0:0:
418,63,73680,1,0,0:0:0:0:
417,58,73780,1,8,0:0:0:0:
417,53,73930,1,0,0:0:0:0:
416,53,73980,1,0,0:0:0:0:
416,53,74080,1,8,0:0:0:0:
416,49,74180,1,0,0:0:0:0:
420,50,74280,1,0,0:0:0:0:
420,50,74380,1,8,0:0:0:0:
413,56,74455,1,0,0:0:0:0:
413,56,74530,1,8,0:0:0:0:
411,51,74605,1,0,0:0:0:0:
411,51,74680,1,8,0:0:0:0:
428,57,74755,1,8,0:0:0:0:
449,62,74830,1,0,0:0:0:0:
428,57,74905,1,0,0:0:0:0:
429,57,74980,1,8,0:0:0:0:
433,59,75080,1,0,0:0:0:0:
433,59,75180,1,0,0:0:0:0:
433,59,75280,1,8,0:0:0:0:
434,50,75380,1,8,0:0:0:0:
434,50,75480,1,0,0:0:0:0:
432,49,75580,1,8,0:0:0:0:
423,60,75680,1,0,0:0:0:0:
428,57,75730,1,0,0:0:0:0:
428,57,75780,1,0,0:0:0:0:
428,57,75880,1,8,0:0:0:0:
424,34,75980,1,0,0:0:0:0:
424,34,76030,1,0,0:0:0:0:
424,34,76080,1,0,0:0:0:0:
424,34,76130,1,0,0:0:0:0:
400,83,76780,1,8,0:0:0:0:
397,73,76855,1,0,0:0:0:0:
385,70,76930,1,0,0:0:0:0:
394,70,77005,1,0,0:0:0:0:
394,70,77080,1,8,0:0:0:0:
395,70,77155,1,0,0:0:0:0:
395,70,77230,1,0,0:0:0:0:
416,55,77305,1,0,0:0:0:0:
395,51,77380,1,8,0:0:0:0:
395,51,77455,1,0,0:0:0:0:
395,51,77530,1,0,0:0:0:0:
395,51,77605,1,0,0:0:0:0:
411,36,77680,1,8,0:0:0:0:
412,37,77755,1,0,0:0:0:0:
412,37,77830,1,0,0:0:0:0:
412,37,77905,1,0,0:0:0:0:
412,37,77980,1,8,0:0:0:0:
376,74,78055,1,0,0:0:0:0:
404,57,78130,1,0,0:0:0:0:
405,57,78205,1,8,0:0:0:0:
405,57,78280,1,0,0:0:0:0:
405,57,78355,1,0,0:0:0:0:
405,58,78430,1,8,0:0:0:0:
404,58,78505,1,0,0:0:0:0:
403,55,78580,1,0,0:0:0:0:
403,55,78655,1,8,0:0:0:0:
403,55,78730,1,0,0:0:0:0:
403,54,78805,1,0,0:0:0:0:
403,55,78880,1,8,0:0:0:0:
403,54,78955,1,0,0:0:0:0:
403,55,79030,1,8,0:0:0:0:
403,55,79105,1,0,0:0:0:0:
405,57,79180,1,8,0:0:0:0:
410,38,79255,1,8,0:0:0:0:
411,38,79330,1,0,0:0:0:0:
413,44,79405,1,0,0:0:0:0:
413,44,79480,1,8,0:0:0:0:
410,39,79555,1,0,0:0:0:0:
408,39,79630,1,0,0:0:0:0:
408,39,79705,1,0,0:0:0:0:
408,39,79780,1,8,0:0:0:0:
409,37,79855,1,8,0:0:0:0:
408,39,79930,1,0,0:0:0:0:
407,39,80005,1,0,0:0:0:0:
407,38,80080,1,8,0:0:0:0:
409,37,80155,1,0,0:0:0:0:
407,38,80230,1,0,0:0:0:0:
411,38,80305,1,0,0:0:0:0:
407,39,80380,1,8,0:0:0:0:
406,38,80455,1,8,0:0:0:0:
410,39,80530,1,0,0:0:0:0:
408,39,80605,1,0,0:0:0:0:
408,39,80680,1,8,0:0:0:0:
413,43,80755,1,8,0:0:0:0:
413,43,80830,1,0,0:0:0:0:
413,43,80905,1,0,0:0:0:0:
407,39,80980,1,8,0:0:0:0:
413,43,81055,1,8,0:0:0:0:
413,43,81130,1,0,0:0:0:0:
413,43,81205,1,0,0:0:0:0:
411,38,81280,1,8,0:0:0:0:
413,43,81355,1,8,0:0:0:0:
413,43,81430,1,0,0:0:0:0:
410,39,81505,1,0,0:0:0:0:
408,39,81580,1,8,0:0:0:0:
408,39,81655,1,8,0:0:0:0:
408,39,81730,1,8,0:0:0:0:
406,45,81805,1,8,0:0:0:0:
406,45,81880,1,0,0:0:0:0:
406,45,81955,1,0,0:0:0:0:
406,45,82030,1,0,0:0:0:0:
405,45,82105,1,0,0:0:0:0:
405,45,82180,1,8,0:0:0:0:
406,46,82255,1,0,0:0:0:0:
406,47,82330,1,8,0:0:0:0:
406,47,82405,1,8,0:0:0:0:
407,47,82480,1,0,0:0:0:0:
407,47,82555,1,8,0:0:0:0:
407,46,82630,1,0,0:0:0:0:
407,46,82705,1,8,0:0:0:0:
406,45,82780,1,0,0:0:0:0:
406,45,82855,1,0,0:0:0:0:
409,51,82930,1,8,0:0:0:0:
410,51,83005,1,8,0:0:0:0:
411,51,83080,1,0,0:0:0:0:
411,51,83155,1,8,0:0:0:0:
411,51,83230,1,0,0:0:0:0:
411,51,83305,1,0,0:0:0:0:
411,51,83380,1,8,0:0:0:0:
406,47,83455,1,0,0:0:0:0:
407,47,83530,1,8,0:0:0:0:
407,47,83605,1,0,0:0:0:0:
407,46,83680,1,8,0:0:0:0:
407,46,83755,1,8,0:0:0:0:
406,45,83830,1,0,0:0:0:0:
409,51,83905,1,8,0:0:0:0:
410,51,83980,1,0,0:0:0:0:
411,51,84055,1,0,0:0:0:0:
411,51,84130,1,8,0:0:0:0:
411,51,84205,1,0,0:0:0:0:
382,56,84280,1,8,0:0:0:0:
411,51,84355,1,0,0:0:0:0:
417,49,84430,1,0,0:0:0:0:
418,50,84505,1,8,0:0:0:0:
418,51,84580,1,0,0:0:0:0:
418,51,84655,1,8,0:0:0:0:
418,51,84730,1,0,0:0:0:0:
418,52,84805,1,0,0:0:0:0:
418,52,84880,1,8,0:0:0:0:
418,54,84955,1,8,0:0:0:0:
417,54,85030,1,0,0:0:0:0:
418,54,85105,1,0,0:0:0:0:
417,54,85180,1,8,0:0:0:0:
412,56,85480,1,8,0:0:0:0:
418,50,85517,1,8,0:0:0:0:
408,58,85630,1,8,0:0:0:0:
407,58,85667,1,8,0:0:0:0:
409,58,85780,1,0,0:0:0:0:
409,58,85855,1,0,0:0:0:0:
408,58,85930,1,0,0:0:0:0:
408,58,86005,1,0,0:0:0:0:
408,58,86080,1,0,0:0:0:0:
408,57,86230,1,0,0:0:0:0:
375,80,86380,1,8,0:0:0:0:
379,78,86455,1,0,0:0:0:0:
406,69,86530,1,0,0:0:0:0:
380,74,86605,1,0,0:0:0:0:
379,78,86680,1,8,0:0:0:0:
405,68,86830,1,0,0:0:0:0:
405,68,86905,1,0,0:0:0:0:
404,67,86980,1,8,0:0:0:0:
404,67,87130,1,8,0:0:0:0:
385,79,87280,1,0,0:0:0:0:
386,77,87355,1,8,0:0:0:0:
386,77,87430,1,0,0:0:0:0:
386,77,87505,1,0,0:0:0:0:
397,78,87580,1,8,0:0:0:0:
397,78,87655,1,0,0:0:0:0:
396,78,87730,1,0,0:0:0:0:
396,78,87805,1,0,0:0:0:0:
396,77,87880,1,8,0:0:0:0:
396,77,88030,1,0,0:0:0:0:
396,77,88105,1,0,0:0:0:0:
395,72,88180,1,8,0:0:0:0:
395,72,88330,1,8,0:0:0:0:
396,72,88480,1,0,0:0:0:0:
379,78,88630,1,0,0:0:0:0:
378,78,88780,1,8,0:0:0:0:
378,78,88855,1,8,0:0:0:0:
378,78,88930,1,0,0:0:0:0:
381,75,89005,1,0,0:0:0:0:
380,75,89080,1,8,0:0:0:0:
380,75,89230,1,0,0:0:0:0:
380,75,89305,1,0,0:0:0:0:
380,75,89380,1,8,0:0:0:0:
380,75,89530,1,8,0:0:0:0:
379,78,89680,1,0,0:0:0:0:
378,78,89755,1,8,0:0:0:0:
378,78,89830,1,8,0:0:0:0:
378,78,89905,1,0,0:0:0:0:
378,78,89980,1,8,0:0:0:0:
380,75,90130,1,0,0:0:0:0:
380,75,90205,1,8,0:0:0:0:
380,75,90280,1,8,0:0:0:0:
380,75,90430,1,0,0:0:0:0:
381,68,90505,1,0,0:0:0:0:
381,68,90580,1,8,0:0:0:0:
380,67,90730,1,8,0:0:0:0:
352,73,90805,1,8,0:0:0:0:
380,67,90880,1,0,0:0:0:0:
378,68,90955,1,0,0:0:0:0:
378,68,91030,1,0,0:0:0:0:
377,67,91180,1,8,0:0:0:0:
380,61,91255,1,0,0:0:0:0:
380,61,91330,1,0,0:0:0:0:
378,62,91405,1,0,0:0:0:0:
373,66,91480,1,8,0:0:0:0:
369,71,91630,1,0,0:0:0:0:
363,71,91705,1,0,0:0:0:0:
371,66,91780,1,8,0:0:0:0:
371,66,91930,1,8,0:0:0:0:
377,67,92080,1,0,0:0:0:0:
377,67,92155,1,0,0:0:0:0:
377,67,92230,1,8,0:0:0:0:
372,63,92305,1,0,0:0:0:0:
378,62,92380,1,8,0:0:0:0:
383,63,92455,1,8,0:0:0:0:
373,66,92530,1,0,0:0:0:0:
373,62,92605,1,0,0:0:0:0:
372,62,92680,1,8,0:0:0:0:
371,66,92830,1,0,0:0:0:0:
371,66,92905,1,8,0:0:0:0:
371,60,92980,1,8,0:0:0:0:
371,60,93055,1,0,0:0:0:0:
371,60,93130,1,8,0:0:0:0:
380,64,93280,1,0,0:0:0:0:
378,55,93355,1,8,0:0:0:0:
378,55,93430,1,0,0:0:0:0:
396,60,93580,1,8,0:0:0:0:
397,61,93655,1,8,0:0:0:0:
386,61,93730,1,0,0:0:0:0:
387,61,93805,1,0,0:0:0:0:
387,61,93880,1,8,0:0:0:0:
383,64,93955,1,0,0:0:0:0:
379,57,94030,1,0,0:0:0:0:
380,57,94105,1,0,0:0:0:0:
380,64,94180,1,8,0:0:0:0:
378,55,94330,1,8,0:0:0:0:
382,58,94480,1,0,0:0:0:0:
382,58,94555,1,8,0:0:0:0:
382,58,94630,1,0,0:0:0:0:
386,61,94705,1,8,0:0:0:0:
386,61,94780,1,0,0:0:0:0:
380,57,94855,1,0,0:0:0:0:
377,60,94930,1,8,0:0:0:0:
368,48,94980,1,0,0:0:0:0:
368,48,95030,1,0,0:0:0:0:
368,48,95080,1,8,0:0:0:0:
394,58,95230,1,0,0:0:0:0:
378,55,95280,1,0,0:0:0:0:
378,55,95330,1,8,0:0:0:0:
389,55,95380,1,8,0:0:0:0:
389,55,95530,1,8,0:0:0:0:
373,64,95680,1,8,0:0:0:0:
373,64,95830,1,8,0:0:0:0:
373,61,95980,1,0,0:0:0:0:
311,95,96280,1,8,0:0:0:0:
367,93,96880,1,8,0:0:0:0:
341,106,97480,1,8,0:0:0:0:
342,94,98080,1,8,0:0:0:0:
342,94,98380,1,0,0:0:0:0:
342,94,98680,1,8,0:0:0:0:
342,94,99280,1,8,0:0:0:0:
342,94,99880,1,8,0:0:0:0:
342,94,100480,1,8,0:0:0:0:
342,94,100780,1,0,0:0:0:0:
342,94,101080,1,8,0:0:0:0:
342,94,101680,1,8,0:0:0:0:
342,94,102280,1,8,0:0:0:0:
342,94,102880,1,8,0:0:0:0:
342,94,103180,1,0,0:0:0:0:
342,94,103480,1,8,0:0:0:0:
342,94,104080,1,8,0:0:0:0:
342,94,104380,1,0,0:0:0:0:
342,94,104680,1,8,0:0:0:0:
342,94,105280,1,8,0:0:0:0:
342,94,105580,1,0,0:0:0:0:
328,90,105880,1,8,0:0:0:0:
334,87,106480,1,8,0:0:0:0:
338,94,107080,1,8,0:0:0:0:
338,94,107680,1,8,0:0:0:0:
338,94,107980,1,0,0:0:0:0:
338,94,108280,1,8,0:0:0:0:
338,94,108880,1,8,0:0:0:0:
338,94,109480,1,8,0:0:0:0:
338,94,110080,1,8,0:0:0:0:
338,94,110380,1,0,0:0:0:0:
351,96,110680,1,8,0:0:0:0:
349,91,111280,1,8,0:0:0:0:
349,91,111880,1,8,0:0:0:0:
349,91,112480,1,8,0:0:0:0:
340,77,112780,1,0,0:0:0:0:
345,89,113980,1,0,0:0:0:0:
228,191,115780,2,0,L|281:181,52,42.0156083984691
355,85,129580,5,8,0:0:0:0:
361,100,129655,1,0,0:0:0:0:
370,92,129730,1,0,0:0:0:0:
351,101,129805,1,0,0:0:0:0:
370,92,129880,1,8,0:0:0:0:
369,91,129955,1,0,0:0:0:0:
368,90,130030,1,0,0:0:0:0:
369,91,130105,1,0,0:0:0:0:
368,89,130180,1,8,0:0:0:0:
368,89,130255,1,0,0:0:0:0:
368,89,130330,1,0,0:0:0:0:
367,89,130405,1,0,0:0:0:0:
368,89,130480,1,8,0:0:0:0:
366,89,130555,1,0,0:0:0:0:
366,89,130630,1,0,0:0:0:0:
370,92,130705,1,0,0:0:0:0:
368,89,130780,1,8,0:0:0:0:
370,92,130855,1,0,0:0:0:0:
369,91,130930,1,0,0:0:0:0:
368,90,131005,1,0,0:0:0:0:
368,90,131080,1,8,0:0:0:0:
368,89,131155,1,0,0:0:0:0:
368,89,131230,1,0,0:0:0:0:
368,89,131305,1,0,0:0:0:0:
368,89,131380,1,8,0:0:0:0:
367,89,131455,1,0,0:0:0:0:
366,89,131530,1,0,0:0:0:0:
366,89,131605,1,0,0:0:0:0:
368,89,131680,1,8,0:0:0:0:
370,92,131755,1,0,0:0:0:0:
370,92,131830,1,0,0:0:0:0:
370,92,131905,1,0,0:0:0:0:
368,90,131980,1,8,0:0:0:0:
368,90,132055,1,8,0:0:0:0:
368,90,132130,1,0,0:0:0:0:
368,89,132205,1,0,0:0:0:0:
368,89,132280,1,8,0:0:0:0:
368,89,132355,1,0,0:0:0:0:
368,89,132430,1,8,0:0:0:0:
367,75,132505,1,8,0:0:0:0:
366,89,132580,1,0,0:0:0:0:
368,89,132655,1,0,0:0:0:0:
368,75,132730,1,8,0:0:0:0:
361,83,132805,1,0,0:0:0:0:
370,92,132880,1,8,0:0:0:0:
368,90,132955,1,8,0:0:0:0:
368,90,133030,1,0,0:0:0:0:
368,90,133105,1,0,0:0:0:0:
368,90,133180,1,8,0:0:0:0:
359,80,133255,1,0,0:0:0:0:
360,80,133330,1,0,0:0:0:0:
361,80,133405,1,8,0:0:0:0:
368,89,133480,1,8,0:0:0:0:
361,81,133555,1,0,0:0:0:0:
368,89,133630,1,0,0:0:0:0:
361,81,133705,1,8,0:0:0:0:
373,88,133780,1,8,0:0:0:0:
374,81,133855,1,0,0:0:0:0:
378,84,133930,1,8,0:0:0:0:
378,84,134005,1,0,0:0:0:0:
368,90,134080,1,8,0:0:0:0:
377,84,134155,1,8,0:0:0:0:
376,84,134230,1,0,0:0:0:0:
376,84,134305,1,0,0:0:0:0:
377,84,134380,1,8,0:0:0:0:
368,89,134455,1,8,0:0:0:0:
368,89,134530,1,0,0:0:0:0:
368,89,134605,1,0,0:0:0:0:
361,90,134680,1,8,0:0:0:0:
361,90,134755,1,0,0:0:0:0:
361,91,134830,1,8,0:0:0:0:
361,91,134905,1,8,0:0:0:0:
368,91,134980,1,0,0:0:0:0:
368,90,135055,1,0,0:0:0:0:
368,91,135130,1,8,0:0:0:0:
368,91,135205,1,0,0:0:0:0:
368,90,135280,1,8,0:0:0:0:
368,90,135355,1,8,0:0:0:0:
368,89,135430,1,0,0:0:0:0:
368,89,135505,1,0,0:0:0:0:
368,89,135580,1,0,0:0:0:0:
361,90,135655,1,0,0:0:0:0:
361,90,135730,1,8,0:0:0:0:
361,91,135805,1,0,0:0:0:0:
361,91,135880,1,8,0:0:0:0:
361,91,135955,1,8,0:0:0:0:
358,88,136030,1,0,0:0:0:0:
358,88,136105,1,0,0:0:0:0:
359,88,136180,1,8,0:0:0:0:
359,88,136255,1,0,0:0:0:0:
362,85,136330,1,8,0:0:0:0:
360,89,136405,1,0,0:0:0:0:
368,89,136480,1,8,0:0:0:0:
369,71,136555,1,8,0:0:0:0:
365,72,136630,1,0,0:0:0:0:
366,70,136705,1,0,0:0:0:0:
367,73,136780,1,8,0:0:0:0:
369,71,136855,1,0,0:0:0:0:
367,73,136930,1,0,0:0:0:0:
369,67,137005,1,0,0:0:0:0:
369,67,137080,1,8,0:0:0:0:
369,67,137155,1,0,0:0:0:0:
369,67,137230,1,0,0:0:0:0:
369,67,137305,1,0,0:0:0:0:
369,67,137380,1,8,0:0:0:0:
369,67,137455,1,0,0:0:0:0:
369,67,137530,1,8,0:0:0:0:
369,67,137605,1,8,0:0:0:0:
361,61,137680,1,0,0:0:0:0:
365,62,137755,1,0,0:0:0:0:
365,62,137830,1,8,0:0:0:0:
365,62,137905,1,0,0:0:0:0:
365,62,137980,1,8,0:0:0:0:
369,67,138055,1,8,0:0:0:0:
372,60,138130,1,0,0:0:0:0:
372,60,138205,1,0,0:0:0:0:
372,60,138280,1,8,0:0:0:0:
370,49,138355,1,8,0:0:0:0:
370,49,138430,1,0,0:0:0:0:
372,60,138505,1,0,0:0:0:0:
372,60,138580,1,8,0:0:0:0:
372,60,138655,1,0,0:0:0:0:
360,52,138730,1,0,0:0:0:0:
360,52,138805,1,0,0:0:0:0:
374,59,138880,1,8,0:0:0:0:
360,52,138955,1,0,0:0:0:0:
360,52,139030,1,0,0:0:0:0:
360,52,139105,1,0,0:0:0:0:
360,52,139180,1,8,0:0:0:0:
370,49,139330,1,0,0:0:0:0:
370,49,139405,1,0,0:0:0:0:
365,47,139480,1,8,0:0:0:0:
364,44,139555,1,0,0:0:0:0:
364,44,139630,1,0,0:0:0:0:
364,44,139780,1,8,0:0:0:0:
363,42,139855,1,0,0:0:0:0:
363,42,140005,1,8,0:0:0:0:
363,42,140080,1,8,0:0:0:0:
363,42,140230,1,8,0:0:0:0:
363,42,140380,1,0,0:0:0:0:
364,44,140580,1,8,0:0:0:0:
364,44,140680,1,0,0:0:0:0:
369,48,140780,1,8,0:0:0:0:
367,50,140980,1,0,0:0:0:0:
377,46,141180,1,8,0:0:0:0:
360,52,141280,1,0,0:0:0:0:
369,49,141380,1,8,0:0:0:0:
369,49,141580,1,0,0:0:0:0:
339,77,141655,1,0,0:0:0:0:
362,65,141730,1,0,0:0:0:0:
362,65,141805,1,0,0:0:0:0:
362,65,141880,1,8,0:0:0:0:
371,58,142030,1,8,0:0:0:0:
371,58,142180,1,0,0:0:0:0:
370,58,142255,1,0,0:0:0:0:
370,58,142330,1,8,0:0:0:0:
370,58,142405,1,8,0:0:0:0:
370,58,142480,1,0,0:0:0:0:
370,58,142555,1,0,0:0:0:0:
370,58,142630,1,8,0:0:0:0:
369,58,142705,1,0,0:0:0:0:
368,57,142780,1,8,0:0:0:0:
379,53,142980,1,0,0:0:0:0:
370,47,143080,1,8,0:0:0:0:
379,53,143180,1,0,0:0:0:0:
374,49,143380,1,8,0:0:0:0:
374,49,143580,1,0,0:0:0:0:
374,49,143680,1,8,0:0:0:0:
374,49,143780,1,0,0:0:0:0:
379,53,143980,1,8,0:0:0:0:
365,55,144055,1,8,0:0:0:0:
379,53,144130,1,0,0:0:0:0:
379,53,144205,1,0,0:0:0:0:
379,55,144280,1,8,0:0:0:0:
379,55,144430,1,0,0:0:0:0:
379,55,144505,1,0,0:0:0:0:
379,55,144580,1,8,0:0:0:0:
380,54,144655,1,8,0:0:0:0:
380,54,144730,1,8,0:0:0:0:
380,55,144805,1,8,0:0:0:0:
379,53,144880,1,0,0:0:0:0:
379,53,144955,1,0,0:0:0:0:
375,57,145030,1,0,0:0:0:0:
379,53,145105,1,0,0:0:0:0:
379,53,145180,1,8,0:0:0:0:
379,55,145280,1,8,0:0:0:0:
379,55,145380,1,0,0:0:0:0:
375,62,145480,1,8,0:0:0:0:
376,62,145580,1,0,0:0:0:0:
380,54,145680,1,0,0:0:0:0:
378,47,145780,1,8,0:0:0:0:
379,53,145880,1,8,0:0:0:0:
379,53,145980,1,0,0:0:0:0:
379,53,146080,1,8,0:0:0:0:
362,44,146180,1,0,0:0:0:0:
389,45,146280,1,0,0:0:0:0:
386,45,146380,1,8,0:0:0:0:
383,50,146455,1,0,0:0:0:0:
383,44,146530,1,0,0:0:0:0:
383,50,146605,1,0,0:0:0:0:
383,44,146680,1,8,0:0:0:0:
386,39,146755,1,0,0:0:0:0:
386,39,146830,1,0,0:0:0:0:
386,39,146905,1,0,0:0:0:0:
383,44,146980,1,8,0:0:0:0:
382,43,147055,1,8,0:0:0:0:
386,39,147130,1,0,0:0:0:0:
386,40,147205,1,0,0:0:0:0:
389,45,147280,1,8,0:0:0:0:
386,45,147355,1,8,0:0:0:0:
390,45,147430,1,0,0:0:0:0:
390,45,147505,1,0,0:0:0:0:
390,45,147580,1,8,0:0:0:0:
380,46,147780,1,8,0:0:0:0:
383,44,147980,1,8,0:0:0:0:
380,46,148180,1,8,0:0:0:0:
386,45,148380,1,8,0:0:0:0:
380,40,148580,1,0,0:0:0:0:
384,37,148680,1,0,0:0:0:0:
384,37,148780,1,8,0:0:0:0:
396,50,148855,1,0,0:0:0:0:
396,50,148930,1,8,0:0:0:0:
383,44,149005,1,0,0:0:0:0:
396,50,149080,1,8,0:0:0:0:
396,50,149155,1,8,0:0:0:0:
391,55,149230,1,0,0:0:0:0:
391,55,149305,1,0,0:0:0:0:
390,55,149380,1,8,0:0:0:0:
390,55,149455,1,0,0:0:0:0:
390,55,149530,1,0,0:0:0:0:
390,55,149605,1,8,0:0:0:0:
390,55,149680,1,8,0:0:0:0:
396,49,149755,1,0,0:0:0:0:
396,49,149830,1,8,0:0:0:0:
396,50,149905,1,8,0:0:0:0:
396,49,149980,1,0,0:0:0:0:
397,49,150055,1,0,0:0:0:0:
396,50,150130,1,8,0:0:0:0:
396,50,150205,1,0,0:0:0:0:
396,49,150280,1,8,0:0:0:0:
399,46,150355,1,0,0:0:0:0:
399,46,150430,1,0,0:0:0:0:
399,46,150505,1,0,0:0:0:0:
399,46,150580,1,8,0:0:0:0:
398,35,150655,1,8,0:0:0:0:
395,38,150730,1,0,0:0:0:0:
398,35,150805,1,8,0:0:0:0:
396,50,150880,1,8,0:0:0:0:
398,35,150955,1,0,0:0:0:0:
398,34,151030,1,0,0:0:0:0:
400,33,151105,1,8,0:0:0:0:
400,33,151180,1,0,0:0:0:0:
400,30,151255,1,8,0:0:0:0:
399,29,151330,1,0,0:0:0:0:
399,29,151405,1,0,0:0:0:0:
399,29,151480,1,8,0:0:0:0:
399,29,151555,1,8,0:0:0:0:
399,29,151630,1,0,0:0:0:0:
400,30,151705,1,8,0:0:0:0:
398,35,151780,1,0,0:0:0:0:
400,30,151855,1,0,0:0:0:0:
398,28,151930,1,8,0:0:0:0:
398,34,152005,1,0,0:0:0:0:
398,34,152080,1,8,0:0:0:0:
400,33,152155,1,0,0:0:0:0:
400,30,152230,1,0,0:0:0:0:
399,29,152305,1,0,0:0:0:0:
399,29,152380,1,8,0:0:0:0:
400,53,152455,1,0,0:0:0:0:
390,47,152530,1,0,0:0:0:0:
398,50,152605,1,8,0:0:0:0:
390,47,152680,1,8,0:0:0:0:
398,50,152755,1,0,0:0:0:0:
388,47,152830,1,0,0:0:0:0:
398,50,152905,1,8,0:0:0:0:
388,47,152980,1,8,0:0:0:0:
398,50,153055,1,0,0:0:0:0:
388,47,153130,1,0,0:0:0:0:
397,46,153205,1,8,0:0:0:0:
388,47,153280,1,8,0:0:0:0:
394,49,153355,1,0,0:0:0:0:
394,48,153430,1,8,0:0:0:0:
390,47,153505,1,8,0:0:0:0:
390,47,153580,1,0,0:0:0:0:
396,72,153655,1,0,0:0:0:0:
398,50,153730,1,8,0:0:0:0:
395,49,153805,1,0,0:0:0:0:
398,50,153880,1,8,0:0:0:0:
388,47,153955,1,0,0:0:0:0:
398,50,154030,1,0,0:0:0:0:
394,49,154105,1,0,0:0:0:0:
395,50,154180,1,8,0:0:0:0:
394,50,154255,1,0,0:0:0:0:
394,49,154330,1,0,0:0:0:0:
394,49,154405,1,8,0:0:0:0:
390,47,154480,1,8,0:0:0:0:
390,47,154555,1,0,0:0:0:0:
395,52,154630,1,8,0:0:0:0:
398,50,154705,1,8,0:0:0:0:
398,50,154780,1,0,0:0:0:0:
395,49,154855,1,0,0:0:0:0:
395,51,154930,1,8,0:0:0:0:
398,50,155005,1,0,0:0:0:0:
398,50,155080,1,8,0:0:0:0:
395,50,155155,1,8,0:0:0:0:
394,50,155230,1,0,0:0:0:0:
394,50,155305,1,0,0:0:0:0:
394,49,155380,1,8,0:0:0:0:
394,49,155455,1,0,0:0:0:0:
398,53,155530,1,8,0:0:0:0:
398,53,155605,1,0,0:0:0:0:
395,52,155680,1,8,0:0:0:0:
398,50,155755,1,8,0:0:0:0:
398,50,155830,1,0,0:0:0:0:
395,51,155905,1,0,0:0:0:0:
403,50,155980,1,8,0:0:0:0:
398,50,156055,1,0,0:0:0:0:
400,55,156130,1,0,0:0:0:0:
401,54,156205,1,0,0:0:0:0:
401,54,156280,1,8,0:0:0:0:
400,54,156355,1,0,0:0:0:0:
400,54,156430,1,8,0:0:0:0:
398,53,156505,1,0,0:0:0:0:
398,53,156580,1,8,0:0:0:0:
406,44,156655,1,0,0:0:0:0:
406,43,156730,1,0,0:0:0:0:
398,50,156805,1,0,0:0:0:0:
395,51,156880,1,8,0:0:0:0:
403,50,156955,1,0,0:0:0:0:
403,50,157030,1,8,0:0:0:0:
397,47,157105,1,0,0:0:0:0:
397,47,157180,1,8,0:0:0:0:
396,64,157330,1,0,0:0:0:0:
396,64,157367,1,0,0:0:0:0:
396,64,157480,1,8,0:0:0:0:
396,64,157630,1,0,0:0:0:0:
396,64,157667,1,0,0:0:0:0:
396,65,157780,1,8,0:0:0:0:
396,65,157930,1,0,0:0:0:0:
396,65,157967,1,0,0:0:0:0:
394,55,158080,1,8,0:0:0:0:
410,66,158230,1,0,0:0:0:0:
416,78,158267,1,0,0:0:0:0:
414,58,158380,1,8,0:0:0:0:
414,48,158530,1,0,0:0:0:0:
414,48,158605,1,8,0:0:0:0:
414,48,158680,1,0,0:0:0:0:
414,44,158755,1,0,0:0:0:0:
417,56,158830,1,8,0:0:0:0:
417,56,158905,1,0,0:0:0:0:
417,56,158980,1,8,0:0:0:0:
413,51,159055,1,0,0:0:0:0:
413,51,159130,1,8,0:0:0:0:
413,51,159205,1,0,0:0:0:0:
414,58,159280,1,8,0:0:0:0:
414,58,159355,1,0,0:0:0:0:
416,56,159430,1,8,0:0:0:0:
409,50,159505,1,0,0:0:0:0:
414,48,159580,1,0,0:0:0:0:
414,48,159655,1,0,0:0:0:0:
414,44,159730,1,8,0:0:0:0:
414,44,159805,1,8,0:0:0:0:
413,44,159880,1,0,0:0:0:0:
414,38,159955,1,8,0:0:0:0:
414,38,160030,1,0,0:0:0:0:
411,43,160105,1,0,0:0:0:0:
416,40,160180,1,8,0:0:0:0:
415,39,160255,1,0,0:0:0:0:
416,40,160330,1,8,0:0:0:0:
416,40,160405,1,8,0:0:0:0:
412,33,160480,1,0,0:0:0:0:
412,37,160555,1,0,0:0:0:0:
411,34,160630,1,8,0:0:0:0:
414,44,160705,1,8,0:0:0:0:
411,34,160780,1,0,0:0:0:0:
413,44,160855,1,8,0:0:0:0:
414,38,160930,1,0,0:0:0:0:
414,38,161005,1,0,0:0:0:0:
411,43,161080,1,8,0:0:0:0:
389,35,161155,1,0,0:0:0:0:
390,36,161230,1,8,0:0:0:0:
390,35,161305,1,8,0:0:0:0:
429,52,161380,1,0,0:0:0:0:
418,56,161455,1,0,0:0:0:0:
397,52,161530,1,8,0:0:0:0:
397,52,161605,1,8,0:0:0:0:
397,52,161680,1,0,0:0:0:0:
397,53,161755,1,8,0:0:0:0:
397,53,161830,1,0,0:0:0:0:
397,53,161905,1,0,0:0:0:0:
397,53,161980,1,8,0:0:0:0:
397,53,162055,1,0,0:0:0:0:
397,53,162130,1,0,0:0:0:0:
397,53,162205,1,0,0:0:0:0:
397,53,162280,1,8,0:0:0:0:
391,66,162355,1,0,0:0:0:0:
391,66,162430,1,8,0:0:0:0:
391,66,162505,1,8,0:0:0:0:
391,66,162580,1,0,0:0:0:0:
391,66,162655,1,0,0:0:0:0:
391,67,162730,1,8,0:0:0:0:
391,67,162805,1,0,0:0:0:0:
391,67,162880,1,8,0:0:0:0:
391,67,162955,1,8,0:0:0:0:
391,67,163030,1,0,0:0:0:0:
391,67,163105,1,0,0:0:0:0:
391,67,163180,1,8,0:0:0:0:
399,68,163330,1,0,0:0:0:0:
399,68,163405,1,0,0:0:0:0:
399,65,163480,1,8,0:0:0:0:
398,64,163555,1,8,0:0:0:0:
399,65,163630,1,0,0:0:0:0:
399,66,163705,1,0,0:0:0:0:
399,66,163780,1,8,0:0:0:0:
400,65,163855,1,0,0:0:0:0:
399,65,163930,1,0,0:0:0:0:
400,64,164005,1,0,0:0:0:0:
397,61,164080,1,8,0:0:0:0:
397,61,164155,1,0,0:0:0:0:
397,60,164230,1,8,0:0:0:0:
395,58,164305,1,8,0:0:0:0:
395,58,164380,1,0,0:0:0:0:
395,58,164455,1,0,0:0:0:0:
396,57,164530,1,8,0:0:0:0:
396,57,164605,1,0,0:0:0:0:
396,57,164680,1,8,0:0:0:0:
396,57,164755,1,0,0:0:0:0:
396,57,164830,1,0,0:0:0:0:
396,57,164905,1,0,0:0:0:0:
396,57,164980,1,8,0:0:0:0:
400,64,165055,1,8,0:0:0:0:
397,61,165130,1,0,0:0:0:0:
397,60,165205,1,0,0:0:0:0:
397,60,165280,1,8,0:0:0:0:
395,58,165355,1,0,0:0:0:0:
395,58,165430,1,0,0:0:0:0:
396,57,165505,1,0,0:0:0:0:
396,57,165580,1,8,0:0:0:0:
389,41,165655,1,8,0:0:0:0:
391,64,165730,1,0,0:0:0:0:
391,63,165805,1,0,0:0:0:0:
389,47,165880,1,8,0:0:0:0:
391,49,165955,1,0,0:0:0:0:
391,49,166030,1,8,0:0:0:0:
391,49,166105,1,0,0:0:0:0:
391,49,166180,1,8,0:0:0:0:
391,48,166255,1,8,0:0:0:0:
391,47,166330,1,0,0:0:0:0:
391,47,166405,1,0,0:0:0:0:
391,47,166480,1,8,0:0:0:0:
391,48,166555,1,0,0:0:0:0:
391,47,166630,1,8,0:0:0:0:
391,48,166705,1,0,0:0:0:0:
391,49,166780,1,8,0:0:0:0:
402,38,166930,1,0,0:0:0:0:
384,66,166967,1,0,0:0:0:0:
385,63,167080,1,8,0:0:0:0:
385,62,167230,1,0,0:0:0:0:
385,62,167267,1,0,0:0:0:0:
385,62,167380,1,8,0:0:0:0:
384,61,167530,1,0,0:0:0:0:
384,61,167567,1,0,0:0:0:0:
339,90,167980,1,0,0:0:0:0:
339,90,168280,1,0,0:0:0:0:
339,90,168580,1,0,0:0:0:0:
339,90,168880,1,0,0:0:0:0:
339,90,169180,1,0,0:0:0:0:
339,90,169480,1,0,0:0:0:0:
339,90,169780,1,0,0:0:0:0:
339,90,170080,1,0,0:0:0:0:
339,90,170380,1,0,0:0:0:0:
339,90,170680,1,0,0:0:0:0:
339,90,170980,1,0,0:0:0:0:
339,90,171280,1,0,0:0:0:0:
339,90,171580,1,0,0:0:0:0:
339,90,171880,1,0,0:0:0:0:
339,90,172180,1,0,0:0:0:0:
339,90,172480,1,0,0:0:0:0:
339,90,172780,1,0,0:0:0:0:
327,107,173080,1,0,0:0:0:0:
327,107,173380,1,0,0:0:0:0:
327,107,173680,1,0,0:0:0:0:
327,107,173980,1,0,0:0:0:0:
327,107,174280,1,0,0:0:0:0:
327,107,174580,1,0,0:0:0:0:
327,107,174880,1,0,0:0:0:0:
327,107,175180,1,0,0:0:0:0:
327,107,175480,1,0,0:0:0:0:
327,107,175780,1,0,0:0:0:0:
327,107,176080,1,0,0:0:0:0:
327,107,176380,1,0,0:0:0:0:
327,107,176680,1,0,0:0:0:0:
327,107,176980,1,0,0:0:0:0:
327,107,177280,1,0,0:0:0:0:
327,107,177580,1,0,0:0:0:0:
327,107,177880,1,0,0:0:0:0:
331,91,178180,1,8,0:0:0:0:
327,107,178480,1,0,0:0:0:0:
339,93,178680,1,8,0:0:0:0:
327,107,178780,1,0,0:0:0:0:
328,70,178980,1,8,0:0:0:0:
331,91,179080,1,0,0:0:0:0:
328,73,179380,1,8,0:0:0:0:
327,85,179680,1,0,0:0:0:0:
328,70,179880,1,8,0:0:0:0:
331,91,179980,1,0,0:0:0:0:
327,85,180280,1,0,0:0:0:0:
328,73,180580,1,8,0:0:0:0:
331,91,180880,1,0,0:0:0:0:
328,73,181080,1,8,0:0:0:0:
327,85,181180,1,0,0:0:0:0:
328,73,181380,1,8,0:0:0:0:
327,85,181480,1,0,0:0:0:0:
328,73,181780,1,8,0:0:0:0:
327,85,182080,1,0,0:0:0:0:
328,73,182280,1,0,0:0:0:0:
327,85,182380,1,0,0:0:0:0:
331,91,182680,1,0,0:0:0:0:
328,73,182980,1,8,0:0:0:0:
327,85,183280,1,0,0:0:0:0:
327,73,183480,1,8,0:0:0:0:
331,91,183580,1,0,0:0:0:0:
328,73,183780,1,8,0:0:0:0:
327,85,183880,1,0,0:0:0:0:
327,73,184180,1,8,0:0:0:0:
331,91,184480,1,0,0:0:0:0:
328,73,184680,1,8,0:0:0:0:
327,85,184780,1,0,0:0:0:0:
327,85,185080,1,0,0:0:0:0:
333,68,185380,1,8,0:0:0:0:
327,85,185680,1,0,0:0:0:0:
333,68,185880,1,8,0:0:0:0:
327,85,185980,1,0,0:0:0:0:
333,68,186180,1,8,0:0:0:0:
331,91,186280,1,0,0:0:0:0:
333,68,186580,1,8,0:0:0:0:
327,85,186880,1,0,0:0:0:0:
331,91,187180,1,0,0:0:0:0:
332,70,187780,1,8,0:0:0:0:
332,70,188280,1,8,0:0:0:0:
332,70,188580,1,8,0:0:0:0:
332,70,188980,1,8,0:0:0:0:
332,70,189480,1,8,0:0:0:0:
332,70,189580,1,0,0:0:0:0:
332,70,190180,1,8,0:0:0:0:
332,70,190680,1,8,0:0:0:0:
340,59,190980,1,8,0:0:0:0:
332,70,191380,1,8,0:0:0:0:
329,67,191980,1,0,0:0:0:0:
329,67,192580,1,8,0:0:0:0:
329,67,193080,1,8,0:0:0:0:
329,67,193380,1,8,0:0:0:0:
329,67,193780,1,8,0:0:0:0:
331,52,194280,1,8,0:0:0:0:
334,72,194980,1,8,0:0:0:0:
334,72,195480,1,8,0:0:0:0:
334,72,195780,1,8,0:0:0:0:
334,72,196180,1,8,0:0:0:0:
339,63,196780,1,0,0:0:0:0:
352,152,199180,1,0,0:0:0:0:
366,136,201580,1,0,0:0:0:0:
309,114,206380,5,0,0:0:0:0:
82,245,211180,1,0,0:0:0:0:
377,256,215980,1,0,0:0:0:0:
105,97,220780,1,0,0:0:0:0:
352,164,225580,1,0,0:0:0:0:
132,256,230380,1,0,0:0:0:0:
361,102,235180,1,0,0:0:0:0:
280,329,239980,1,0,0:0:0:0:
373,124,249580,5,8,0:0:0:0:
373,124,250180,1,8,0:0:0:0:
373,124,250780,1,8,0:0:0:0:
373,124,251380,1,8,0:0:0:0:
373,124,251980,1,8,0:0:0:0:
373,124,252580,1,8,0:0:0:0:
373,124,253180,1,8,0:0:0:0:
373,124,253780,1,8,0:0:0:0:
373,124,254380,1,8,0:0:0:0:
373,124,254980,1,8,0:0:0:0:
373,124,255580,1,8,0:0:0:0:
373,124,256180,1,8,0:0:0:0:
349,107,256780,1,8,0:0:0:0:
349,107,257380,1,8,0:0:0:0:
349,107,257980,1,8,0:0:0:0:
349,107,258580,1,8,0:0:0:0:
349,107,259180,1,8,0:0:0:0:
349,107,259780,1,8,0:0:0:0:
349,107,260380,1,8,0:0:0:0:
357,113,260980,1,8,0:0:0:0:
357,113,261580,1,0,0:0:0:0:
256,192,261655,12,0,262180,0:0:0:0:
360,104,263980,5,8,0:0:0:0:
332,104,264055,1,0,0:0:0:0:
360,103,264130,1,0,0:0:0:0:
360,103,264205,1,0,0:0:0:0:
360,104,264280,1,8,0:0:0:0:
360,104,264355,1,0,0:0:0:0:
360,104,264430,1,0,0:0:0:0:
360,104,264505,1,0,0:0:0:0:
360,104,264580,1,8,0:0:0:0:
360,104,264655,1,0,0:0:0:0:
360,104,264730,1,0,0:0:0:0:
360,104,264805,1,0,0:0:0:0:
360,104,264880,1,8,0:0:0:0:
360,104,264955,1,0,0:0:0:0:
359,103,265030,1,0,0:0:0:0:
359,103,265105,1,0,0:0:0:0:
360,103,265180,1,8,0:0:0:0:
360,104,265255,1,0,0:0:0:0:
360,104,265330,1,0,0:0:0:0:
360,104,265405,1,0,0:0:0:0:
360,104,265480,1,8,0:0:0:0:
360,104,265555,1,0,0:0:0:0:
360,104,265630,1,0,0:0:0:0:
360,104,265705,1,0,0:0:0:0:
360,104,265780,1,8,0:0:0:0:
360,104,265855,1,0,0:0:0:0:
360,104,265930,1,0,0:0:0:0:
360,104,266005,1,0,0:0:0:0:
360,103,266080,1,8,0:0:0:0:
360,103,266155,1,0,0:0:0:0:
360,104,266230,1,0,0:0:0:0:
360,104,266305,1,0,0:0:0:0:
360,104,266380,1,8,0:0:0:0:
360,104,266455,1,8,0:0:0:0:
360,104,266530,1,0,0:0:0:0:
360,104,266605,1,0,0:0:0:0:
360,104,266680,1,8,0:0:0:0:
360,104,266755,1,8,0:0:0:0:
360,104,266830,1,0,0:0:0:0:
360,104,266905,1,0,0:0:0:0:
360,104,266980,1,8,0:0:0:0:
360,104,267055,1,8,0:0:0:0:
360,104,267130,1,0,0:0:0:0:
360,104,267205,1,0,0:0:0:0:
360,104,267280,1,8,0:0:0:0:
360,104,267355,1,8,0:0:0:0:
360,104,267430,1,0,0:0:0:0:
360,104,267505,1,0,0:0:0:0:
360,104,267580,1,0,0:0:0:0:
360,104,267655,1,0,0:0:0:0:
360,104,267730,1,8,0:0:0:0:
360,104,267805,1,8,0:0:0:0:
360,104,267880,1,0,0:0:0:0:
360,104,267955,1,0,0:0:0:0:
360,104,268030,1,8,0:0:0:0:
360,104,268105,1,8,0:0:0:0:
360,104,268180,1,0,0:0:0:0:
360,104,268255,1,0,0:0:0:0:
360,104,268330,1,8,0:0:0:0:
360,104,268405,1,8,0:0:0:0:
360,104,268480,1,0,0:0:0:0:
360,104,268555,1,0,0:0:0:0:
360,104,268630,1,8,0:0:0:0:
354,95,268705,1,8,0:0:0:0:
366,99,268780,1,0,0:0:0:0:
354,95,268855,1,0,0:0:0:0:
354,95,268930,1,8,0:0:0:0:
367,98,269005,1,0,0:0:0:0:
354,95,269080,1,8,0:0:0:0:
354,95,269155,1,8,0:0:0:0:
355,95,269230,1,0,0:0:0:0:
355,95,269305,1,0,0:0:0:0:
349,97,269380,1,8,0:0:0:0:
349,97,269455,1,0,0:0:0:0:
349,97,269530,1,0,0:0:0:0:
349,97,269605,1,0,0:0:0:0:
349,98,269680,1,8,0:0:0:0:
349,98,269755,1,0,0:0:0:0:
349,98,269830,1,8,0:0:0:0:
354,95,269905,1,8,0:0:0:0:
379,101,269980,1,0,0:0:0:0:
378,98,270055,1,8,0:0:0:0:
367,90,270130,1,8,0:0:0:0:
366,89,270205,1,0,0:0:0:0:
366,89,270280,1,8,0:0:0:0:
365,89,270355,1,0,0:0:0:0:
366,89,270430,1,0,0:0:0:0:
365,89,270505,1,0,0:0:0:0:
365,89,270580,1,8,0:0:0:0:
372,94,270655,1,0,0:0:0:0:
372,94,270730,1,0,0:0:0:0:
372,94,270805,1,8,0:0:0:0:
372,94,270880,1,8,0:0:0:0:
372,94,270955,1,0,0:0:0:0:
378,98,271030,1,8,0:0:0:0:
372,94,271105,1,0,0:0:0:0:
335,105,271180,1,0,0:0:0:0:
326,86,271255,1,8,0:0:0:0:
354,95,271330,1,0,0:0:0:0:
355,95,271405,1,0,0:0:0:0:
355,95,271480,1,8,0:0:0:0:
339,102,271555,1,8,0:0:0:0:
339,102,271630,1,0,0:0:0:0:
339,102,271705,1,0,0:0:0:0:
340,103,271780,1,8,0:0:0:0:
355,94,271855,1,0,0:0:0:0:
355,94,271930,1,0,0:0:0:0:
338,106,272005,1,0,0:0:0:0:
335,106,272080,1,8,0:0:0:0:
335,105,272155,1,0,0:0:0:0:
335,106,272230,1,0,0:0:0:0:
335,106,272305,1,8,0:0:0:0:
350,88,272380,1,0,0:0:0:0:
348,91,272455,1,8,0:0:0:0:
348,91,272530,1,0,0:0:0:0:
348,91,272605,1,0,0:0:0:0:
348,92,272680,1,8,0:0:0:0:
348,92,272755,1,0,0:0:0:0:
348,92,272830,1,0,0:0:0:0:
355,94,272905,1,0,0:0:0:0:
348,93,272980,1,8,0:0:0:0:
343,90,273055,1,0,0:0:0:0:
349,94,273130,1,0,0:0:0:0:
343,90,273205,1,8,0:0:0:0:
347,92,273280,1,8,0:0:0:0:
340,90,273355,1,0,0:0:0:0:
339,90,273430,1,0,0:0:0:0:
348,91,273505,1,8,0:0:0:0:
335,94,273580,1,0,0:0:0:0:
384,109,273655,1,0,0:0:0:0:
326,94,273730,1,8,0:0:0:0:
354,85,273805,1,8,0:0:0:0:
354,85,273880,1,0,0:0:0:0:
354,85,273955,1,8,0:0:0:0:
354,85,274030,1,0,0:0:0:0:
354,84,274105,1,0,0:0:0:0:
354,84,274180,1,8,0:0:0:0:
352,84,274255,1,0,0:0:0:0:
352,85,274330,1,0,0:0:0:0:
352,85,274405,1,0,0:0:0:0:
352,85,274480,1,8,0:0:0:0:
352,85,274555,1,0,0:0:0:0:
352,85,274630,1,8,0:0:0:0:
351,84,274705,1,0,0:0:0:0:
354,85,274780,1,0,0:0:0:0:
354,85,274855,1,0,0:0:0:0:
354,85,274930,1,8,0:0:0:0:
354,85,275005,1,0,0:0:0:0:
354,84,275080,1,8,0:0:0:0:
354,84,275155,1,0,0:0:0:0:
352,84,275230,1,0,0:0:0:0:
352,85,275305,1,0,0:0:0:0:
352,85,275380,1,8,0:0:0:0:
352,85,275455,1,0,0:0:0:0:
352,85,275530,1,0,0:0:0:0:
352,85,275605,1,8,0:0:0:0:
351,84,275680,1,0,0:0:0:0:
354,85,275755,1,8,0:0:0:0:
354,85,275830,1,8,0:0:0:0:
354,85,275905,1,0,0:0:0:0:
354,85,275980,1,0,0:0:0:0:
354,84,276055,1,8,0:0:0:0:
354,84,276130,1,0,0:0:0:0:
352,84,276205,1,0,0:0:0:0:
352,84,276280,1,8,0:0:0:0:
352,85,276355,1,8,0:0:0:0:
352,85,276430,1,0,0:0:0:0:
352,85,276505,1,0,0:0:0:0:
135,63,276580,1,8,0:0:0:0:
351,84,276655,1,0,0:0:0:0:
354,85,276730,1,8,0:0:0:0:
354,85,276805,1,8,0:0:0:0:
347,80,276880,1,0,0:0:0:0:
346,79,276955,1,0,0:0:0:0:
346,79,277030,1,8,0:0:0:0:
345,79,277105,1,0,0:0:0:0:
351,71,277180,1,0,0:0:0:0:
353,71,277255,1,0,0:0:0:0:
354,71,277330,1,8,0:0:0:0:
355,72,277405,1,0,0:0:0:0:
355,72,277480,1,0,0:0:0:0:
355,72,277555,1,8,0:0:0:0:
355,72,277630,1,8,0:0:0:0:
355,72,277705,1,0,0:0:0:0:
355,72,277780,1,8,0:0:0:0:
359,69,277855,1,0,0:0:0:0:
359,69,277930,1,0,0:0:0:0:
357,69,278005,1,8,0:0:0:0:
357,69,278080,1,8,0:0:0:0:
357,69,278155,1,0,0:0:0:0:
353,71,278230,1,0,0:0:0:0:
354,71,278305,1,8,0:0:0:0:
355,72,278380,1,0,0:0:0:0:
351,81,278455,1,8,0:0:0:0:
351,81,278530,1,8,0:0:0:0:
352,81,278605,1,0,0:0:0:0:
355,72,278680,1,8,0:0:0:0:
355,72,278755,1,0,0:0:0:0:
359,69,278830,1,0,0:0:0:0:
359,69,278905,1,0,0:0:0:0:
357,69,278980,1,8,0:0:0:0:
357,69,279055,1,0,0:0:0:0:
357,69,279130,1,0,0:0:0:0:
353,71,279205,1,8,0:0:0:0:
354,71,279280,1,0,0:0:0:0:
354,71,279355,1,8,0:0:0:0:
346,72,279430,1,8,0:0:0:0:
346,72,279505,1,0,0:0:0:0:
347,73,279580,1,8,0:0:0:0:
345,72,279655,1,0,0:0:0:0:
345,72,279730,1,8,0:0:0:0:
345,72,279805,1,8,0:0:0:0:
345,72,279880,1,0,0:0:0:0:
345,73,279955,1,8,0:0:0:0:
345,73,280030,1,0,0:0:0:0:
345,73,280105,1,0,0:0:0:0:
345,73,280180,1,8,0:0:0:0:
345,73,280255,1,0,0:0:0:0:
345,73,280330,1,0,0:0:0:0:
346,72,280405,1,0,0:0:0:0:
346,72,280480,1,8,0:0:0:0:
347,73,280555,1,0,0:0:0:0:
345,72,280630,1,8,0:0:0:0:
345,72,280705,1,8,0:0:0:0:
345,72,280780,1,0,0:0:0:0:
345,72,280855,1,0,0:0:0:0:
345,73,280930,1,8,0:0:0:0:
345,73,281005,1,0,0:0:0:0:
345,73,281080,1,8,0:0:0:0:
345,73,281155,1,0,0:0:0:0:
345,73,281230,1,0,0:0:0:0:
345,73,281305,1,0,0:0:0:0:
346,72,281380,1,8,0:0:0:0:
346,72,281455,1,8,0:0:0:0:
347,73,281530,1,0,0:0:0:0:
345,72,281605,1,0,0:0:0:0:
339,61,281680,1,8,0:0:0:0:
339,61,281755,1,0,0:0:0:0:
339,60,281830,1,8,0:0:0:0:
339,60,281905,1,8,0:0:0:0:
339,60,281980,1,0,0:0:0:0:
345,73,282280,1,0,0:0:0:0:
345,72,282580,1,0,0:0:0:0:
349,73,282730,1,0,0:0:0:0:
349,73,282880,1,0,0:0:0:0:
349,73,282955,1,0,0:0:0:0:
345,73,283030,1,0,0:0:0:0:
345,73,283105,1,0,0:0:0:0:
345,73,283180,1,8,0:0:0:0:
356,67,283255,1,8,0:0:0:0:
357,77,283330,1,0,0:0:0:0:
357,77,283405,1,0,0:0:0:0:
356,77,283480,1,8,0:0:0:0:
357,77,283555,1,0,0:0:0:0:
358,77,283630,1,0,0:0:0:0:
357,76,283705,1,0,0:0:0:0:
357,77,283780,1,8,0:0:0:0:
357,77,283855,1,0,0:0:0:0:
357,77,283930,1,8,0:0:0:0:
357,77,284005,1,8,0:0:0:0:
354,80,284080,1,0,0:0:0:0:
352,79,284155,1,0,0:0:0:0:
352,79,284230,1,8,0:0:0:0:
357,77,284305,1,0,0:0:0:0:
357,77,284380,1,8,0:0:0:0:
356,77,284455,1,8,0:0:0:0:
357,77,284530,1,0,0:0:0:0:
350,81,284605,1,0,0:0:0:0:
350,81,284680,1,8,0:0:0:0:
350,81,284755,1,0,0:0:0:0:
350,81,284830,1,0,0:0:0:0:
350,81,284905,1,0,0:0:0:0:
349,80,284980,1,8,0:0:0:0:
344,75,285055,1,8,0:0:0:0:
345,75,285130,1,0,0:0:0:0:
352,79,285205,1,0,0:0:0:0:
346,75,285280,1,8,0:0:0:0:
346,75,285430,1,0,0:0:0:0:
346,75,285467,1,0,0:0:0:0:
350,81,285580,1,8,0:0:0:0:
366,82,285655,1,0,0:0:0:0:
366,71,285730,1,0,0:0:0:0:
366,71,285805,1,0,0:0:0:0:
360,72,285880,1,8,0:0:0:0:
358,74,285955,1,0,0:0:0:0:
357,74,286030,1,8,0:0:0:0:
357,73,286105,1,0,0:0:0:0:
357,74,286180,1,8,0:0:0:0:
354,60,286255,1,0,0:0:0:0:
351,58,286330,1,0,0:0:0:0:
350,58,286405,1,0,0:0:0:0:
349,55,286480,1,8,0:0:0:0:
353,66,286555,1,0,0:0:0:0:
352,66,286630,1,8,0:0:0:0:
353,65,286705,1,8,0:0:0:0:
353,65,286780,1,0,0:0:0:0:
353,65,286855,1,0,0:0:0:0:
353,64,286930,1,8,0:0:0:0:
353,64,287005,1,8,0:0:0:0:
353,64,287080,1,0,0:0:0:0:
353,64,287155,1,8,0:0:0:0:
354,60,287230,1,0,0:0:0:0:
351,58,287305,1,0,0:0:0:0:
351,58,287380,1,8,0:0:0:0:
353,66,287530,1,0,0:0:0:0:
352,66,287605,1,8,0:0:0:0:
352,66,287680,1,0,0:0:0:0:
353,65,287830,1,8,0:0:0:0:
353,64,287905,1,0,0:0:0:0:
353,64,287980,1,8,0:0:0:0:
372,68,288030,1,8,0:0:0:0:
372,67,288080,1,0,0:0:0:0:
372,67,288130,1,0,0:0:0:0:
351,58,288280,1,8,0:0:0:0:
365,51,288355,1,8,0:0:0:0:
363,51,288430,1,0,0:0:0:0:
365,51,288505,1,0,0:0:0:0:
364,55,288580,1,8,0:0:0:0:
361,54,288730,1,0,0:0:0:0:
361,54,288805,1,0,0:0:0:0:
361,54,288880,1,8,0:0:0:0:
361,54,288955,1,8,0:0:0:0:
351,51,289030,1,0,0:0:0:0:
359,52,289105,1,0,0:0:0:0:
360,54,289180,1,8,0:0:0:0:
351,58,289255,1,0,0:0:0:0:
355,55,289330,1,8,0:0:0:0:
353,56,289405,1,0,0:0:0:0:
353,57,289480,1,8,0:0:0:0:
353,57,289555,1,8,0:0:0:0:
353,56,289630,1,0,0:0:0:0:
354,56,289705,1,0,0:0:0:0:
352,55,289780,1,8,0:0:0:0:
351,58,289855,1,0,0:0:0:0:
361,54,289930,1,8,0:0:0:0:
351,58,290005,1,0,0:0:0:0:
352,58,290080,1,8,0:0:0:0:
372,57,290230,1,0,0:0:0:0:
424,57,290267,1,0,0:0:0:0:
357,71,290380,1,8,0:0:0:0:
365,56,290530,1,0,0:0:0:0:
367,55,290605,1,0,0:0:0:0:
367,55,290680,1,8,0:0:0:0:
368,52,290755,1,0,0:0:0:0:
368,52,290830,1,0,0:0:0:0:
376,35,290905,1,0,0:0:0:0:
369,52,290980,1,8,0:0:0:0:
369,48,291055,1,0,0:0:0:0:
368,36,291130,1,8,0:0:0:0:
367,27,291205,1,0,0:0:0:0:
373,34,291280,1,0,0:0:0:0:
374,34,291355,1,0,0:0:0:0:
373,34,291430,1,8,0:0:0:0:
374,34,291505,1,8,0:0:0:0:
374,34,291580,1,0,0:0:0:0:
373,32,291730,1,8,0:0:0:0:
373,32,291767,1,8,0:0:0:0:
376,35,291880,1,0,0:0:0:0:
369,28,292030,1,8,0:0:0:0:
369,28,292067,1,8,0:0:0:0:
382,26,292180,1,0,0:0:0:0:
382,26,292255,1,0,0:0:0:0:
368,29,292330,1,0,0:0:0:0:
373,34,292405,1,0,0:0:0:0:
374,34,292480,1,0,0:0:0:0:
374,34,292630,1,0,0:0:0:0:
373,32,292780,1,8,0:0:0:0:
376,35,292855,1,0,0:0:0:0:
374,33,292930,1,0,0:0:0:0:
375,33,293005,1,0,0:0:0:0:
375,33,293080,1,8,0:0:0:0:
363,58,293155,1,0,0:0:0:0:
374,35,293230,1,0,0:0:0:0:
371,42,293305,1,0,0:0:0:0:
364,48,293380,1,8,0:0:0:0:
359,48,293455,1,8,0:0:0:0:
358,48,293530,1,0,0:0:0:0:
354,48,293605,1,0,0:0:0:0:
352,46,293680,1,8,0:0:0:0:
352,46,293755,1,0,0:0:0:0:
352,46,293830,1,8,0:0:0:0:
348,43,293905,1,0,0:0:0:0:
351,46,293980,1,8,0:0:0:0:
377,43,294080,1,8,0:0:0:0:
377,44,294180,1,0,0:0:0:0:
377,44,294280,1,8,0:0:0:0:
377,44,294380,1,0,0:0:0:0:
377,44,294480,1,0,0:0:0:0:
377,44,294580,1,8,0:0:0:0:
377,44,294680,1,8,0:0:0:0:
377,44,294780,1,0,0:0:0:0:
377,44,294880,1,8,0:0:0:0:
377,44,294980,1,0,0:0:0:0:
356,49,295080,1,0,0:0:0:0:
356,49,295180,1,8,0:0:0:0:
386,52,295255,1,8,0:0:0:0:
386,52,295330,1,0,0:0:0:0:
386,52,295405,1,0,0:0:0:0:
384,51,295480,1,8,0:0:0:0:
385,52,295555,1,0,0:0:0:0:
385,51,295630,1,8,0:0:0:0:
388,49,295705,1,0,0:0:0:0:
385,51,295780,1,8,0:0:0:0:
377,44,295855,1,8,0:0:0:0:
377,44,295930,1,0,0:0:0:0:
377,44,296005,1,0,0:0:0:0:
385,46,296080,1,8,0:0:0:0:
384,45,296155,1,0,0:0:0:0:
384,45,296230,1,8,0:0:0:0:
384,45,296305,1,0,0:0:0:0:
417,49,296380,1,8,0:0:0:0:
417,49,296480,1,0,0:0:0:0:
417,49,296580,1,0,0:0:0:0:
417,49,296680,1,8,0:0:0:0:
417,49,296780,1,0,0:0:0:0:
416,49,296880,1,0,0:0:0:0:
407,47,296980,1,8,0:0:0:0:
407,47,297080,1,0,0:0:0:0:
407,47,297180,1,0,0:0:0:0:
407,47,297280,1,8,0:0:0:0:
407,47,297380,1,0,0:0:0:0:
407,47,297480,1,0,0:0:0:0:
416,41,297580,1,8,0:0:0:0:
417,49,297655,1,0,0:0:0:0:
417,49,297730,1,0,0:0:0:0:
417,49,297805,1,0,0:0:0:0:
416,49,297880,1,8,0:0:0:0:
418,45,297955,1,0,0:0:0:0:
418,45,298030,1,8,0:0:0:0:
418,45,298105,1,0,0:0:0:0:
418,45,298180,1,8,0:0:0:0:
418,45,298255,1,0,0:0:0:0:
418,40,298330,1,0,0:0:0:0:
418,39,298405,1,0,0:0:0:0:
418,40,298480,1,8,0:0:0:0:
416,41,298555,1,0,0:0:0:0:
418,40,298630,1,8,0:0:0:0:
416,36,298705,1,0,0:0:0:0:
416,36,298780,1,8,0:0:0:0:
410,39,298880,1,0,0:0:0:0:
412,34,298980,1,8,0:0:0:0:
412,34,299080,1,0,0:0:0:0:
428,47,299180,1,8,0:0:0:0:
428,47,299280,1,0,0:0:0:0:
429,47,299380,1,8,0:0:0:0:
429,47,299480,1,0,0:0:0:0:
429,47,299580,1,8,0:0:0:0:
429,47,299680,1,0,0:0:0:0:
429,47,299780,1,8,0:0:0:0:
429,47,299880,1,0,0:0:0:0:
418,46,299980,1,8,0:0:0:0:
431,56,300055,1,8,0:0:0:0:
429,57,300130,1,0,0:0:0:0:
429,57,300205,1,0,0:0:0:0:
428,57,300280,1,8,0:0:0:0:
428,57,300355,1,8,0:0:0:0:
428,57,300430,1,0,0:0:0:0:
428,57,300505,1,0,0:0:0:0:
430,55,300580,1,8,0:0:0:0:
435,59,300655,1,0,0:0:0:0:
435,58,300730,1,8,0:0:0:0:
435,59,300805,1,8,0:0:0:0:
435,60,300880,1,0,0:0:0:0:
435,60,300955,1,0,0:0:0:0:
431,56,301030,1,8,0:0:0:0:
412,23,301105,1,8,0:0:0:0:
406,61,301180,1,0,0:0:0:0:
406,61,301380,1,0,0:0:0:0:
406,61,301580,1,0,0:0:0:0:
406,61,301780,1,0,0:0:0:0:
426,78,301980,1,0,0:0:0:0:
426,78,302180,1,0,0:0:0:0:
427,78,302380,1,0,0:0:0:0:
416,79,302455,1,0,0:0:0:0:
454,80,302530,1,0,0:0:0:0:
446,81,302605,1,0,0:0:0:0:
435,81,302680,1,0,0:0:0:0:
397,83,302830,1,0,0:0:0:0:
426,78,302980,1,8,0:0:0:0:
403,79,303130,1,0,0:0:0:0:
435,81,303280,1,0,0:0:0:0:
435,81,303430,1,8,0:0:0:0:
430,73,303580,1,0,0:0:0:0:
426,78,303730,1,8,0:0:0:0:
426,78,303880,1,0,0:0:0:0:
404,94,304030,1,0,0:0:0:0:
430,72,304180,1,8,0:0:0:0:
428,72,304330,1,8,0:0:0:0:
430,73,304480,1,8,0:0:0:0:
426,78,304630,1,8,0:0:0:0:
426,78,304780,1,0,0:0:0:0:
405,93,304855,1,0,0:0:0:0:
405,93,304930,1,0,0:0:0:0:
404,94,305005,1,0,0:0:0:0:
430,72,305080,1,0,0:0:0:0:
428,72,305230,1,0,0:0:0:0:
428,72,305380,1,8,0:0:0:0:
430,73,305530,1,0,0:0:0:0:
426,78,305680,1,0,0:0:0:0:
430,72,305830,1,8,0:0:0:0:
430,72,305980,1,0,0:0:0:0:
430,72,306130,1,8,0:0:0:0:
428,72,306205,1,8,0:0:0:0:
428,72,306280,1,0,0:0:0:0:
426,66,306430,1,0,0:0:0:0:
424,65,306505,1,0,0:0:0:0:
423,64,306580,1,8,0:0:0:0:
417,68,306730,1,0,0:0:0:0:
417,68,306805,1,0,0:0:0:0:
417,68,306880,1,0,0:0:0:0:
416,71,307030,1,8,0:0:0:0:
416,71,307105,1,8,0:0:0:0:
416,71,307180,1,0,0:0:0:0:
428,72,307255,1,0,0:0:0:0:
428,72,307330,1,0,0:0:0:0:
426,66,307405,1,0,0:0:0:0:
416,71,307480,1,0,0:0:0:0:
425,71,307630,1,0,0:0:0:0:
417,68,307780,1,8,0:0:0:0:
425,71,307930,1,0,0:0:0:0:
416,71,308080,1,0,0:0:0:0:
416,71,308230,1,8,0:0:0:0:
416,71,308380,1,0,0:0:0:0:
416,71,308530,1,8,0:0:0:0:
417,68,308680,1,0,0:0:0:0:
416,71,308830,1,0,0:0:0:0:
416,71,308980,1,8,0:0:0:0:
416,71,309130,1,8,0:0:0:0:
416,71,309280,1,8,0:0:0:0:
416,71,309430,1,8,0:0:0:0:
416,71,309580,1,0,0:0:0:0:
390,90,309730,1,8,0:0:0:0:
389,89,309767,1,8,0:0:0:0:
416,71,309880,1,0,0:0:0:0:
429,77,310030,1,8,0:0:0:0:
405,62,310067,1,8,0:0:0:0:
423,74,310180,1,8,0:0:0:0:
423,74,310217,1,8,0:0:0:0:
444,63,310330,1,0,0:0:0:0:
444,63,310367,1,0,0:0:0:0:
445,66,310480,1,8,0:0:0:0:
444,65,310517,1,8,0:0:0:0:
444,65,310630,1,8,0:0:0:0:
444,65,310667,1,8,0:0:0:0:
445,65,310780,1,0,0:0:0:0:
416,71,310855,1,0,0:0:0:0:
416,72,310930,1,0,0:0:0:0:
416,72,311005,1,0,0:0:0:0:
416,72,311080,1,8,0:0:0:0:
423,74,311155,1,8,0:0:0:0:
423,74,311230,1,0,0:0:0:0:
416,72,311305,1,0,0:0:0:0:
338,63,311980,1,0,0:0:0:0:
378,51,312180,1,0,0:0:0:0:
378,51,312280,1,8,0:0:0:0:
363,72,312480,1,0,0:0:0:0:
362,71,312580,1,8,0:0:0:0:
345,57,312780,1,8,0:0:0:0:
352,52,312880,1,0,0:0:0:0:
381,64,312955,1,0,0:0:0:0:
381,65,313030,1,8,0:0:0:0:
381,65,313105,1,0,0:0:0:0:
381,62,313180,1,0,0:0:0:0:
362,80,313330,1,8,0:0:0:0:
383,52,313380,1,8,0:0:0:0:
383,45,313480,1,0,0:0:0:0:
383,45,313680,1,0,0:0:0:0:
383,45,313780,1,8,0:0:0:0:
396,58,313930,1,0,0:0:0:0:
380,44,313980,1,8,0:0:0:0:
380,52,314080,1,0,0:0:0:0:
380,52,314180,1,8,0:0:0:0:
367,46,314280,1,8,0:0:0:0:
383,52,314380,1,0,0:0:0:0:
383,45,314580,1,0,0:0:0:0:
383,45,314680,1,8,0:0:0:0:
388,49,314880,1,0,0:0:0:0:
388,49,314980,1,8,0:0:0:0:
386,44,315180,1,8,0:0:0:0:
383,42,315280,1,0,0:0:0:0:
407,45,315355,1,0,0:0:0:0:
400,45,315430,1,8,0:0:0:0:
397,46,315505,1,8,0:0:0:0:
397,47,315580,1,0,0:0:0:0:
388,37,315730,1,8,0:0:0:0:
387,37,315805,1,8,0:0:0:0:
388,37,315880,1,0,0:0:0:0:
389,36,316030,1,0,0:0:0:0:
389,36,316180,1,8,0:0:0:0:
386,37,316330,1,8,0:0:0:0:
395,65,316405,1,8,0:0:0:0:
403,27,316480,1,0,0:0:0:0:
397,47,316580,1,8,0:0:0:0:
397,45,316680,1,8,0:0:0:0:
