osu file format v14

[General]
AudioFilename: MandoPony - The Show Must Go On - 01 The Show Must Go On.mp3
AudioLeadIn: 0
PreviewTime: 51443
Countdown: 1
SampleSet: Soft
StackLeniency: 0.7
Mode: 1
LetterboxInBreaks: 1
WidescreenStoryboard: 0

[Editor]
DistanceSpacing: 1
BeatDivisor: 3
GridSize: 4
TimelineZoom: 1.2

[Metadata]
Title:The Show Must Go On
TitleUnicode:The Show Must Go On
Artist:MandoPony
ArtistUnicode:MandoPony
Creator:Eeneehaww30PH
Version:Taiko Night 5
Source:Five Nights At Freddy's 2
Tags:FiveNightsAtFreddy's2 Mandopony FiveNightsatFreddy'smandopony FNAF FNAF2 fnaf fnaf2
BeatmapID:671024
BeatmapSetID:299068

[Difficulty]
HPDrainRate:7
CircleSize:5
OverallDifficulty:6
ApproachRate:5
SliderMultiplier:1.4
SliderTickRate:1

[Events]
//Background and Video events
0,0,"download.jpg",0,0
Video,-708,"-The Show Must Go On- - Five Nights at Freddy's ROCK SONG by MandoPony.avi"
//Break Periods
//Storyboard Layer 0 (Background)
//Storyboard Layer 1 (Fail)
//Storyboard Layer 2 (Pass)
//Storyboard Layer 3 (Foreground)
//Storyboard Sound Samples

[TimingPoints]
586,397.324680484736,4,2,1,100,1,0
586,-133.333333333333,4,2,1,100,0,0
11711,-99.9999999999999,4,2,1,100,0,0
13300,-90.9090909090909,4,2,1,100,0,1
13399,-90.9090909090909,4,2,1,100,0,0
26014,-111.111111111111,4,2,1,100,0,0
50516,-90.9090909090909,4,2,1,100,0,0
51443,-83.3333333333333,4,2,1,100,0,1
63760,-83.3333333333333,4,2,1,100,0,0
64155,-83.3333333333333,4,2,1,100,0,1
76875,-90.9090909090909,4,2,1,100,0,0
87997,-100,4,2,1,100,0,0
113426,-90.9090909090909,4,2,1,100,0,0
115015,-83.3333333333333,4,2,1,100,0,1
127332,-83.3333333333333,4,2,1,100,0,0
127729,-83.3333333333333,4,2,1,100,0,1
139649,-90.9090909090909,4,2,1,100,0,1
140444,-100,4,2,1,100,0,0
189315,-111.111111111111,4,2,1,100,0,0
191301,-133.333333333333,4,2,1,100,0,0
202294,-111.111111111111,4,2,1,100,0,1
203751,-100,4,2,1,100,0,0
204016,-100,4,2,1,100,0,1
204016,-90.9090909090909,4,2,1,100,0,1
215803,-90.9090909090909,4,2,1,100,0,0
216730,-83.3333333333333,4,2,1,100,0,1
232623,-100,4,2,1,100,0,0

[HitObjects]
212,120,586,5,0,0:0:0:0:
252,72,983,1,0,0:0:0:0:
252,72,1380,1,8,0:0:0:0:
252,72,1777,1,0,0:0:0:0:
252,72,2175,1,0,0:0:0:0:
252,72,2572,1,0,0:0:0:0:
252,72,2969,1,8,0:0:0:0:
84,176,3764,1,0,0:0:0:0:
84,176,4161,1,0,0:0:0:0:
84,176,4559,1,8,0:0:0:0:
84,176,4956,1,0,0:0:0:0:
200,176,5353,1,8,0:0:0:0:
200,176,5618,1,0,0:0:0:0:
200,176,5883,1,8,0:0:0:0:
200,176,6148,1,8,0:0:0:0:
176,104,6943,1,8,0:0:0:0:
176,104,7340,1,0,0:0:0:0:
176,104,7737,1,8,0:0:0:0:
176,104,8135,1,0,0:0:0:0:
176,104,8532,1,0,0:0:0:0:
176,104,8797,1,8,0:0:0:0:
280,152,9062,1,0,0:0:0:0:
176,104,9327,1,8,0:0:0:0:
256,184,10121,1,0,0:0:0:0:
256,184,10519,1,0,0:0:0:0:
256,184,10916,1,8,0:0:0:0:
256,184,11313,1,0,0:0:0:0:
220,144,11711,1,8,0:0:0:0:
220,144,11843,1,0,0:0:0:0:
220,144,11975,1,0,0:0:0:0:
220,144,12108,1,8,0:0:0:0:
220,144,12240,1,0,0:0:0:0:
200,144,12373,1,0,0:0:0:0:
200,144,12505,1,8,0:0:0:0:
356,112,12903,1,12,0:0:0:0:
160,184,13300,1,0,0:0:0:0:
172,148,13565,1,8,0:0:0:0:
172,148,13697,1,0,0:0:0:0:
24,112,13962,1,0,0:0:0:0:
24,112,14095,1,8,0:0:0:0:
24,112,14492,1,8,0:0:0:0:
80,56,14889,1,0,0:0:0:0:
80,56,15154,1,8,0:0:0:0:
80,56,15287,1,0,0:0:0:0:
80,56,15551,1,8,0:0:0:0:
80,56,15684,1,0,0:0:0:0:
372,184,16081,1,8,0:0:0:0:
160,184,16478,1,0,0:0:0:0:
172,148,16743,1,8,0:0:0:0:
172,148,16875,1,0,0:0:0:0:
24,112,17141,1,0,0:0:0:0:
24,112,17273,1,8,0:0:0:0:
24,112,17670,1,8,0:0:0:0:
80,56,18067,1,0,0:0:0:0:
80,56,18333,1,8,0:0:0:0:
80,56,18465,1,0,0:0:0:0:
80,56,18730,1,8,0:0:0:0:
80,56,18862,1,0,0:0:0:0:
204,168,18995,1,0,0:0:0:0:
204,168,19127,1,0,0:0:0:0:
232,112,19260,1,8,0:0:0:0:
288,300,19392,1,0,0:0:0:0:
288,300,19525,1,0,0:0:0:0:
160,184,19657,1,0,0:0:0:0:
172,148,19922,1,8,0:0:0:0:
172,148,20054,1,0,0:0:0:0:
24,112,20319,1,0,0:0:0:0:
24,112,20452,1,8,0:0:0:0:
24,112,20849,1,8,0:0:0:0:
80,56,21246,1,0,0:0:0:0:
80,56,21511,1,8,0:0:0:0:
80,56,21644,1,0,0:0:0:0:
80,56,21909,1,8,0:0:0:0:
80,56,22041,1,0,0:0:0:0:
260,72,22438,1,8,0:0:0:0:
260,72,22703,1,8,0:0:0:0:
160,184,22836,1,0,0:0:0:0:
172,148,23101,1,8,0:0:0:0:
172,148,23233,1,0,0:0:0:0:
24,112,23498,1,8,0:0:0:0:
24,112,23630,1,0,0:0:0:0:
168,260,23763,1,0,0:0:0:0:
284,204,23895,1,0,0:0:0:0:
24,112,24028,1,8,0:0:0:0:
80,56,24425,1,0,0:0:0:0:
80,56,24690,1,8,0:0:0:0:
80,56,24823,1,0,0:0:0:0:
80,56,25087,1,8,0:0:0:0:
80,56,25220,1,0,0:0:0:0:
224,116,25352,1,0,0:0:0:0:
224,116,25485,1,0,0:0:0:0:
256,104,25617,1,8,0:0:0:0:
96,212,26014,1,0,0:0:0:0:
96,212,26279,1,0,0:0:0:0:
96,212,26411,1,8,0:0:0:0:
124,108,26809,1,0,0:0:0:0:
124,108,27074,1,0,0:0:0:0:
124,108,27206,1,8,0:0:0:0:
196,112,27604,1,0,0:0:0:0:
196,112,27868,1,0,0:0:0:0:
196,112,28001,1,8,0:0:0:0:
196,112,28266,1,0,0:0:0:0:
196,112,28398,1,8,0:0:0:0:
196,112,28663,1,8,0:0:0:0:
180,104,29060,1,8,0:0:0:0:
180,56,29590,1,8,0:0:0:0:
180,56,29988,1,0,0:0:0:0:
180,56,30385,1,8,0:0:0:0:
180,56,30782,1,0,0:0:0:0:
180,56,31180,1,8,0:0:0:0:
180,56,31444,1,8,0:0:0:0:
180,56,31577,1,0,0:0:0:0:
308,160,31842,1,0,0:0:0:0:
180,56,31974,1,8,0:0:0:0:
180,56,32239,1,0,0:0:0:0:
176,188,32371,1,0,0:0:0:0:
84,96,32636,1,0,0:0:0:0:
84,96,32769,1,8,0:0:0:0:
84,96,33166,1,0,0:0:0:0:
84,96,33431,1,0,0:0:0:0:
84,96,33563,1,8,0:0:0:0:
160,108,33961,1,0,0:0:0:0:
160,108,34226,1,0,0:0:0:0:
160,108,34358,1,8,0:0:0:0:
160,108,34623,1,8,0:0:0:0:
160,108,34755,1,0,0:0:0:0:
160,108,35020,1,8,0:0:0:0:
112,96,35418,1,8,0:0:0:0:
240,80,35947,1,8,0:0:0:0:
196,160,36345,1,0,0:0:0:0:
196,160,36742,1,8,0:0:0:0:
196,160,37139,1,0,0:0:0:0:
196,160,37537,1,8,0:0:0:0:
196,160,37802,1,0,0:0:0:0:
160,120,38199,1,0,0:0:0:0:
160,120,38331,1,8,0:0:0:0:
160,120,38596,1,0,0:0:0:0:
172,92,38729,1,0,0:0:0:0:
336,116,39126,1,0,0:0:0:0:
336,116,39391,1,0,0:0:0:0:
336,116,39524,1,8,0:0:0:0:
92,84,39921,1,0,0:0:0:0:
92,84,40186,1,0,0:0:0:0:
92,84,40318,1,8,0:0:0:0:
92,84,40583,1,8,0:0:0:0:
92,84,40715,1,0,0:0:0:0:
92,84,40980,1,0,0:0:0:0:
92,84,41113,1,8,0:0:0:0:
92,84,41378,1,8,0:0:0:0:
32,124,41775,1,8,0:0:0:0:
156,120,42305,1,8,0:0:0:0:
156,120,42702,1,0,0:0:0:0:
156,120,43099,1,8,0:0:0:0:
156,120,43497,1,0,0:0:0:0:
156,120,43894,1,8,0:0:0:0:
264,148,44159,1,0,0:0:0:0:
264,148,44556,1,0,0:0:0:0:
264,148,44689,1,8,0:0:0:0:
264,148,44953,1,0,0:0:0:0:
264,148,45086,1,0,0:0:0:0:
264,148,45351,1,0,0:0:0:0:
104,120,45483,1,8,0:0:0:0:
184,76,45881,1,8,0:0:0:0:
184,76,46145,1,0,0:0:0:0:
160,76,46543,1,8,0:0:0:0:
160,76,46940,1,0,0:0:0:0:
200,168,47072,1,0,0:0:0:0:
200,168,47337,1,8,0:0:0:0:
200,168,47470,1,0,0:0:0:0:
200,168,47735,1,8,0:0:0:0:
200,168,47867,1,0,0:0:0:0:
200,168,48132,1,8,0:0:0:0:
200,168,48264,1,0,0:0:0:0:
200,168,48529,1,0,0:0:0:0:
200,168,48662,1,8,0:0:0:0:
148,112,48927,1,8,0:0:0:0:
148,112,49324,1,0,0:0:0:0:
148,112,49721,1,8,0:0:0:0:
148,112,50119,1,8,0:0:0:0:
148,112,50252,1,0,0:0:0:0:
148,112,50516,1,8,0:0:0:0:
264,272,50648,1,0,0:0:0:0:
264,272,50781,1,0,0:0:0:0:
224,80,50913,1,0,0:0:0:0:
148,112,51046,1,8,0:0:0:0:
168,164,51178,1,8,0:0:0:0:
168,164,51311,1,8,0:0:0:0:
276,164,51443,1,0,0:0:0:0:
92,192,51840,1,0,0:0:0:0:
92,192,52105,1,0,0:0:0:0:
92,192,52238,1,8,0:0:0:0:
92,192,52503,1,0,0:0:0:0:
92,192,52635,1,8,0:0:0:0:
308,96,52767,1,8,0:0:0:0:
92,192,52900,1,8,0:0:0:0:
92,192,53032,1,0,0:0:0:0:
92,192,53430,1,8,0:0:0:0:
176,164,53827,1,0,0:0:0:0:
176,164,54092,1,8,0:0:0:0:
176,164,54489,1,0,0:0:0:0:
280,220,54622,1,0,0:0:0:0:
280,220,54887,1,0,0:0:0:0:
280,220,55019,1,0,0:0:0:0:
280,220,55284,1,0,0:0:0:0:
280,220,55416,1,8,0:0:0:0:
280,220,55681,1,8,0:0:0:0:
280,220,55814,1,0,0:0:0:0:
204,56,56079,1,0,0:0:0:0:
204,56,56211,1,8,0:0:0:0:
204,56,56476,1,8,0:0:0:0:
204,56,56608,1,0,0:0:0:0:
204,56,56873,1,0,0:0:0:0:
204,56,57006,1,8,0:0:0:0:
204,56,57138,1,0,0:0:0:0:
204,56,57270,1,0,0:0:0:0:
204,56,57403,1,8,0:0:0:0:
96,60,57800,1,4,0:0:0:0:
176,292,58065,1,0,0:0:0:0:
176,292,58198,1,8,0:0:0:0:
192,304,58330,1,0,0:0:0:0:
192,304,58462,1,0,0:0:0:0:
192,304,58595,1,8,0:0:0:0:
164,156,58860,1,8,0:0:0:0:
164,156,58992,1,8,0:0:0:0:
164,156,59257,1,8,0:0:0:0:
164,156,59390,1,0,0:0:0:0:
152,84,59654,1,8,0:0:0:0:
148,92,59787,1,0,0:0:0:0:
232,200,59919,1,8,0:0:0:0:
272,124,60052,1,0,0:0:0:0:
272,124,60184,1,8,0:0:0:0:
216,48,60449,1,8,0:0:0:0:
216,48,60582,1,0,0:0:0:0:
216,48,60846,1,8,0:0:0:0:
216,48,60979,1,0,0:0:0:0:
216,52,61111,1,0,0:0:0:0:
216,52,61244,1,0,0:0:0:0:
216,52,61376,1,8,0:0:0:0:
152,152,61641,1,8,0:0:0:0:
136,100,61774,1,0,0:0:0:0:
136,100,61906,1,0,0:0:0:0:
136,100,62038,1,8,0:0:0:0:
136,100,62171,1,8,0:0:0:0:
152,152,62436,1,8,0:0:0:0:
52,120,62568,1,0,0:0:0:0:
52,120,62701,1,8,0:0:0:0:
52,120,62833,1,0,0:0:0:0:
52,120,62965,1,8,0:0:0:0:
184,132,63363,1,8,0:0:0:0:
184,132,63495,1,8,0:0:0:0:
184,132,63628,1,0,0:0:0:0:
184,132,63760,1,8,0:0:0:0:
184,132,63893,1,8,0:0:0:0:
184,132,64025,1,8,0:0:0:0:
184,132,64157,1,0,0:0:0:0:
144,104,64422,1,0,0:0:0:0:
144,104,64555,1,8,0:0:0:0:
144,104,64820,1,0,0:0:0:0:
144,104,64952,1,0,0:0:0:0:
144,104,65217,1,0,0:0:0:0:
144,104,65349,1,8,0:0:0:0:
144,104,65482,1,8,0:0:0:0:
144,104,65614,1,8,0:0:0:0:
496,208,65747,1,0,0:0:0:0:
496,208,66012,1,8,0:0:0:0:
496,208,66144,1,0,0:0:0:0:
496,208,66409,1,8,0:0:0:0:
496,208,66541,1,0,0:0:0:0:
152,156,66806,5,8,0:0:0:0:
152,156,66939,1,0,0:0:0:0:
152,156,67071,1,8,0:0:0:0:
152,156,67336,1,0,0:0:0:0:
152,156,67468,1,0,0:0:0:0:
152,156,67601,1,0,0:0:0:0:
152,156,67733,1,8,0:0:0:0:
120,80,67998,1,8,0:0:0:0:
120,80,68131,1,0,0:0:0:0:
120,80,68263,1,0,0:0:0:0:
120,80,68396,1,0,0:0:0:0:
120,80,68528,1,8,0:0:0:0:
152,176,68793,1,0,0:0:0:0:
152,176,68925,1,8,0:0:0:0:
152,176,69058,1,0,0:0:0:0:
152,176,69190,1,8,0:0:0:0:
152,176,69323,1,0,0:0:0:0:
152,176,69455,1,8,0:0:0:0:
152,176,69588,1,0,0:0:0:0:
152,176,69720,1,8,0:0:0:0:
152,176,69852,1,0,0:0:0:0:
152,176,69985,1,8,0:0:0:0:
152,176,70117,1,8,0:0:0:0:
152,176,70250,1,8,0:0:0:0:
152,176,70382,1,8,0:0:0:0:
152,176,70515,1,0,0:0:0:0:
144,136,70912,5,8,0:0:0:0:
144,136,71177,1,8,0:0:0:0:
144,136,71309,1,8,0:0:0:0:
128,160,71574,1,8,0:0:0:0:
128,160,71707,1,0,0:0:0:0:
240,136,71972,1,8,0:0:0:0:
104,128,72104,1,8,0:0:0:0:
88,136,72369,1,8,0:0:0:0:
88,136,72501,1,0,0:0:0:0:
376,232,72634,1,8,0:0:0:0:
88,136,72766,1,8,0:0:0:0:
88,136,72899,1,8,0:0:0:0:
276,76,73163,1,8,0:0:0:0:
88,136,73296,1,0,0:0:0:0:
200,88,73428,1,8,0:0:0:0:
128,168,73561,1,8,0:0:0:0:
128,168,73693,1,0,0:0:0:0:
312,168,74091,1,12,0:0:0:0:
312,168,74488,1,0,0:0:0:0:
312,168,74885,1,12,0:0:0:0:
312,168,75283,1,0,0:0:0:0:
312,168,75680,1,12,0:0:0:0:
352,136,76077,1,8,0:0:0:0:
352,136,76210,1,8,0:0:0:0:
352,136,76342,1,0,0:0:0:0:
352,136,76475,1,8,0:0:0:0:
308,232,76607,1,8,0:0:0:0:
112,168,76739,1,0,0:0:0:0:
216,172,76872,1,0,0:0:0:0:
308,232,77269,1,8,0:0:0:0:
308,232,78064,1,8,0:0:0:0:
308,232,78329,1,8,0:0:0:0:
308,232,78461,1,8,0:0:0:0:
308,232,78858,1,8,0:0:0:0:
308,232,79521,1,8,0:0:0:0:
308,232,79653,1,8,0:0:0:0:
216,160,80050,1,8,0:0:0:0:
216,160,80448,1,8,0:0:0:0:
176,148,81242,1,8,0:0:0:0:
176,148,81507,1,8,0:0:0:0:
176,148,82037,5,8,0:0:0:0:
176,148,82699,1,8,0:0:0:0:
176,148,82832,1,8,0:0:0:0:
220,184,83229,5,0,0:0:0:0:
220,184,83626,1,0,0:0:0:0:
220,184,83891,1,0,0:0:0:0:
220,184,84024,1,8,0:0:0:0:
220,184,84289,1,8,0:0:0:0:
220,184,84421,1,0,0:0:0:0:
220,184,84818,1,0,0:0:0:0:
220,184,85216,1,0,0:0:0:0:
220,184,85480,1,8,0:0:0:0:
220,184,85612,1,0,0:0:0:0:
220,184,85877,1,0,0:0:0:0:
220,184,86010,1,0,0:0:0:0:
208,196,86408,1,0,0:0:0:0:
208,196,86805,1,0,0:0:0:0:
208,196,87070,1,0,0:0:0:0:
208,196,87203,1,8,0:0:0:0:
208,196,87468,1,8,0:0:0:0:
208,196,87600,1,0,0:0:0:0:
284,172,87997,5,8,0:0:0:0:
284,172,88394,1,8,0:0:0:0:
164,220,88659,5,0,0:0:0:0:
164,220,88792,1,0,0:0:0:0:
164,220,88924,1,8,0:0:0:0:
164,220,89057,1,0,0:0:0:0:
164,220,89189,1,8,0:0:0:0:
84,128,89586,1,4,0:0:0:0:
84,128,89984,1,0,0:0:0:0:
348,288,90248,1,0,0:0:0:0:
84,128,90381,1,0,0:0:0:0:
84,128,90778,1,8,0:0:0:0:
368,192,91043,1,8,0:0:0:0:
176,88,91176,1,0,0:0:0:0:
176,152,91573,1,8,0:0:0:0:
208,192,91838,1,8,0:0:0:0:
136,120,91970,1,0,0:0:0:0:
136,120,92235,1,0,0:0:0:0:
136,120,92368,1,8,0:0:0:0:
416,152,92500,1,0,0:0:0:0:
208,76,92632,1,0,0:0:0:0:
208,76,92765,1,8,0:0:0:0:
192,48,93162,1,8,0:0:0:0:
244,216,93427,1,8,0:0:0:0:
192,48,93559,1,0,0:0:0:0:
192,48,93957,1,0,0:0:0:0:
484,272,94222,1,8,0:0:0:0:
192,48,94354,1,0,0:0:0:0:
192,48,94751,1,0,0:0:0:0:
164,96,95016,1,8,0:0:0:0:
164,96,95149,1,0,0:0:0:0:
296,196,95281,1,0,0:0:0:0:
164,96,95414,1,0,0:0:0:0:
164,96,95546,1,8,0:0:0:0:
124,132,95811,1,8,0:0:0:0:
124,132,95943,1,0,0:0:0:0:
124,132,96341,1,0,0:0:0:0:
328,312,96606,1,0,0:0:0:0:
124,132,96738,1,8,0:0:0:0:
124,132,97135,1,0,0:0:0:0:
376,200,97400,1,0,0:0:0:0:
180,96,97533,1,8,0:0:0:0:
180,96,97930,1,0,0:0:0:0:
136,188,98195,1,0,0:0:0:0:
136,188,98327,1,0,0:0:0:0:
136,188,98592,1,0,0:0:0:0:
136,188,98725,1,8,0:0:0:0:
136,188,98990,1,8,0:0:0:0:
136,188,99122,1,8,0:0:0:0:
136,188,99519,1,8,0:0:0:0:
268,120,99784,1,8,0:0:0:0:
136,188,99917,1,0,0:0:0:0:
136,188,100314,1,8,0:0:0:0:
328,88,100579,1,0,0:0:0:0:
136,188,100711,1,8,0:0:0:0:
280,244,100844,1,0,0:0:0:0:
280,244,100976,1,8,0:0:0:0:
196,76,101109,1,0,0:0:0:0:
196,76,101374,1,0,0:0:0:0:
196,76,101506,1,8,0:0:0:0:
88,88,101638,1,0,0:0:0:0:
88,88,101771,1,8,0:0:0:0:
88,88,101903,1,0,0:0:0:0:
172,136,102036,1,0,0:0:0:0:
172,136,102168,1,8,0:0:0:0:
172,136,102301,1,0,0:0:0:0:
196,152,102698,1,8,0:0:0:0:
196,152,103095,1,0,0:0:0:0:
196,152,103360,1,8,0:0:0:0:
328,140,103493,1,0,0:0:0:0:
196,152,103757,1,0,0:0:0:0:
312,136,103890,1,8,0:0:0:0:
216,160,104287,1,0,0:0:0:0:
216,160,104685,1,8,0:0:0:0:
192,156,104949,1,0,0:0:0:0:
312,136,105082,1,8,0:0:0:0:
308,124,105347,1,0,0:0:0:0:
160,184,105479,1,0,0:0:0:0:
308,124,105877,1,8,0:0:0:0:
308,124,106141,1,8,0:0:0:0:
308,124,106274,1,0,0:0:0:0:
396,216,106671,1,8,0:0:0:0:
148,184,106936,1,0,0:0:0:0:
148,184,107069,1,0,0:0:0:0:
152,88,107333,1,0,0:0:0:0:
148,184,107466,1,8,0:0:0:0:
272,168,107731,1,0,0:0:0:0:
148,184,107863,1,0,0:0:0:0:
184,176,108128,1,0,0:0:0:0:
248,168,108260,1,8,0:0:0:0:
196,128,108525,1,0,0:0:0:0:
56,112,108658,1,0,0:0:0:0:
56,112,109055,1,8,0:0:0:0:
56,112,109452,1,8,0:0:0:0:
56,112,109850,1,8,0:0:0:0:
56,112,110247,1,8,0:0:0:0:
104,140,110644,1,8,0:0:0:0:
104,140,111042,1,0,0:0:0:0:
368,108,111307,1,8,0:0:0:0:
256,164,111439,1,0,0:0:0:0:
312,72,111704,1,8,0:0:0:0:
256,164,111836,1,0,0:0:0:0:
256,164,112234,1,8,0:0:0:0:
256,164,112631,1,8,0:0:0:0:
256,164,113028,1,8,0:0:0:0:
120,96,113426,1,8,0:0:0:0:
228,216,113558,1,0,0:0:0:0:
228,216,113691,1,0,0:0:0:0:
120,96,113823,1,8,0:0:0:0:
228,216,113955,1,0,0:0:0:0:
228,216,114088,1,0,0:0:0:0:
120,96,114220,1,8,0:0:0:0:
228,216,114353,1,0,0:0:0:0:
140,112,114485,1,0,0:0:0:0:
140,112,114618,1,8,0:0:0:0:
140,112,114750,1,8,0:0:0:0:
140,112,114883,1,8,0:0:0:0:
276,164,115015,1,0,0:0:0:0:
92,192,115412,1,8,0:0:0:0:
92,192,115677,1,8,0:0:0:0:
92,192,115810,1,0,0:0:0:0:
92,192,116075,1,0,0:0:0:0:
92,192,116207,1,8,0:0:0:0:
308,96,116339,1,0,0:0:0:0:
92,192,116472,1,8,0:0:0:0:
92,192,116604,1,0,0:0:0:0:
92,192,117002,1,8,0:0:0:0:
176,164,117399,1,0,0:0:0:0:
176,164,117664,1,8,0:0:0:0:
176,164,118061,1,8,0:0:0:0:
280,220,118194,1,0,0:0:0:0:
280,220,118459,1,0,0:0:0:0:
280,220,118591,1,0,0:0:0:0:
280,220,118856,1,0,0:0:0:0:
280,220,118988,1,8,0:0:0:0:
280,220,119253,1,8,0:0:0:0:
280,220,119386,1,0,0:0:0:0:
136,148,119518,1,0,0:0:0:0:
204,56,119651,1,0,0:0:0:0:
204,56,119783,1,8,0:0:0:0:
204,56,120048,1,8,0:0:0:0:
204,56,120180,1,0,0:0:0:0:
204,56,120445,1,0,0:0:0:0:
204,56,120578,1,8,0:0:0:0:
204,56,120710,1,0,0:0:0:0:
204,56,120842,1,0,0:0:0:0:
204,56,120975,1,8,0:0:0:0:
96,60,121372,1,4,0:0:0:0:
176,292,121637,1,0,0:0:0:0:
176,292,121770,1,8,0:0:0:0:
192,304,121902,1,0,0:0:0:0:
192,304,122034,1,8,0:0:0:0:
192,304,122167,1,0,0:0:0:0:
164,156,122432,1,8,0:0:0:0:
164,156,122564,1,8,0:0:0:0:
164,156,122829,1,8,0:0:0:0:
164,156,122962,1,0,0:0:0:0:
152,84,123226,1,8,0:0:0:0:
148,92,123359,1,0,0:0:0:0:
232,200,123491,1,8,0:0:0:0:
272,124,123624,1,0,0:0:0:0:
272,124,123756,1,8,0:0:0:0:
216,48,124021,1,8,0:0:0:0:
216,48,124154,1,0,0:0:0:0:
216,48,124418,1,8,0:0:0:0:
216,48,124551,1,0,0:0:0:0:
216,52,124683,1,0,0:0:0:0:
216,52,124816,1,0,0:0:0:0:
216,52,124948,1,8,0:0:0:0:
152,152,125213,1,0,0:0:0:0:
136,100,125346,1,8,0:0:0:0:
136,100,125478,1,0,0:0:0:0:
136,100,125610,1,8,0:0:0:0:
136,100,125743,1,8,0:0:0:0:
152,152,126008,1,8,0:0:0:0:
52,120,126140,1,0,0:0:0:0:
52,120,126273,1,8,0:0:0:0:
52,120,126405,1,0,0:0:0:0:
52,120,126537,1,8,0:0:0:0:
184,132,126935,1,8,0:0:0:0:
184,132,127067,1,8,0:0:0:0:
184,132,127200,1,8,0:0:0:0:
184,132,127332,1,8,0:0:0:0:
184,132,127465,1,8,0:0:0:0:
184,132,127597,1,8,0:0:0:0:
184,132,127729,1,0,0:0:0:0:
144,104,127994,1,0,0:0:0:0:
144,104,128127,1,8,0:0:0:0:
144,104,128392,1,0,0:0:0:0:
144,104,128524,1,0,0:0:0:0:
144,104,128789,1,0,0:0:0:0:
144,104,128921,1,8,0:0:0:0:
144,104,129054,1,8,0:0:0:0:
144,104,129186,1,8,0:0:0:0:
496,208,129319,1,0,0:0:0:0:
496,208,129584,1,8,0:0:0:0:
496,208,129716,1,0,0:0:0:0:
496,208,129981,1,8,0:0:0:0:
496,208,130113,1,0,0:0:0:0:
152,156,130378,5,0,0:0:0:0:
152,156,130511,1,8,0:0:0:0:
152,156,130643,1,8,0:0:0:0:
376,220,130776,1,8,0:0:0:0:
152,156,130908,1,0,0:0:0:0:
152,156,131173,1,0,0:0:0:0:
152,156,131305,1,8,0:0:0:0:
120,80,131570,1,8,0:0:0:0:
120,80,131703,1,0,0:0:0:0:
120,80,131835,1,0,0:0:0:0:
120,80,131968,1,0,0:0:0:0:
120,80,132100,1,8,0:0:0:0:
152,176,132365,1,0,0:0:0:0:
152,176,132497,1,8,0:0:0:0:
152,176,132630,1,0,0:0:0:0:
152,176,132762,1,8,0:0:0:0:
152,176,132895,1,0,0:0:0:0:
152,176,133027,1,8,0:0:0:0:
152,176,133160,1,0,0:0:0:0:
152,176,133292,1,8,0:0:0:0:
152,176,133424,1,0,0:0:0:0:
152,176,133557,1,8,0:0:0:0:
152,176,133689,1,8,0:0:0:0:
152,176,133822,1,8,0:0:0:0:
152,176,133954,1,8,0:0:0:0:
152,176,134087,1,0,0:0:0:0:
144,136,134484,5,8,0:0:0:0:
144,136,134749,1,8,0:0:0:0:
144,136,134881,1,8,0:0:0:0:
128,160,135146,1,8,0:0:0:0:
128,160,135279,1,0,0:0:0:0:
240,136,135544,1,8,0:0:0:0:
104,128,135676,1,8,0:0:0:0:
88,136,135941,1,8,0:0:0:0:
88,136,136073,1,0,0:0:0:0:
376,232,136206,1,8,0:0:0:0:
88,136,136338,1,8,0:0:0:0:
88,136,136471,1,8,0:0:0:0:
276,76,136735,1,8,0:0:0:0:
88,136,136868,1,0,0:0:0:0:
200,88,137000,1,8,0:0:0:0:
128,168,137133,1,8,0:0:0:0:
128,168,137265,1,0,0:0:0:0:
312,168,137663,1,12,0:0:0:0:
312,168,138060,1,0,0:0:0:0:
312,168,138457,1,12,0:0:0:0:
312,168,138855,1,0,0:0:0:0:
312,168,139252,5,12,0:0:0:0:
352,136,139649,1,8,0:0:0:0:
352,136,139782,1,8,0:0:0:0:
352,136,139914,1,8,0:0:0:0:
352,136,140047,1,8,0:0:0:0:
308,232,140179,1,8,0:0:0:0:
112,168,140311,1,8,0:0:0:0:
148,72,140444,5,0,0:0:0:0:
284,128,140841,1,0,0:0:0:0:
284,128,141106,1,0,0:0:0:0:
284,128,141238,1,8,0:0:0:0:
284,128,141503,1,0,0:0:0:0:
284,128,141636,1,0,0:0:0:0:
284,128,141901,1,0,0:0:0:0:
284,128,142033,1,8,0:0:0:0:
284,128,142430,1,8,0:0:0:0:
284,128,142695,1,0,0:0:0:0:
284,128,143093,1,0,0:0:0:0:
88,96,143225,1,8,0:0:0:0:
88,96,143490,1,0,0:0:0:0:
80,96,143622,1,0,0:0:0:0:
80,96,144020,1,8,0:0:0:0:
80,96,144285,1,8,0:0:0:0:
80,96,144417,1,0,0:0:0:0:
176,156,144682,1,0,0:0:0:0:
176,156,144814,1,8,0:0:0:0:
176,156,145079,1,8,0:0:0:0:
176,156,145212,1,0,0:0:0:0:
176,156,145477,1,8,0:0:0:0:
176,156,145874,1,0,0:0:0:0:
168,112,146006,1,8,0:0:0:0:
168,112,146139,1,0,0:0:0:0:
168,112,146271,1,0,0:0:0:0:
168,112,146404,1,8,0:0:0:0:
168,112,146536,1,8,0:0:0:0:
168,112,146669,1,8,0:0:0:0:
168,112,146801,1,0,0:0:0:0:
136,144,147198,1,0,0:0:0:0:
136,144,147463,1,0,0:0:0:0:
136,144,147596,1,8,0:0:0:0:
136,144,147861,1,0,0:0:0:0:
136,144,147993,1,0,0:0:0:0:
136,144,148258,1,0,0:0:0:0:
136,144,148390,1,8,0:0:0:0:
168,124,148655,1,8,0:0:0:0:
136,124,148788,1,0,0:0:0:0:
136,124,149185,1,8,0:0:0:0:
136,124,149450,1,0,0:0:0:0:
136,124,149582,1,8,0:0:0:0:
196,144,149980,1,4,0:0:0:0:
348,176,150244,1,8,0:0:0:0:
368,176,150377,1,0,0:0:0:0:
196,144,150774,1,12,0:0:0:0:
360,252,151039,1,0,0:0:0:0:
172,144,151436,1,12,0:0:0:0:
172,144,151834,1,12,0:0:0:0:
252,148,152364,1,8,0:0:0:0:
252,148,152496,1,8,0:0:0:0:
252,148,152628,1,8,0:0:0:0:
252,148,152761,1,8,0:0:0:0:
252,148,152893,1,8,0:0:0:0:
252,148,153026,1,8,0:0:0:0:
280,216,153158,1,0,0:0:0:0:
280,216,153556,1,0,0:0:0:0:
280,216,153820,1,0,0:0:0:0:
280,216,153953,1,0,0:0:0:0:
280,216,154218,1,0,0:0:0:0:
280,216,154350,1,8,0:0:0:0:
280,216,154615,1,8,0:0:0:0:
280,216,154747,1,0,0:0:0:0:
280,216,155145,1,8,0:0:0:0:
280,216,155410,1,8,0:0:0:0:
280,216,155542,1,0,0:0:0:0:
280,216,155807,1,0,0:0:0:0:
280,216,155939,1,8,0:0:0:0:
280,216,156204,1,8,0:0:0:0:
280,216,156337,1,0,0:0:0:0:
280,216,156734,1,8,0:0:0:0:
224,224,156999,1,0,0:0:0:0:
200,228,157131,1,8,0:0:0:0:
200,228,157396,1,8,0:0:0:0:
200,228,157794,1,8,0:0:0:0:
200,228,157926,1,8,0:0:0:0:
200,228,158191,1,8,0:0:0:0:
200,228,158588,1,0,0:0:0:0:
200,228,158721,1,8,0:0:0:0:
200,228,158853,1,8,0:0:0:0:
200,228,158986,1,8,0:0:0:0:
200,228,159118,1,8,0:0:0:0:
200,228,159250,1,8,0:0:0:0:
200,228,159383,1,8,0:0:0:0:
200,228,159515,1,0,0:0:0:0:
212,172,159913,1,0,0:0:0:0:
212,172,160177,1,0,0:0:0:0:
212,172,160310,1,0,0:0:0:0:
312,184,160575,1,0,0:0:0:0:
312,184,160972,1,8,0:0:0:0:
176,132,161502,1,8,0:0:0:0:
176,132,161767,1,8,0:0:0:0:
176,132,161899,1,0,0:0:0:0:
308,192,162297,1,8,0:0:0:0:
128,128,162694,1,4,0:0:0:0:
308,192,162959,1,8,0:0:0:0:
308,192,163224,1,8,0:0:0:0:
128,128,163489,1,4,0:0:0:0:
308,192,163754,1,8,0:0:0:0:
308,192,164018,1,0,0:0:0:0:
128,128,164283,1,12,0:0:0:0:
296,144,164548,1,0,0:0:0:0:
296,144,164813,1,0,0:0:0:0:
128,128,165078,1,12,0:0:0:0:
124,184,165873,1,12,0:0:0:0:
184,160,166270,1,0,0:0:0:0:
184,160,166535,1,8,0:0:0:0:
184,160,166932,1,0,0:0:0:0:
280,260,167065,1,8,0:0:0:0:
280,260,167197,1,8,0:0:0:0:
296,168,167329,1,8,0:0:0:0:
280,260,167462,1,0,0:0:0:0:
296,168,167727,1,8,0:0:0:0:
296,168,168124,1,0,0:0:0:0:
132,132,168521,1,8,0:0:0:0:
132,132,168654,1,0,0:0:0:0:
132,132,168919,1,8,0:0:0:0:
132,132,169051,1,0,0:0:0:0:
228,168,169448,1,0,0:0:0:0:
228,168,169713,1,8,0:0:0:0:
200,100,170111,1,8,0:0:0:0:
196,96,170508,1,8,0:0:0:0:
336,248,170640,1,0,0:0:0:0:
196,96,170905,1,8,0:0:0:0:
336,248,171038,1,0,0:0:0:0:
196,96,171303,1,0,0:0:0:0:
336,248,171435,1,8,0:0:0:0:
336,248,171568,1,8,0:0:0:0:
132,204,171700,1,0,0:0:0:0:
132,204,171832,1,8,0:0:0:0:
280,92,172230,1,12,0:0:0:0:
280,92,172495,1,8,0:0:0:0:
280,92,172627,1,0,0:0:0:0:
216,172,172892,1,0,0:0:0:0:
216,172,173024,1,0,0:0:0:0:
216,172,173289,1,0,0:0:0:0:
216,172,173422,1,8,0:0:0:0:
216,172,173687,1,8,0:0:0:0:
216,172,173819,1,0,0:0:0:0:
216,172,174084,1,0,0:0:0:0:
216,172,174216,1,0,0:0:0:0:
216,172,174481,1,0,0:0:0:0:
216,172,174614,1,8,0:0:0:0:
216,172,174879,1,8,0:0:0:0:
216,172,175011,1,0,0:0:0:0:
216,172,175276,1,8,0:0:0:0:
216,172,175408,1,0,0:0:0:0:
216,172,175541,1,0,0:0:0:0:
216,172,175673,1,0,0:0:0:0:
216,172,175806,1,8,0:0:0:0:
196,120,176071,1,0,0:0:0:0:
216,172,176203,1,0,0:0:0:0:
216,172,176335,1,0,0:0:0:0:
216,172,176600,1,12,0:0:0:0:
216,172,176865,5,8,0:0:0:0:
216,172,176997,1,0,0:0:0:0:
216,172,177130,1,0,0:0:0:0:
216,172,177262,1,0,0:0:0:0:
216,172,177395,1,8,0:0:0:0:
124,176,177792,1,8,0:0:0:0:
124,176,177925,1,0,0:0:0:0:
124,176,178057,1,8,0:0:0:0:
124,176,178190,1,0,0:0:0:0:
124,176,178322,1,8,0:0:0:0:
124,176,178455,1,0,0:0:0:0:
124,176,178587,1,8,0:0:0:0:
68,72,178852,1,0,0:0:0:0:
68,72,178984,1,0,0:0:0:0:
232,44,179249,1,0,0:0:0:0:
232,44,179382,1,8,0:0:0:0:
232,44,179646,1,0,0:0:0:0:
232,44,179779,1,0,0:0:0:0:
176,160,180044,1,0,0:0:0:0:
176,160,180176,1,8,0:0:0:0:
176,160,180441,1,0,0:0:0:0:
176,160,180574,1,0,0:0:0:0:
196,96,180838,1,0,0:0:0:0:
196,96,180971,1,8,0:0:0:0:
196,96,181236,1,0,0:0:0:0:
196,96,181368,1,0,0:0:0:0:
196,96,181633,1,0,0:0:0:0:
196,96,181766,1,8,0:0:0:0:
196,96,182030,1,8,0:0:0:0:
196,96,182163,1,0,0:0:0:0:
196,96,182428,1,0,0:0:0:0:
196,96,182560,1,8,0:0:0:0:
196,96,182825,1,8,0:0:0:0:
196,96,182958,1,0,0:0:0:0:
288,120,183222,1,0,0:0:0:0:
288,120,183355,1,8,0:0:0:0:
408,192,183487,1,0,0:0:0:0:
288,120,183620,1,0,0:0:0:0:
288,120,183752,1,8,0:0:0:0:
328,236,183885,1,0,0:0:0:0:
224,164,184017,1,0,0:0:0:0:
160,168,184150,1,8,0:0:0:0:
380,184,184282,1,0,0:0:0:0:
380,184,184414,1,0,0:0:0:0:
160,168,184547,1,8,0:0:0:0:
160,168,184944,1,4,0:0:0:0:
104,100,185341,1,0,0:0:0:0:
104,100,185606,1,0,0:0:0:0:
104,100,185739,1,8,0:0:0:0:
104,100,186004,1,8,0:0:0:0:
104,100,186136,1,0,0:0:0:0:
104,100,186401,1,0,0:0:0:0:
104,100,186533,1,8,0:0:0:0:
220,64,186798,1,0,0:0:0:0:
220,64,186931,1,8,0:0:0:0:
104,100,187063,1,8,0:0:0:0:
220,64,187196,1,8,0:0:0:0:
220,64,187328,1,0,0:0:0:0:
164,120,187593,1,0,0:0:0:0:
164,120,187725,1,8,0:0:0:0:
164,120,187990,1,0,0:0:0:0:
164,120,188123,1,0,0:0:0:0:
128,144,188388,1,0,0:0:0:0:
128,144,188520,1,8,0:0:0:0:
128,144,188653,1,0,0:0:0:0:
128,144,188785,1,0,0:0:0:0:
128,144,188917,1,8,0:0:0:0:
208,144,189315,1,12,0:0:0:0:
152,160,189580,1,0,0:0:0:0:
152,160,189712,1,0,0:0:0:0:
152,160,189844,1,0,0:0:0:0:
208,144,190109,1,12,0:0:0:0:
160,264,190374,1,0,0:0:0:0:
160,264,190507,1,8,0:0:0:0:
160,264,190639,1,8,0:0:0:0:
160,264,190772,1,8,0:0:0:0:
208,144,190904,1,0,0:0:0:0:
152,120,191301,1,8,0:0:0:0:
152,120,191434,1,0,0:0:0:0:
152,120,191566,1,0,0:0:0:0:
152,120,191699,1,8,0:0:0:0:
8,112,191964,1,0,0:0:0:0:
8,112,192096,1,8,0:0:0:0:
8,112,192228,1,0,0:0:0:0:
8,112,192361,1,0,0:0:0:0:
8,112,192493,1,8,0:0:0:0:
80,88,192891,1,8,0:0:0:0:
80,88,193023,1,0,0:0:0:0:
80,88,193156,1,0,0:0:0:0:
80,88,193288,1,8,0:0:0:0:
164,72,193420,1,0,0:0:0:0:
164,72,193553,1,0,0:0:0:0:
164,72,193685,1,8,0:0:0:0:
164,72,193950,1,0,0:0:0:0:
164,72,194083,1,8,0:0:0:0:
208,96,194480,1,8,0:0:0:0:
208,96,194612,1,0,0:0:0:0:
208,96,194745,1,0,0:0:0:0:
208,96,194877,1,0,0:0:0:0:
208,96,195010,1,8,0:0:0:0:
208,96,195142,1,0,0:0:0:0:
208,96,195275,1,0,0:0:0:0:
208,96,195407,1,8,0:0:0:0:
208,96,195539,1,0,0:0:0:0:
208,96,195672,1,8,0:0:0:0:
296,168,195937,1,0,0:0:0:0:
140,160,196069,1,8,0:0:0:0:
140,160,196202,1,8,0:0:0:0:
172,148,196334,1,8,0:0:0:0:
172,148,196467,1,0,0:0:0:0:
68,108,196599,1,0,0:0:0:0:
68,108,196731,1,0,0:0:0:0:
68,108,196864,1,8,0:0:0:0:
68,108,196996,1,8,0:0:0:0:
68,108,197129,1,8,0:0:0:0:
256,216,197261,1,0,0:0:0:0:
212,84,197659,1,0,0:0:0:0:
212,84,197923,1,0,0:0:0:0:
212,84,198056,1,0,0:0:0:0:
212,84,198321,1,8,0:0:0:0:
212,84,198453,1,0,0:0:0:0:
212,84,198718,1,0,0:0:0:0:
212,84,198851,1,8,0:0:0:0:
144,48,199115,1,8,0:0:0:0:
144,48,199248,1,0,0:0:0:0:
144,48,199645,1,8,0:0:0:0:
144,48,199778,1,0,0:0:0:0:
144,48,199910,1,0,0:0:0:0:
144,48,200042,1,8,0:0:0:0:
144,48,200175,1,0,0:0:0:0:
144,48,200307,1,0,0:0:0:0:
144,48,200440,1,8,0:0:0:0:
64,112,200837,1,8,0:0:0:0:
64,112,200970,1,0,0:0:0:0:
72,208,201102,1,0,0:0:0:0:
76,184,201234,1,8,0:0:0:0:
76,184,201367,1,0,0:0:0:0:
76,184,201499,1,0,0:0:0:0:
76,184,201632,1,8,0:0:0:0:
168,112,201764,1,8,0:0:0:0:
168,112,201897,1,0,0:0:0:0:
168,112,202029,1,8,0:0:0:0:
264,168,202294,1,0,0:0:0:0:
224,60,202426,1,8,0:0:0:0:
224,60,202559,1,0,0:0:0:0:
224,60,202691,1,0,0:0:0:0:
224,60,202824,1,8,0:0:0:0:
224,60,203089,1,0,0:0:0:0:
224,60,203221,1,8,0:0:0:0:
224,60,203486,1,4,0:0:0:0:
224,60,203618,1,12,0:0:0:0:
276,164,204016,1,4,0:0:0:0:
92,192,204413,1,8,0:0:0:0:
92,192,204678,1,0,0:0:0:0:
92,192,204811,1,8,0:0:0:0:
92,192,205076,1,0,0:0:0:0:
264,168,205208,1,0,0:0:0:0:
383,150,205340,1,8,0:0:0:0:
92,192,205473,1,0,0:0:0:0:
92,192,205605,1,8,0:0:0:0:
92,192,205870,1,8,0:0:0:0:
341,120,206002,1,8,0:0:0:0:
176,164,206267,1,0,0:0:0:0:
340,120,206400,1,0,0:0:0:0:
176,164,206665,1,8,0:0:0:0:
340,120,206797,1,8,0:0:0:0:
176,164,207062,1,8,0:0:0:0:
280,220,207195,1,0,0:0:0:0:
280,220,207460,1,0,0:0:0:0:
280,220,207592,1,0,0:0:0:0:
280,220,207857,1,0,0:0:0:0:
280,220,207989,1,8,0:0:0:0:
280,220,208254,1,0,0:0:0:0:
280,220,208387,1,8,0:0:0:0:
136,148,208519,1,8,0:0:0:0:
204,56,208652,1,8,0:0:0:0:
204,56,208784,1,0,0:0:0:0:
204,56,209049,1,8,0:0:0:0:
204,56,209181,1,0,0:0:0:0:
204,56,209446,1,0,0:0:0:0:
204,56,209579,1,8,0:0:0:0:
204,56,209711,1,0,0:0:0:0:
204,56,209843,1,0,0:0:0:0:
204,56,209976,1,8,0:0:0:0:
96,60,210373,1,4,0:0:0:0:
176,292,210638,1,0,0:0:0:0:
176,292,210771,1,0,0:0:0:0:
192,304,210903,1,0,0:0:0:0:
192,304,211035,1,0,0:0:0:0:
192,304,211168,1,8,0:0:0:0:
164,156,211433,1,8,0:0:0:0:
164,156,211565,1,8,0:0:0:0:
164,156,211830,1,8,0:0:0:0:
164,156,211963,1,0,0:0:0:0:
152,84,212227,1,8,0:0:0:0:
148,92,212360,1,0,0:0:0:0:
232,200,212492,1,8,0:0:0:0:
272,124,212625,1,0,0:0:0:0:
272,124,212757,1,8,0:0:0:0:
216,48,213022,1,8,0:0:0:0:
216,48,213155,1,0,0:0:0:0:
216,48,213419,1,8,0:0:0:0:
216,48,213552,1,0,0:0:0:0:
216,52,213684,1,0,0:0:0:0:
216,52,213817,1,0,0:0:0:0:
216,52,213949,1,8,0:0:0:0:
152,152,214214,1,0,0:0:0:0:
136,100,214347,1,8,0:0:0:0:
136,100,214479,1,0,0:0:0:0:
136,100,214744,1,12,0:0:0:0:
152,152,215009,1,8,0:0:0:0:
52,120,215141,1,0,0:0:0:0:
52,120,215274,1,8,0:0:0:0:
52,120,215406,1,0,0:0:0:0:
52,120,215538,1,8,0:0:0:0:
184,132,215936,1,8,0:0:0:0:
184,132,216068,1,0,0:0:0:0:
184,132,216201,1,8,0:0:0:0:
184,132,216333,1,8,0:0:0:0:
184,132,216466,1,8,0:0:0:0:
184,132,216598,1,8,0:0:0:0:
184,132,216730,1,0,0:0:0:0:
144,104,216995,1,0,0:0:0:0:
144,104,217128,1,8,0:0:0:0:
144,104,217393,1,0,0:0:0:0:
144,104,217525,1,0,0:0:0:0:
144,104,217790,1,0,0:0:0:0:
144,104,217922,1,8,0:0:0:0:
144,104,218055,1,8,0:0:0:0:
144,104,218187,1,8,0:0:0:0:
496,208,218320,1,0,0:0:0:0:
496,208,218585,1,8,0:0:0:0:
496,208,218717,1,0,0:0:0:0:
496,208,218982,1,8,0:0:0:0:
496,208,219114,1,0,0:0:0:0:
152,156,219379,5,0,0:0:0:0:
152,156,219512,1,8,0:0:0:0:
152,156,219644,1,8,0:0:0:0:
376,220,219777,1,8,0:0:0:0:
152,156,219909,1,0,0:0:0:0:
152,156,220174,1,0,0:0:0:0:
152,156,220306,1,8,0:0:0:0:
120,80,220571,1,8,0:0:0:0:
120,80,220704,1,0,0:0:0:0:
120,80,220836,1,0,0:0:0:0:
120,80,220969,1,0,0:0:0:0:
120,80,221101,1,8,0:0:0:0:
152,176,221366,1,0,0:0:0:0:
152,176,221498,1,8,0:0:0:0:
152,176,221631,1,0,0:0:0:0:
152,176,221763,1,8,0:0:0:0:
152,176,221896,1,0,0:0:0:0:
152,176,222028,1,8,0:0:0:0:
152,176,222161,1,0,0:0:0:0:
152,176,222293,1,8,0:0:0:0:
152,176,222425,1,0,0:0:0:0:
152,176,222558,1,8,0:0:0:0:
152,176,222690,1,8,0:0:0:0:
152,176,222823,1,8,0:0:0:0:
152,176,222955,1,8,0:0:0:0:
152,176,223088,1,0,0:0:0:0:
144,136,223485,5,8,0:0:0:0:
144,136,223750,1,8,0:0:0:0:
144,136,223882,1,8,0:0:0:0:
128,160,224147,1,8,0:0:0:0:
128,160,224280,1,0,0:0:0:0:
240,136,224545,1,8,0:0:0:0:
104,128,224677,1,8,0:0:0:0:
88,136,224942,1,8,0:0:0:0:
88,136,225074,1,0,0:0:0:0:
376,232,225207,1,8,0:0:0:0:
88,136,225339,1,8,0:0:0:0:
88,136,225472,1,8,0:0:0:0:
276,76,225736,1,8,0:0:0:0:
88,136,225869,1,0,0:0:0:0:
200,88,226001,1,8,0:0:0:0:
128,168,226134,1,8,0:0:0:0:
128,168,226266,1,0,0:0:0:0:
312,168,226664,1,12,0:0:0:0:
213,220,226928,1,0,0:0:0:0:
312,168,227061,1,0,0:0:0:0:
213,220,227193,1,0,0:0:0:0:
312,168,227458,1,12,0:0:0:0:
213,220,227723,1,0,0:0:0:0:
312,168,227856,1,0,0:0:0:0:
213,220,227988,1,0,0:0:0:0:
312,168,228253,5,12,0:0:0:0:
168,278,228517,1,8,0:0:0:0:
352,136,228650,1,8,0:0:0:0:
352,136,228783,1,8,0:0:0:0:
352,136,228915,1,8,0:0:0:0:
352,136,229048,1,8,0:0:0:0:
197,183,229180,1,8,0:0:0:0:
148,72,229445,5,4,0:0:0:0:
