osu file format v14

[General]
AudioFilename: MandoPony - The Show Must Go On - 01 The Show Must Go On.mp3
AudioLeadIn: 0
PreviewTime: 51443
Countdown: 1
SampleSet: Soft
StackLeniency: 0.7
Mode: 1
LetterboxInBreaks: 1
WidescreenStoryboard: 1

[Editor]
DistanceSpacing: 1
BeatDivisor: 3
GridSize: 4
TimelineZoom: 1

[Metadata]
Title:The Show Must Go On
TitleUnicode:The Show Must Go On
Artist:MandoPony
ArtistUnicode:MandoPony
Creator:Eeneehaww30PH
Version:Taiko Night 1
Source:Five Nights At Freddy's 2
Tags:FiveNightsAtFreddy's2 Mandopony FiveNightsatFreddy'smandopony FNAF FNAF2 fnaf fnaf2
BeatmapID:671020
BeatmapSetID:299068

[Difficulty]
HPDrainRate:0
CircleSize:5
OverallDifficulty:3
ApproachRate:0
SliderMultiplier:1.4
SliderTickRate:1

[Events]
//Background and Video events
0,0,"download.jpg",0,0
Video,-708,"-The Show Must Go On- - Five Nights at Freddy's ROCK SONG by MandoPony.avi"
//Break Periods
2,76277,87786
2,191501,195859
//Storyboard Layer 0 (Background)
//Storyboard Layer 1 (Fail)
//Storyboard Layer 2 (Pass)
//Storyboard Layer 3 (Foreground)
//Storyboard Sound Samples

[TimingPoints]
586,397.324680484736,4,2,1,100,1,0
13300,-100,4,2,1,100,0,1
13432,-100,4,2,1,100,0,0
51443,-100,4,2,1,100,0,1
64025,-100,4,2,1,100,0,0
64157,-100,4,2,1,100,0,1
76872,-100,4,2,1,100,0,0
115015,-100,4,2,1,100,0,1
140444,-100,4,2,1,100,0,0
204016,-100,4,2,1,100,0,1
229445,-100,4,2,1,100,0,0

[HitObjects]
228,100,586,5,0,0:0:0:0:
92,224,2175,1,0,0:0:0:0:
264,228,3764,1,8,0:0:0:0:
136,184,5353,1,8,0:0:0:0:
252,224,6943,1,0,0:0:0:0:
200,240,8532,1,0,0:0:0:0:
284,192,10121,1,0,0:0:0:0:
112,320,11711,2,0,L|464:80,1,420
148,160,13300,5,0,0:0:0:0:
276,244,14095,1,0,0:0:0:0:
148,160,14889,1,0,0:0:0:0:
136,176,15684,1,0,0:0:0:0:
100,80,16081,1,0,0:0:0:0:
136,176,16478,1,0,0:0:0:0:
276,204,17273,1,0,0:0:0:0:
136,176,18068,1,0,0:0:0:0:
136,176,18862,1,0,0:0:0:0:
184,268,19260,1,0,0:0:0:0:
280,152,19657,1,0,0:0:0:0:
160,148,20452,1,8,0:0:0:0:
280,152,21246,1,8,0:0:0:0:
280,152,22041,1,8,0:0:0:0:
116,172,22438,1,8,0:0:0:0:
248,132,22836,1,8,0:0:0:0:
172,168,23630,1,8,0:0:0:0:
76,304,24425,2,8,L|464:108,1,420
80,180,26014,5,0,0:0:0:0:
80,180,27604,1,0,0:0:0:0:
220,212,28398,1,0,0:0:0:0:
80,180,29193,1,8,0:0:0:0:
80,180,30782,1,8,0:0:0:0:
80,180,31577,1,8,0:0:0:0:
80,180,32371,5,0,0:0:0:0:
80,180,33961,1,0,0:0:0:0:
304,224,34755,1,0,0:0:0:0:
80,180,35550,1,8,0:0:0:0:
80,180,36345,1,8,0:0:0:0:
80,180,37139,1,8,0:0:0:0:
80,180,37802,1,8,0:0:0:0:
256,152,38729,1,4,0:0:0:0:
256,152,40318,1,0,0:0:0:0:
116,192,41113,1,0,0:0:0:0:
256,152,41907,5,8,0:0:0:0:
256,152,43497,5,8,0:0:0:0:
120,216,44159,1,8,0:0:0:0:
216,116,45086,5,0,0:0:0:0:
216,116,46675,1,0,0:0:0:0:
120,216,47470,1,0,0:0:0:0:
216,116,48264,1,8,0:0:0:0:
59,295,49854,2,0,L|455:95,1,420
304,56,51443,1,4,0:0:0:0:
304,56,52238,1,0,0:0:0:0:
304,56,53032,1,0,0:0:0:0:
304,56,53827,1,0,0:0:0:0:
104,232,54224,1,0,0:0:0:0:
248,152,54622,1,0,0:0:0:0:
248,152,55416,1,8,0:0:0:0:
248,152,56211,1,8,0:0:0:0:
248,152,57006,1,8,0:0:0:0:
124,128,57403,1,8,0:0:0:0:
248,152,57800,1,8,0:0:0:0:
248,152,58595,1,0,0:0:0:0:
248,152,59390,1,0,0:0:0:0:
248,152,60184,1,0,0:0:0:0:
256,192,60979,12,0,63760,0:0:0:0:
256,120,64157,5,4,0:0:0:0:
256,120,65747,1,4,0:0:0:0:
256,120,67336,1,12,0:0:0:0:
288,136,68925,1,12,0:0:0:0:
288,136,70515,1,0,0:0:0:0:
288,136,71309,1,0,0:0:0:0:
288,136,72104,1,0,0:0:0:0:
288,136,73693,1,4,0:0:0:0:
172,164,74488,1,4,0:0:0:0:
172,188,75283,1,4,0:0:0:0:
172,188,76077,1,4,0:0:0:0:
80,180,89586,5,0,0:0:0:0:
80,180,90381,1,0,0:0:0:0:
80,180,91176,1,0,0:0:0:0:
80,180,91970,1,0,0:0:0:0:
80,180,92765,1,8,0:0:0:0:
80,180,93560,1,8,0:0:0:0:
80,180,94354,1,8,0:0:0:0:
80,180,95149,1,8,0:0:0:0:
80,180,95943,5,0,0:0:0:0:
80,180,96738,1,0,0:0:0:0:
80,180,97533,1,0,0:0:0:0:
80,180,98327,1,0,0:0:0:0:
80,180,99122,1,8,0:0:0:0:
80,180,99917,1,8,0:0:0:0:
80,180,100711,1,8,0:0:0:0:
80,180,101506,1,8,0:0:0:0:
216,116,102301,1,0,0:0:0:0:
216,116,103890,1,0,0:0:0:0:
216,116,104685,1,0,0:0:0:0:
216,116,105479,1,8,0:0:0:0:
216,116,107068,1,8,0:0:0:0:
216,116,107863,1,8,0:0:0:0:
216,116,108658,1,0,0:0:0:0:
216,116,109452,1,0,0:0:0:0:
216,116,110247,1,0,0:0:0:0:
216,116,111836,1,8,0:0:0:0:
216,116,112631,1,8,0:0:0:0:
216,116,113425,1,8,0:0:0:0:
216,116,114220,1,8,0:0:0:0:
304,56,115015,1,0,0:0:0:0:
304,56,115810,1,0,0:0:0:0:
304,56,116604,1,0,0:0:0:0:
304,56,117399,1,0,0:0:0:0:
304,56,117796,1,0,0:0:0:0:
248,152,118194,1,0,0:0:0:0:
248,152,118988,1,0,0:0:0:0:
248,152,119783,1,0,0:0:0:0:
248,152,120578,1,0,0:0:0:0:
248,152,120975,1,0,0:0:0:0:
248,152,121372,1,0,0:0:0:0:
248,152,122167,1,8,0:0:0:0:
248,152,122962,1,8,0:0:0:0:
248,152,123756,1,8,0:0:0:0:
256,192,124551,12,0,127332,0:0:0:0:
256,120,127729,5,4,0:0:0:0:
256,120,129319,1,4,0:0:0:0:
256,120,130908,1,12,0:0:0:0:
288,136,132497,1,12,0:0:0:0:
288,136,134087,1,0,0:0:0:0:
288,136,134881,1,0,0:0:0:0:
288,136,135676,1,8,0:0:0:0:
288,136,136471,1,8,0:0:0:0:
288,136,137265,1,4,0:0:0:0:
128,156,138060,1,4,0:0:0:0:
288,136,138855,1,4,0:0:0:0:
132,200,139649,1,4,0:0:0:0:
148,160,140444,5,0,0:0:0:0:
148,160,141239,1,0,0:0:0:0:
148,160,142033,1,0,0:0:0:0:
136,176,142828,1,0,0:0:0:0:
136,176,143622,1,8,0:0:0:0:
136,176,144417,1,8,0:0:0:0:
136,176,145212,1,8,0:0:0:0:
136,176,146006,1,8,0:0:0:0:
280,152,146801,1,0,0:0:0:0:
280,152,147596,1,0,0:0:0:0:
280,152,148390,1,8,0:0:0:0:
280,152,149185,1,8,0:0:0:0:
148,160,149980,5,4,0:0:0:0:
148,160,151569,1,4,0:0:0:0:
136,176,153158,1,8,0:0:0:0:
136,176,153953,1,8,0:0:0:0:
136,176,154748,1,8,0:0:0:0:
136,176,155542,1,8,0:0:0:0:
280,152,156337,1,0,0:0:0:0:
280,152,157132,1,0,0:0:0:0:
280,152,157926,1,8,0:0:0:0:
280,152,158721,1,8,0:0:0:0:
148,160,159515,5,0,0:0:0:0:
148,160,160310,1,0,0:0:0:0:
148,160,161104,1,0,0:0:0:0:
136,176,161899,1,0,0:0:0:0:
136,176,162693,1,12,0:0:0:0:
136,176,163488,1,12,0:0:0:0:
136,176,164283,1,12,0:0:0:0:
136,176,165077,1,12,0:0:0:0:
280,152,165872,1,4,0:0:0:0:
24,132,166667,1,0,0:0:0:0:
144,224,167462,1,0,0:0:0:0:
144,224,168257,1,0,0:0:0:0:
144,224,168654,1,0,0:0:0:0:
144,224,169051,1,0,0:0:0:0:
188,160,169846,1,8,0:0:0:0:
144,224,170640,1,8,0:0:0:0:
144,224,171435,1,8,0:0:0:0:
144,224,171832,1,8,0:0:0:0:
256,120,172230,1,8,0:0:0:0:
184,140,173024,1,0,0:0:0:0:
244,132,173819,1,0,0:0:0:0:
224,160,174614,1,0,0:0:0:0:
256,192,175408,12,0,178190,0:0:0:0:
256,152,178587,5,0,0:0:0:0:
236,192,179382,1,0,0:0:0:0:
236,192,180176,1,8,0:0:0:0:
236,192,180971,1,8,0:0:0:0:
236,192,181766,1,0,0:0:0:0:
236,192,182560,1,0,0:0:0:0:
64,292,183355,2,0,L|456:112,1,420
148,136,184944,1,0,0:0:0:0:
168,248,185739,1,0,0:0:0:0:
168,248,186533,1,8,0:0:0:0:
168,248,187328,1,8,0:0:0:0:
256,192,188123,12,0,191301,0:0:0:0:
148,104,197659,5,0,0:0:0:0:
148,104,198453,5,0,0:0:0:0:
148,104,199248,5,0,0:0:0:0:
148,104,200042,5,0,0:0:0:0:
148,104,200837,5,8,0:0:0:0:
148,104,201632,5,8,0:0:0:0:
148,104,202426,5,8,0:0:0:0:
148,104,203221,5,8,0:0:0:0:
304,56,204016,1,4,0:0:0:0:
304,56,204811,1,0,0:0:0:0:
304,56,205605,1,0,0:0:0:0:
304,56,206400,1,0,0:0:0:0:
304,56,206797,1,0,0:0:0:0:
248,152,207195,1,0,0:0:0:0:
248,152,207989,1,0,0:0:0:0:
248,152,208784,1,0,0:0:0:0:
248,152,209579,1,0,0:0:0:0:
248,152,209976,1,0,0:0:0:0:
248,152,210373,1,0,0:0:0:0:
248,152,211168,1,8,0:0:0:0:
248,152,211963,1,8,0:0:0:0:
248,152,212757,1,8,0:0:0:0:
256,192,213552,12,0,216333,0:0:0:0:
256,120,216730,5,4,0:0:0:0:
256,120,218320,1,4,0:0:0:0:
256,120,219909,1,12,0:0:0:0:
288,136,221498,1,12,0:0:0:0:
112,216,222293,1,12,0:0:0:0:
288,136,223088,1,4,0:0:0:0:
288,136,224677,1,12,0:0:0:0:
288,136,226266,1,4,0:0:0:0:
164,120,227061,1,12,0:0:0:0:
288,136,227856,1,4,0:0:0:0:
164,120,228650,1,12,0:0:0:0:
164,120,229445,1,4,0:0:0:0:
