osu file format v14

[General]
AudioFilename: audio.mp3
AudioLeadIn: 0
PreviewTime: -1
Countdown: 1
SampleSet: Soft
StackLeniency: 0.7
Mode: 0
LetterboxInBreaks: 0
WidescreenStoryboard: 1

[Editor]
DistanceSpacing: 0.8
BeatDivisor: 4
GridSize: 32
TimelineZoom: 2.700005

[Metadata]
Title:Nightcore - Survive the Night
TitleUnicode:Nightcore - Survive the Night
Artist:Mando Pony
ArtistUnicode:Mando Pony
Creator:killerwolf741
Version:Insane
Source:
Tags:
BeatmapID:1355774
BeatmapSetID:639208

[Difficulty]
HPDrainRate:8
CircleSize:3.6
OverallDifficulty:7.3
ApproachRate:9.5
SliderMultiplier:2.5
SliderTickRate:1

[Events]
//Background and Video events
0,0,"map.jpg",0,0
//Break Periods
2,25258,29827
//Storyboard Layer 0 (Background)
//Storyboard Layer 1 (Fail)
//Storyboard Layer 2 (Pass)
//Storyboard Layer 3 (Foreground)
//Storyboard Sound Samples

[TimingPoints]
16235.3503780086,441.176470588235,4,2,0,100,1,0
30573,220.588235294118,4,2,0,100,1,0
44742,220.588235294118,4,2,0,100,1,0
44742,-100,4,2,0,100,0,0
58657,220.588235294118,4,2,0,100,1,0

[Colours]
Combo1 : 0,0,160
Combo2 : 128,0,0
Combo3 : 0,64,128
Combo4 : 128,0,255

[HitObjects]
256,192,16235,6,0,B|272:144|272:144|392:144,1,125
368,352,16676,5,2,0:0:0:0:
256,248,16897,1,0,0:0:0:0:
381,248,17117,1,0,0:0:0:0:
318,356,17338,1,0,0:0:0:0:
256,248,17558,1,0,0:0:0:0:
256,373,17778,1,0,0:0:0:0:
256,192,18000,6,0,B|240:144|240:144|120:144,1,125
144,352,18441,5,2,0:0:0:0:
256,248,18662,1,0,0:0:0:0:
131,248,18882,1,0,0:0:0:0:
194,356,19103,1,0,0:0:0:0:
256,248,19323,1,0,0:0:0:0:
256,373,19543,1,0,0:0:0:0:
256,192,19764,6,0,B|272:240|272:240|346:240,1,125
368,32,20205,5,2,0:0:0:0:
256,136,20426,1,0,0:0:0:0:
381,136,20646,1,0,0:0:0:0:
318,28,20867,1,0,0:0:0:0:
256,136,21087,1,0,0:0:0:0:
256,11,21307,1,0,0:0:0:0:
256,192,21529,6,0,B|240:240|240:240|120:240,1,125
144,32,21970,5,2,0:0:0:0:
256,136,22191,1,0,0:0:0:0:
131,136,22411,1,0,0:0:0:0:
194,28,22632,1,0,0:0:0:0:
256,136,22852,1,0,0:0:0:0:
256,11,23072,1,0,0:0:0:0:
256,192,23294,12,0,25058,0:0:0:0:
200,225,30352,5,2,0:0:0:0:
151,139,30573,1,0,0:0:0:0:
251,139,30793,1,0,0:0:0:0:
200,225,31014,1,0,0:0:0:0:
344,32,31234,5,2,0:0:0:0:
309,187,31454,1,0,0:0:0:0:
223,136,31675,1,0,0:0:0:0:
361,245,31896,1,0,0:0:0:0:
160,328,32116,5,2,0:0:0:0:
312,159,32337,1,0,0:0:0:0:
203,297,32558,1,0,0:0:0:0:
203,197,32778,1,0,0:0:0:0:
352,288,32999,5,2,0:0:0:0:
151,139,33220,1,0,0:0:0:0:
251,139,33440,1,0,0:0:0:0:
200,225,33661,1,0,0:0:0:0:
80,88,33881,5,2,0:0:0:0:
251,139,34101,1,0,0:0:0:0:
200,225,34322,1,0,0:0:0:0:
289,136,34543,1,0,0:0:0:0:
104,40,34764,5,2,0:0:0:0:
203,187,34984,1,0,0:0:0:0:
289,136,35205,1,0,0:0:0:0:
112,232,35425,1,0,0:0:0:0:
368,176,35645,5,2,0:0:0:0:
200,159,35866,1,0,0:0:0:0:
309,297,36087,1,0,0:0:0:0:
392,96,36307,1,0,0:0:0:0:
224,280,36528,5,2,0:0:0:0:
361,139,36749,1,0,0:0:0:0:
261,139,36969,1,0,0:0:0:0:
344,224,37190,1,0,0:0:0:0:
144,64,37411,5,2,0:0:0:0:
192,272,37631,1,0,0:0:0:0:
368,104,37852,1,0,0:0:0:0:
203,87,38072,1,0,0:0:0:0:
208,280,38292,5,2,0:0:0:0:
288,80,38513,1,0,0:0:0:0:
261,245,38734,1,0,0:0:0:0:
344,160,38955,1,0,0:0:0:0:
144,320,39176,5,2,0:0:0:0:
192,112,39396,1,0,0:0:0:0:
368,280,39617,1,0,0:0:0:0:
203,297,39837,1,0,0:0:0:0:
368,64,40058,5,2,0:0:0:0:
320,272,40278,1,0,0:0:0:0:
144,104,40499,1,0,0:0:0:0:
309,87,40719,1,0,0:0:0:0:
328,317,40940,5,2,0:0:0:0:
111,191,41161,1,0,0:0:0:0:
183,317,41381,1,0,0:0:0:0:
304,240,41602,1,0,0:0:0:0:
248,32,41823,5,2,0:0:0:0:
111,192,42044,1,0,0:0:0:0:
288,280,42264,1,0,0:0:0:0:
163,63,42485,1,0,0:0:0:0:
288,280,42705,5,2,0:0:0:0:
224,40,42926,1,0,0:0:0:0:
288,280,43146,5,2,0:0:0:0:
304,32,43367,1,0,0:0:0:0:
288,280,43587,5,2,0:0:0:0:
368,48,43808,1,0,0:0:0:0:
328,192,44028,5,2,0:0:0:0:
288,200,44138,1,0,0:0:0:0:
248,208,44248,1,0,0:0:0:0:
208,216,44358,1,0,0:0:0:0:
168,224,44470,1,0,0:0:0:0:
288,248,44742,6,2,P|272:152|136:152,1,250,2|0,0:0|0:0,0:0:0:0:
296,88,45183,2,0,P|200:104|200:240,1,250,2|0,0:0|0:0,0:0:0:0:
104,144,45624,6,2,P|120:240|256:240,1,250,2|0,0:0|0:0,0:0:0:0:
168,320,46065,2,0,P|264:304|264:168,1,250,2|0,0:0|0:0,0:0:0:0:
248,288,46506,5,2,0:0:0:0:
348,148,46727,1,0,0:0:0:0:
192,200,46947,5,2,0:0:0:0:
332,300,47168,1,0,0:0:0:0:
320,160,47389,5,2,0:0:0:0:
220,300,47610,1,0,0:0:0:0:
336,328,47830,5,2,0:0:0:0:
196,228,48050,1,0,0:0:0:0:
288,136,48271,6,0,P|272:232|136:232,1,250,2|0,0:0|0:0,0:0:0:0:
264,288,48712,2,0,P|168:272|168:136,1,250,2|0,0:0|0:0,0:0:0:0:
208,200,49153,6,0,P|224:104|360:104,1,250,2|0,0:0|0:0,0:0:0:0:
264,136,49594,2,0,P|360:152|360:288,1,250,2|0,0:0|0:0,0:0:0:0:
352,184,50036,5,2,0:0:0:0:
212,284,50257,1,0,0:0:0:0:
264,128,50477,5,2,0:0:0:0:
364,268,50698,1,0,0:0:0:0:
224,256,50919,5,2,0:0:0:0:
364,156,51140,1,0,0:0:0:0:
392,272,51360,5,2,0:0:0:0:
292,132,51580,1,0,0:0:0:0:
240,304,51800,5,2,0:0:0:0:
369,159,52021,1,0,0:0:0:0:
280,71,52242,5,2,0:0:0:0:
288,336,52463,1,0,0:0:0:0:
192,159,52683,5,2,0:0:0:0:
377,247,52903,1,0,0:0:0:0:
224,96,53124,5,2,0:0:0:0:
208,320,53344,1,0,0:0:0:0:
336,120,53565,5,2,0:0:0:0:
223,305,53786,1,0,0:0:0:0:
135,216,54007,5,2,0:0:0:0:
400,224,54228,1,0,0:0:0:0:
223,128,54448,5,2,0:0:0:0:
311,313,54668,1,0,0:0:0:0:
168,304,54889,5,2,0:0:0:0:
311,136,55109,1,0,0:0:0:0:
131,264,55330,5,0,0:0:0:0:
256,40,55550,1,0,0:0:0:0:
381,264,55771,1,0,0:0:0:0:
132,0,55992,5,0,0:0:0:0:
256,192,56212,1,0,0:0:0:0:
382,0,56433,1,0,0:0:0:0:
144,0,56653,1,0,0:0:0:0:
256,192,56873,5,2,0:0:0:0:
80,192,57094,1,0,0:0:0:0:
440,192,57315,1,0,0:0:0:0:
256,192,57535,5,2,0:0:0:0:
384,376,57756,1,0,0:0:0:0:
132,384,57977,1,0,0:0:0:0:
256,192,58197,1,2,0:0:0:0:
256,192,58308,1,2,0:0:0:0:
256,192,58418,1,2,0:0:0:0:
184,72,58657,6,2,P|128:96|104:136,1,62.5
224,192,58877,1,8,0:0:0:0:
328,72,59098,6,2,P|384:96|408:136,1,62.5
288,192,59318,1,8,0:0:0:0:
184,312,59539,6,2,P|128:288|104:248,1,62.5
224,192,59759,1,8,0:0:0:0:
328,312,59980,6,2,P|384:288|408:248,1,62.5
288,192,60200,1,8,0:0:0:0:
136,88,60421,6,2,L|232:104,1,62.5
352,128,60642,1,8,0:0:0:0:
376,88,60863,6,2,L|280:104,1,62.5
160,128,61084,1,8,0:0:0:0:
376,296,61304,6,2,L|280:280,1,62.5
160,256,61525,1,8,0:0:0:0:
136,296,61746,6,2,L|232:280,1,62.5
352,256,61967,1,8,0:0:0:0:
368,248,62076,1,0,0:0:0:0:
384,240,62186,1,0,0:0:0:0:
352,192,62407,6,0,B|256:105|256:105|160:192,1,250
256,192,62848,1,0,0:0:0:0:
352,192,63068,6,0,B|256:279|256:279|160:192,1,250
256,32,63509,1,0,0:0:0:0:
256,352,63730,1,0,0:0:0:0:
256,192,63951,1,0,0:0:0:0:
