osu file format v14

[General]
AudioFilename: audio.mp3
AudioLeadIn: 0
PreviewTime: -1
Countdown: 0
SampleSet: Soft
StackLeniency: 0.7
Mode: 0
LetterboxInBreaks: 0
WidescreenStoryboard: 1

[Editor]
DistanceSpacing: 0.9
BeatDivisor: 2
GridSize: 32
TimelineZoom: 2.3

[Metadata]
Title:Yosuga No Sora OST - Old Memory
TitleUnicode:Yosuga No Sora OST - Old Memory
Artist:Manau Miwa & Bruno Wen Li
ArtistUnicode:Manau Miwa & Bruno Wen Li
Creator:letam89101
Version:Sora Route
Source:Yosuga No Sora
Tags:
BeatmapID:1218240
BeatmapSetID:575271

[Difficulty]
HPDrainRate:5
CircleSize:4
OverallDifficulty:8
ApproachRate:9
SliderMultiplier:1.4
SliderTickRate:1

[Events]
//Background and Video events
0,0,"bandicam 2015-09-08 21-09-09-836.jpg",0,0
//Break Periods
2,25788,36282
//Storyboard Layer 0 (Background)
//Storyboard Layer 1 (Fail)
//Storyboard Layer 2 (Pass)
//Storyboard Layer 3 (Foreground)
//Storyboard Sound Samples

[TimingPoints]
0,352.941176470588,4,2,0,25,1,0

[Colours]
Combo1 : 255,255,255
Combo2 : 253,186,123
Combo3 : 254,165,160
Combo4 : 254,188,221
Combo5 : 187,184,252
Combo6 : 142,198,250
Combo7 : 115,213,232
Combo8 : 143,201,127

[HitObjects]
256,192,176,5,0,0:0:0:0:
128,160,529,1,0,0:0:0:0:
256,192,882,2,0,L|256:32,1,140
192,160,1588,1,0,0:0:0:0:
416,32,2294,1,0,0:0:0:0:
256,64,2470,1,0,0:0:0:0:
320,128,2647,1,0,0:0:0:0:
256,64,2823,1,0,0:0:0:0:
128,256,2999,2,0,L|288:256,1,140
128,256,3705,6,0,L|128:96,1,140
128,320,4411,1,0,0:0:0:0:
256,192,5823,5,0,0:0:0:0:
192,160,6176,1,0,0:0:0:0:
320,224,6529,1,0,0:0:0:0:
192,160,6882,2,0,L|320:224,1,140
192,256,7941,5,0,0:0:0:0:
256,160,8294,2,0,L|256:320,1,140
320,256,8999,1,0,0:0:0:0:
128,224,9352,1,0,0:0:0:0:
384,352,9705,1,0,0:0:0:0:
256,192,10058,1,0,0:0:0:0:
256,128,11470,6,0,L|256:288,1,140
335,210,12176,2,0,L|175:210,1,140
256,192,12882,5,0,0:0:0:0:
256,256,13588,1,0,0:0:0:0:
320,192,13764,1,0,0:0:0:0:
192,192,13941,1,0,0:0:0:0:
256,128,14295,1,0,0:0:0:0:
256,192,14647,1,0,0:0:0:0:
256,320,14999,5,0,0:0:0:0:
256,256,15235,1,0,0:0:0:0:
256,256,15294,1,0,0:0:0:0:
256,256,15352,1,0,0:0:0:0:
256,256,15411,1,0,0:0:0:0:
256,256,15470,1,0,0:0:0:0:
256,64,15705,5,0,0:0:0:0:
64,192,17117,6,0,P|160:192|160:160,1,140
138,263,17823,2,0,L|202:231,1,70
256,192,18176,1,0,0:0:0:0:
321,154,18352,2,0,L|385:122,1,70
256,192,19235,5,0,0:0:0:0:
448,128,19941,5,0,0:0:0:0:
352,128,20294,5,0,0:0:0:0:
352,32,20647,5,0,0:0:0:0:
256,192,20999,12,0,25588,0:0:0:0:
32,96,36882,5,0,0:0:0:0:
96,160,37058,1,0,0:0:0:0:
160,224,37235,1,0,0:0:0:0:
224,288,37411,1,0,0:0:0:0:
288,224,37588,1,0,0:0:0:0:
192,128,37941,2,0,L|160:128,6,23.3333333333333
288,128,38647,5,0,0:0:0:0:
32,224,38823,1,0,0:0:0:0:
288,128,38999,1,0,0:0:0:0:
128,224,39176,1,0,0:0:0:0:
288,128,39352,1,0,0:0:0:0:
224,224,39705,6,0,P|256:256|352:224,1,140
352,224,40388,1,0,0:0:0:0:
352,224,40764,2,0,L|384:224,6,23.3333333333333
288,224,41470,1,0,0:0:0:0:
192,224,41823,1,0,0:0:0:0:
96,224,42176,1,0,0:0:0:0:
64,224,42529,2,0,L|192:128,1,140
176,140,43058,5,0,0:0:0:0:
64,224,43235,1,0,0:0:0:0:
128,288,43411,1,0,0:0:0:0:
199,230,43588,1,0,0:0:0:0:
320,224,43941,1,0,0:0:0:0:
256,192,44647,6,0,B|256:160|288:160|320:192|288:224|256:224|224:192|224:160,1,140
96,192,45352,2,0,L|160:128,1,70
148,130,45705,1,0,0:0:0:0:
192,192,45882,2,0,L|256:128,1,70
384,256,46411,2,0,L|256:160,1,140
128,128,47117,6,0,L|256:224,1,140
256,192,48176,5,0,0:0:0:0:
192,256,48529,1,0,0:0:0:0:
256,192,48705,1,0,0:0:0:0:
352,96,48882,1,0,0:0:0:0:
96,352,49235,1,0,0:0:0:0:
416,32,49588,1,0,0:0:0:0:
448,64,49941,2,0,L|416:96,6,23.3333333333333
96,192,50999,1,0,0:0:0:0:
192,192,51352,2,0,P|224:128|256:160,1,140
352,192,52058,5,0,0:0:0:0:
256,224,52235,2,0,L|192:256,1,70
64,64,53823,1,0,0:0:0:0:
160,128,54176,1,0,0:0:0:0:
96,64,54352,1,0,0:0:0:0:
256,192,54529,1,0,0:0:0:0:
160,128,54705,5,0,0:0:0:0:
256,96,54882,2,0,L|384:0,1,140
192,128,55588,6,0,B|224:96|288:64|320:128|320:160|320:160|320:192|288:192|256:224|256:256,1,280
256,320,56647,1,0,0:0:0:0:
96,128,56999,6,0,L|224:192,1,140
192,128,57705,2,0,L|96:256,1,140
64,192,59470,5,0,0:0:0:0:
128,192,59823,1,0,0:0:0:0:
160,192,59882,1,0,0:0:0:0:
192,192,59941,1,0,0:0:0:0:
224,192,59999,1,0,0:0:0:0:
256,192,60058,1,0,0:0:0:0:
288,192,60117,1,0,0:0:0:0:
320,192,60176,1,0,0:0:0:0:
320,128,60529,6,0,B|352:128|384:160|384:224|320:256,1,163.333333333333
160,192,61235,5,0,0:0:0:0:
192,96,61411,1,0,0:0:0:0:
256,160,61588,1,0,0:0:0:0:
287,164,61823,5,0,0:0:0:0:
319,196,61882,5,0,0:0:0:0:
351,228,61941,5,0,0:0:0:0:
384,224,62294,5,0,0:0:0:0:
160,320,62470,1,0,0:0:0:0:
64,64,62647,1,0,0:0:0:0:
384,128,62823,1,0,0:0:0:0:
256,192,62999,1,0,0:0:0:0:
32,352,63352,6,0,L|32:192,1,140
128,128,64058,1,0,0:0:0:0:
352,256,64411,1,0,0:0:0:0:
96,128,65117,6,0,P|160:96|160:128,1,140
256,192,65823,1,0,0:0:0:0:
384,256,66176,2,0,B|416:224|448:224|448:256|448:288|416:288|384:288,1,140
288,320,66882,1,0,0:0:0:0:
128,320,67235,1,0,0:0:0:0:
416,320,67588,1,0,0:0:0:0:
288,320,67941,1,0,0:0:0:0:
96,128,68294,6,0,L|160:96,1,70
254,117,68647,1,0,0:0:0:0:
224,192,68823,2,0,L|160:224,1,70
256,192,69705,1,0,0:0:0:0:
96,320,70411,5,0,0:0:0:0:
192,288,70588,1,0,0:0:0:0:
128,224,70764,1,0,0:0:0:0:
224,128,71117,6,0,B|192:160|192:192|224:224|256:224|256:192|288:192,1,140
416,320,71823,5,0,0:0:0:0:
96,320,72176,1,0,0:0:0:0:
256,96,72529,1,0,0:0:0:0:
82,125,74999,5,0,0:0:0:0:
108,116,75176,1,0,0:0:0:0:
74,98,75352,1,0,0:0:0:0:
154,97,75529,2,0,L|178:95,3,23.3333333333333
287,321,76058,2,0,B|246:319|229:297|234:276|254:258|273:267|289:257|274:226|264:226,1,140
202,225,76765,1,0,0:0:0:0:
218,194,76941,1,0,0:0:0:0:
147,130,77117,5,0,0:0:0:0:
34,324,77470,1,0,0:0:0:0:
438,195,77823,1,0,0:0:0:0:
251,247,78176,1,0,0:0:0:0:
402,323,78529,1,0,0:0:0:0:
95,92,78882,1,0,0:0:0:0:
245,244,79235,1,0,0:0:0:0:
295,96,79588,6,0,P|328:159|360:127,1,140
254,191,80647,1,0,0:0:0:0:
160,256,80823,1,0,0:0:0:0:
64,320,80999,1,0,0:0:0:0:
320,128,81176,1,0,0:0:0:0:
254,191,81352,1,0,0:0:0:0:
64,320,81705,2,0,L|192:224,1,140
448,352,82411,5,0,0:0:0:0:
290,238,82764,2,0,B|322:238|322:206|354:206|354:174|322:174|322:142|290:142,1,140
226,142,83470,2,0,B|194:142|194:174|162:174|162:206|194:206|194:238|226:238,1,140
64,64,84176,1,0,0:0:0:0:
192,64,84529,1,0,0:0:0:0:
320,64,84882,1,0,0:0:0:0:
416,64,85235,2,0,L|416:224,1,140
192,128,86294,5,0,0:0:0:0:
128,192,86470,2,0,L|64:256,1,70
181,242,86823,1,0,0:0:0:0:
128,288,86999,1,0,0:0:0:0:
256,320,87352,2,0,L|224:352,6,23.3333333333333
352,256,88058,1,0,0:0:0:0:
256,192,88235,1,0,0:0:0:0:
416,128,88411,1,0,0:0:0:0:
352,32,88588,1,0,0:0:0:0:
224,64,88764,1,0,0:0:0:0:
160,224,89117,6,0,B|160:128|256:128|352:128|352:224|352:320|256:320|192:320,1,420
160,224,90529,1,0,0:0:0:0:
448,352,90882,1,0,0:0:0:0:
352,64,91235,1,0,0:0:0:0:
96,128,91588,6,0,L|160:192,1,70
160,256,91941,1,0,0:0:0:0:
96,320,92294,1,0,0:0:0:0:
160,320,92470,1,0,0:0:0:0:
288,256,92647,1,0,0:0:0:0:
352,128,92999,6,0,P|416:96|448:160,1,140
64,352,94058,1,0,0:0:0:0:
448,32,94764,1,0,0:0:0:0:
448,160,95117,1,0,0:0:0:0:
320,160,95470,1,0,0:0:0:0:
192,224,96176,1,0,0:0:0:0:
64,224,96529,1,0,0:0:0:0:
64,352,96882,1,0,0:0:0:0:
64,64,97588,5,0,0:0:0:0:
256,192,97941,1,0,0:0:0:0:
448,320,98294,2,0,L|64:64,2,420
448,64,100764,1,0,0:0:0:0:
64,64,101117,1,0,0:0:0:0:
64,320,101470,2,0,L|224:320,1,140
256,192,102529,1,0,0:0:0:0:
256,192,102882,1,0,0:0:0:0:
256,192,103235,1,0,0:0:0:0:
256,192,103588,1,0,0:0:0:0:
448,192,103941,5,0,0:0:0:0:
