osu file format v14

[General]
AudioFilename: audio.mp3
AudioLeadIn: 0
PreviewTime: 185702
Countdown: 0
SampleSet: Soft
StackLeniency: 0.5
Mode: 0
LetterboxInBreaks: 0
EpilepsyWarning: 1
WidescreenStoryboard: 1

[Editor]
DistanceSpacing: 1.7
BeatDivisor: 4
GridSize: 4
TimelineZoom: 1.7

[Metadata]
Title:Sakebe
TitleUnicode:叫べ
Artist:Manami Numakura
ArtistUnicode:沼倉愛美
Creator:Mishima Yurara
Version:Pon
Source:魔法少女育成計画
Tags:Mahou Shoujo Ikusei Keikaku Magical Girl Raising Project まほいく Mahoiku Little Cloudsplash16 doormat depths Kalibe Curi [C_u_r_i] sahuang my angel azusa gaia pkk CelsiusLK -[Koinuri] Koinuri Mikii RLC VINXIS Delis
BeatmapID:1165959
BeatmapSetID:550344

[Difficulty]
HPDrainRate:5
CircleSize:4.2
OverallDifficulty:9.5
ApproachRate:9.6
SliderMultiplier:1.9
SliderTickRate:1

[Events]
//Background and Video events
0,0,"camel.png",0,0
//Break Periods
2,186702,195116
2,205363,206193
//Storyboard Layer 0 (Background)
//Storyboard Layer 1 (Fail)
//Storyboard Layer 2 (Pass)
//Storyboard Layer 3 (Foreground)
//Storyboard Sound Samples

[TimingPoints]
857,304.568527918782,4,2,1,60,1,0
3318,307.692307692308,4,2,1,60,1,0
5471,-125,4,2,1,60,0,0
5779,-100,4,2,1,60,0,0
7933,-125,4,2,1,60,0,0
8241,-100,4,2,1,60,0,0
15318,-125,4,2,1,60,0,0
15625,-100,4,2,1,60,0,0
17779,-125,4,2,1,60,0,0
18087,-100,4,2,1,60,0,0
20241,-125,4,2,1,60,0,0
20548,-100,4,2,1,60,0,0
22702,-83.3333333333333,4,2,1,60,0,0
23625,-133.333333333333,4,2,2,30,0,0
24241,-133.333333333333,4,2,2,50,0,0
34087,-117.647058823529,4,2,1,60,0,0
42702,-133.333333333333,4,2,1,60,0,0
43010,-103.092783505155,4,2,1,60,0,0
43933,-100,4,2,1,70,0,0
51318,-166.666666666667,4,2,1,60,0,0
53625,-83.3333333333333,4,2,1,80,0,1
73471,-76.9230769230769,4,2,1,80,0,1
78394,-100,4,2,1,70,0,0
80548,-125,4,2,1,70,0,0
80856,-100,4,2,1,70,0,0
83010,-125,4,2,1,70,0,0
83318,-100,4,2,1,70,0,0
88241,-200,4,2,2,50,0,0
89318,-166.666666666667,4,2,2,50,0,0
90394,-100,4,2,2,50,0,0
90702,-125,4,2,1,60,0,0
100548,-111.111111111111,4,2,1,60,0,0
120087,-83.3333333333333,4,2,1,80,0,1
139933,-76.9230769230769,4,2,1,80,0,1
144856,-90.9090909090909,4,2,1,60,0,0
147010,-111.111111111111,4,2,1,60,0,0
147318,-90.9090909090909,4,2,1,60,0,0
151933,-111.111111111111,4,2,1,60,0,0
152241,-90.9090909090909,4,2,1,60,0,0
159318,-111.111111111111,4,2,1,60,0,0
159625,-90.9090909090909,4,2,1,60,0,0
161779,-111.111111111111,4,2,1,60,0,0
162087,-90.9090909090909,4,2,1,60,0,0
163933,-71.4285714285714,4,2,1,60,0,0
164548,-90.9090909090909,4,2,1,60,0,0
168856,-71.4285714285714,4,2,1,60,0,0
169471,-90.9090909090909,4,2,1,60,0,0
173779,-90.9090909090909,4,2,1,80,0,0
183164,-90.9090909090909,4,2,1,50,0,0
183625,-90.9090909090909,4,2,1,65,0,0
183933,-90.9090909090909,4,2,1,80,0,0
195625,-133.333333333333,4,2,2,40,0,0
201471,-200,4,2,2,40,0,0
204856,-66.6666666666667,4,2,2,40,0,0
206702,-200,4,2,2,40,0,0
207471,-83.3333333333333,4,2,1,80,0,1
227318,-76.9230769230769,4,2,1,80,0,1
232241,-100,4,2,1,60,0,0
234394,-125,4,2,1,60,0,0
234702,-100,4,2,1,60,0,0
236856,-125,4,2,1,60,0,0
237164,-100,4,2,1,60,0,0

[Colours]
Combo1 : 255,128,0
Combo2 : 223,159,191
Combo3 : 198,0,74
Combo4 : 193,0,0
Combo5 : 223,223,159
Combo6 : 217,201,0

[HitObjects]
256,192,857,12,8,2988,0:3:0:0:
488,287,3318,22,0,B|442:300|442:300|390:286,1,95,6|0,0:0|0:0,0:0:0:0:
198,76,3625,1,8,0:0:0:0:
243,310,3779,1,0,0:0:0:0:
243,310,3856,1,2,0:0:0:0:
243,310,3933,2,0,L|254:184,2,95,2|0|2,0:0|0:0|0:0,0:0:0:0:
198,76,4394,38,0,B|247:76|277:35|277:35|327:25|375:41,1,190,8|2,0:0|0:0,0:0:0:0:
34,299,4856,2,0,L|45:186,1,95,8|0,0:0|0:0,0:0:0:0:
43,204,5087,1,2,0:0:0:0:
43,204,5164,1,2,0:0:0:0:
332,239,5318,1,0,0:0:0:0:
198,76,5471,38,0,P|141:72|86:87,1,114,8|0,0:0|0:0,0:0:0:0:
220,64,5779,38,0,L|232:193,1,95,2|0,0:0|0:0,0:0:0:0:
329,384,6087,2,0,L|338:290,1,95,8|0,0:0|0:0,0:0:0:0:
403,198,6318,1,8,0:0:0:0:
420,170,6394,2,0,P|467:163|513:174,1,95,0|0,3:0|0:0,0:0:0:0:
261,261,6702,1,2,0:0:0:0:
313,28,6856,38,0,P|359:21|405:32,1,95,8|0,0:0|0:0,0:0:0:0:
142,217,7164,2,0,P|95:224|50:213,1,95,2|8,0:0|0:0,0:0:0:0:
411,75,7471,1,0,0:0:0:0:
411,75,7548,1,2,0:0:0:0:
411,75,7625,2,0,L|420:181,1,95,2|2,0:0|0:0,0:0:0:0:
135,85,7933,38,0,P|174:82|252:81,1,114,8|0,0:0|0:0,0:0:0:0:
117,100,8241,38,0,P|107:14|110:-33,1,95,6|0,0:0|0:0,0:0:0:0:
351,231,8548,1,8,0:0:0:0:
99,262,8702,1,0,0:0:0:0:
99,262,8779,1,8,0:0:0:0:
99,262,8856,2,0,P|47:192|26:150,2,95,2|0|2,0:0|0:0|0:0,0:0:0:0:
410,148,9318,38,0,P|328:152|352:232,1,190,8|2,0:0|0:0,0:0:0:0:
383,9,9779,2,0,P|333:7|256:18,1,95,8|0,0:0|0:0,0:0:0:0:
183,77,10010,1,8,0:0:0:0:
183,77,10087,38,0,P|166:135|171:169,2,63.3333333333333,2|0|0,0:0|0:0|0:0,0:0:0:0:
244,242,10394,2,0,P|261:300|256:334,2,63.3333333333333,8|0|0,0:0|0:0|0:0,0:0:0:0:
41,308,10702,38,0,P|88:315|135:309,1,95,2|0,0:0|0:0,0:0:0:0:
449,171,11010,2,0,P|408:163|343:175,1,95,8|0,0:0|0:0,0:0:0:0:
244,242,11241,1,8,0:0:0:0:
232,211,11318,2,0,L|243:108,1,95,2|0,0:0|0:0,0:0:0:0:
395,53,11625,1,2,0:0:0:0:
430,191,11779,38,0,P|354:186|255:72,1,190,8|2,0:0|0:0,0:0:0:0:
48,283,12241,2,0,P|118:286|163:309,1,95,8|2,0:0|0:0,0:0:0:0:
245,367,12471,1,0,0:0:0:0:
233,336,12548,2,0,L|244:233,1,95,0|0,1:0|0:0,0:0:0:0:
271,1,12856,1,2,0:0:0:0:
47,105,13010,1,8,0:0:0:0:
47,105,13087,1,8,0:0:0:0:
47,105,13164,38,0,B|94:114|94:114|140:108,1,95,6|0,0:0|0:0,0:0:0:0:
349,183,13471,2,0,B|396:174|396:174|442:179,1,95,8|0,0:0|0:0,0:0:0:0:
403,255,13702,1,8,0:0:0:0:
403,255,13779,1,0,3:0:0:0:
247,208,13933,1,0,0:0:0:0:
365,97,14087,1,2,0:0:0:0:
140,107,14241,38,0,L|124:7,1,95,8|0,0:0|0:0,0:0:0:0:
275,309,14548,2,0,L|291:209,1,95,2|8,0:0|0:0,0:0:0:0:
458,85,14856,1,0,0:0:0:0:
458,85,14933,1,2,0:0:0:0:
458,85,15010,2,0,L|442:178,1,95,2|0,0:0|0:0,0:0:0:0:
216,186,15318,38,0,B|205:117|205:117|179:81,1,114,8|0,0:0|0:0,0:0:0:0:
27,156,15625,38,0,B|62:160|62:160|88:149|88:149|120:153,1,95,2|0,0:0|0:0,0:0:0:0:
306,260,15933,2,0,B|341:256|341:256|367:267|367:267|398:263,1,95,8|0,0:0|0:0,0:0:0:0:
398,262,16164,1,8,0:0:0:0:
398,262,16241,1,0,3:0:0:0:
216,311,16394,1,0,0:0:0:0:
308,130,16548,1,2,0:0:0:0:
100,324,16702,38,0,P|56:338|9:332,1,95,8|0,0:0|0:0,0:0:0:0:
157,36,17010,2,0,P|204:30|248:45,1,95,2|8,0:0|0:0,0:0:0:0:
447,284,17318,1,0,0:0:0:0:
447,284,17394,1,2,0:0:0:0:
447,284,17471,2,0,L|343:293,1,95,2|2,0:0|0:0,0:0:0:0:
119,152,17779,38,0,L|255:163,1,114,8|0,0:0|0:0,0:0:0:0:
257,164,18087,37,6,0:0:0:0:
82,266,18241,1,0,0:0:0:0:
157,36,18394,1,8,0:0:0:0:
204,39,18471,1,0,0:0:0:0:
251,43,18548,1,0,0:0:0:0:
299,47,18625,1,0,0:0:0:0:
346,51,18702,2,0,L|471:38,1,95,2|0,0:0|0:0,0:0:0:0:
276,167,19010,1,2,0:0:0:0:
461,223,19164,38,0,B|464:152|464:152|438:110|438:110|440:41,1,190,8|2,0:0|0:0,0:0:0:0:
360,297,19625,2,0,P|375:355|393:384,1,95,8|0,0:0|0:0,0:0:0:0:
299,170,19856,1,2,0:0:0:0:
276,167,19933,2,0,P|229:174|189:199,1,95,2|2,0:0|0:0,0:0:0:0:
346,51,20241,38,0,L|196:37,1,114,8|0,0:0|0:0,0:0:0:0:
209,38,20548,37,2,0:0:0:0:
193,384,20856,1,8,0:0:0:0:
60,186,21010,1,0,0:0:0:0:
60,186,21087,1,8,0:0:0:0:
60,186,21164,2,0,L|64:297,1,95,2|0,0:0|0:0,0:0:0:0:
247,142,21471,1,2,0:0:0:0:
333,354,21625,38,0,P|397:363|497:323,1,142.5,8|0,0:0|0:0,0:0:0:0:
512,275,21933,1,2,0:0:0:0:
331,58,22087,2,0,L|336:217,1,142.5,8|8,0:0|0:0,0:0:0:0:
270,272,22394,37,2,0:0:0:0:
225,256,22471,1,2,0:0:0:0:
178,253,22548,1,2,0:0:0:0:
131,263,22625,1,2,0:0:0:0:
89,285,22702,2,0,L|94:217,1,56.9999982604981,8|0,0:0|0:0,0:0:0:0:
436,180,22856,2,0,L|440:236,1,56.9999982604981,2|0,0:0|0:0,0:0:0:0:
436,180,23625,5,2,3:0:0:0:
436,180,23933,1,2,3:0:0:0:
436,180,24241,54,0,P|383:187|322:173,1,106.875004076958,0|0,3:0|0:0,0:0:0:0:
331,176,24548,1,8,3:0:0:0:
205,276,24702,2,0,L|250:273,1,35.625001358986,0|0,3:0|3:0,0:0:0:0:
161,185,24856,37,2,3:0:0:0:
133,352,25010,1,2,3:0:0:0:
251,154,25164,1,2,3:0:0:0:
68,263,25318,1,10,3:0:0:0:
68,263,25625,37,2,3:0:0:0:
246,181,25779,1,8,3:0:0:0:
260,384,25933,1,0,3:0:0:0:
260,384,26010,1,0,3:0:0:0:
260,384,26087,1,2,3:0:0:0:
163,255,26241,2,0,P|158:220|161:185,2,71.2500027179719,0|8|0,3:0|3:0|3:0,0:0:0:0:
269,67,26702,38,0,P|194:56|109:73,1,142.500005435944,0|8,3:0|3:0,0:0:0:0:
327,201,27164,2,0,B|368:210|368:210|407:178|383:91,1,142.500005435944,0|8,3:0|3:0,0:0:0:0:
319,52,27625,1,0,0:0:0:0:
237,262,27779,2,0,L|407:307,1,142.500005435944,8|0,3:0|0:0,0:0:0:0:
162,179,28241,38,0,P|106:182|83:192,1,71.2500027179719,8|0,0:3|0:0,0:0:0:0:
92,187,28471,1,0,0:0:0:0:
92,187,28548,1,0,0:0:0:0:
266,149,28702,2,0,P|253:106|227:69,2,71.2500027179719,0|8|0,0:0|0:3|0:0,0:0:0:0:
125,383,29164,38,0,P|139:326|137:273,1,106.875004076958,0|0,3:0|0:0,0:0:0:0:
137,278,29471,1,8,3:0:0:0:
93,53,29625,2,0,L|100:93,1,35.625001358986,0|0,3:0|3:0,0:0:0:0:
162,179,29779,37,2,3:0:0:0:
0,127,29933,1,2,3:0:0:0:
218,64,30087,1,2,3:0:0:0:
143,281,30241,1,10,3:0:0:0:
143,281,30548,37,2,3:0:0:0:
361,227,30702,1,8,3:0:0:0:
256,293,30856,1,0,3:0:0:0:
256,293,30933,1,0,3:0:0:0:
256,293,31010,1,2,3:0:0:0:
315,109,31164,2,0,L|307:38,2,71.2500027179719,0|8|0,3:0|3:0|3:0,0:0:0:0:
200,178,31625,37,0,3:0:0:0:
441,260,31779,2,0,P|446:225|438:189,1,71.2500027179719,8|0,3:0|3:0,0:0:0:0:
399,323,32087,2,0,P|427:301|447:270,1,71.2500027179719,8|0,3:0|3:0,0:0:0:0:
324,337,32394,2,0,P|358:342|395:334,1,71.2500027179719,8|0,3:0|3:0,0:0:0:0:
266,195,32702,38,0,P|272:264|323:313,1,142.500005435944,8|0,3:0|3:0,0:0:0:0:
177,269,33164,2,0,P|115:261|77:270,1,71.2500027179719,8|0,3:0|3:0,0:0:0:0:
77,274,33394,1,2,3:0:0:0:
51,292,33471,1,2,3:0:0:0:
177,169,33625,1,2,3:0:0:0:
7,127,33779,1,2,3:0:0:0:
132,54,33933,1,0,3:0:0:0:
14,161,34087,38,0,L|25:-17,1,161.500003080368,6|8,0:0|0:0,0:0:0:0:
274,90,34548,1,0,0:0:0:0:
270,117,34625,1,4,0:3:0:0:
259,142,34702,1,2,0:0:0:0:
132,54,34856,1,8,0:3:0:0:
410,32,35010,1,0,0:0:0:0:
240,162,35164,38,0,B|231:227|231:227|254:353,1,161.500003080368,8|2,0:0|0:0,0:0:0:0:
390,222,35625,2,0,L|310:222,1,80.750001540184,8|0,0:0|0:0,0:0:0:0:
161,302,35856,1,4,0:3:0:0:
147,309,35933,2,0,L|158:196,1,80.750001540184,2|8,0:0|0:3,0:0:0:0:
183,0,36241,1,8,0:0:0:0:
0,117,36394,1,0,0:0:0:0:
262,151,36548,38,0,B|366:165|307:112|432:126,1,161.500003080368,2|8,0:0|0:0,0:0:0:0:
437,308,37010,1,0,0:0:0:0:
411,320,37087,1,4,0:3:0:0:
382,319,37164,1,2,0:0:0:0:
390,222,37318,1,8,0:3:0:0:
88,222,37625,1,8,0:0:0:0:
390,222,37933,37,2,0:0:0:0:
88,222,38087,2,0,L|102:105,1,80.750001540184,8|0,0:0|0:0,0:0:0:0:
113,27,38318,1,4,0:3:0:0:
131,50,38394,2,0,P|169:61|209:58,1,80.750001540184,2|8,0:0|0:3,0:0:0:0:
432,96,38702,2,0,P|387:56|368:-1,1,121.125002310276,8|0,0:0|0:0,0:0:0:0:
451,124,39010,38,0,L|272:118,1,161.500003080368,2|8,0:0|0:0,0:0:0:0:
191,246,39471,1,0,0:0:0:0:
202,271,39548,1,4,0:3:0:0:
219,293,39625,1,2,0:0:0:0:
209,57,39779,1,8,0:3:0:0:
25,206,39933,1,0,0:0:0:0:
242,308,40087,38,0,B|289:322|338:309|338:309|314:276|326:224,1,161.500003080368,8|2,0:0|0:0,0:0:0:0:
485,253,40548,2,0,L|405:261,1,80.750001540184,8|0,0:0|0:0,0:0:0:0:
262,142,40779,1,4,0:3:0:0:
289,118,40856,2,0,L|369:125,1,80.750001540184,2|8,0:0|0:3,0:0:0:0:
145,193,41164,2,0,L|25:206,1,121.125002310276,8|0,0:0|0:0,0:0:0:0:
169,202,41471,38,0,P|165:123|209:57,1,161.500003080368,2|8,0:0|0:0,0:0:0:0:
39,141,41933,1,0,0:0:0:0:
29,173,42010,1,4,0:3:0:0:
24,206,42087,1,2,0:0:0:0:
159,354,42241,1,8,0:3:0:0:
256,177,42394,1,0,0:0:0:0:
35,309,42548,1,8,0:0:0:0:
123,246,42702,54,0,L|205:260,1,71.2500027179719,0|4,0:0|0:3,0:0:0:0:
279,290,42933,1,4,0:3:0:0:
279,290,43010,1,8,0:0:0:0:
235,58,43164,1,8,0:0:0:0:
278,316,43318,2,0,P|322:327|368:327,1,92.1500021794511,8|8,0:0|0:0,0:0:0:0:
484,116,43625,2,0,P|439:104|394:103,1,92.1500021794511,8|8,0:0|0:0,0:0:0:0:
386,308,43933,21,6,0:0:0:0:
394,103,44087,1,0,0:0:0:0:
212,195,44241,1,8,0:0:0:0:
212,195,44394,1,0,0:0:0:0:
478,233,44548,2,0,L|493:118,1,95,2|0,0:0|0:0,0:0:0:0:
265,31,44856,2,0,L|277:125,1,95,8|0,0:0|0:0,0:0:0:0:
82,319,45164,38,0,P|39:298|17:257,1,95,2|0,0:0|0:0,0:0:0:0:
386,245,45471,2,0,P|430:229|478:233,1,95,8|0,0:0|0:0,0:0:0:0:
240,217,45779,2,0,L|100:241,1,142.5,2|0,0:0|0:0,0:0:0:0:
305,334,46087,2,0,L|446:358,1,142.5,8|0,0:0|0:0,0:0:0:0:
446,358,46394,37,2,0:0:0:0:
321,188,46548,1,0,0:0:0:0:
469,29,46702,1,8,0:0:0:0:
469,29,46856,1,0,0:0:0:0:
282,79,47010,2,0,L|187:66,1,95,2|0,0:0|0:0,0:0:0:0:
405,269,47318,2,0,L|499:256,1,95,8|0,0:0|0:0,0:0:0:0:
219,187,47625,38,0,B|211:233|211:233|222:279,1,95,2|0,0:0|0:0,0:0:0:0:
465,121,47933,2,0,B|476:74|476:74|468:28,1,95,8|0,0:0|0:0,0:0:0:0:
323,102,48241,2,0,L|465:121,1,142.5,2|0,0:0|0:0,0:0:0:0:
219,187,48548,2,0,L|77:205,1,142.5,8|0,0:0|0:0,0:0:0:0:
46,89,48856,38,0,P|45:41|64:-1,1,95,2|0,0:0|0:0,0:0:0:0:
127,290,49164,1,8,0:0:0:0:
127,290,49318,1,0,0:0:0:0:
283,106,49471,2,0,P|330:100|377:105,1,95,2|0,0:0|0:0,0:0:0:0:
333,246,49779,1,8,0:0:0:0:
190,121,49933,1,0,0:0:0:0:
349,3,50087,37,8,0:0:0:0:
426,246,50241,2,0,P|413:291|383:327,1,95,2|0,0:0|0:0,0:0:0:0:
104,154,50548,37,8,0:0:0:0:
377,105,50702,2,0,L|490:86,1,95,2|2,0:0|0:0,0:0:0:0:
241,340,51010,5,8,0:0:0:0:
188,14,51164,1,8,0:0:0:0:
261,256,51318,6,0,L|259:196,1,56.9999982604981,2|0,0:1|0:0,0:0:0:0:
254,284,51625,2,0,L|252:224,1,56.9999982604981,2|0,0:1|0:0,0:0:0:0:
247,312,51933,2,0,L|245:252,1,56.9999982604981,2|0,0:1|0:0,0:0:0:0:
241,340,52241,1,2,0:1:0:0:
188,14,52394,1,2,0:1:0:0:
512,123,52548,37,8,0:0:0:0:
512,123,52625,1,8,0:0:0:0:
512,123,52702,2,0,L|478:130,1,28.4999991302491,4|4,0:3|0:3,0:0:0:0:
430,361,52856,1,8,0:0:0:0:
452,383,53164,69,0,0:0:0:0:
452,383,53241,1,0,0:0:0:0:
452,383,53318,1,0,0:0:0:0:
452,383,53394,1,0,0:0:0:0:
452,383,53471,1,0,0:0:0:0:
452,383,53548,1,0,0:0:0:0:
452,383,53625,38,0,P|456:332|433:264,1,113.999996520996,6|0,0:0|0:0,0:0:0:0:
192,216,53933,1,0,0:0:0:0:
335,13,54087,1,8,0:0:0:0:
74,59,54241,38,0,L|83:174,1,113.999996520996,2|0,0:0|0:0,0:0:0:0:
357,124,54548,1,2,0:0:0:0:
260,384,54702,1,8,0:0:0:0:
214,187,54856,38,0,L|218:62,1,113.999996520996,2|0,0:0|0:0,0:0:0:0:
452,383,55164,2,0,L|448:258,1,113.999996520996,2|8,0:0|0:0,0:0:0:0:
238,352,55471,1,2,0:0:0:0:
385,136,55625,1,0,0:0:0:0:
355,307,55779,1,2,0:0:0:0:
319,0,55933,1,8,0:0:0:0:
78,193,56087,1,2,0:0:0:0:
399,155,56241,38,0,L|512:163,1,113.999996520996,2|0,0:0|0:0,0:0:0:0:
356,349,56548,1,8,0:0:0:0:
178,184,56702,2,0,P|157:113|159:52,1,113.999996520996,2|0,0:0|0:0,0:0:0:0:
416,180,57010,1,2,0:0:0:0:
221,341,57164,1,8,0:0:0:0:
317,47,57318,38,0,L|446:60,1,113.999996520996,2|0,0:0|0:0,0:0:0:0:
145,176,57625,2,0,L|16:189,1,113.999996520996,2|8,0:0|0:0,0:0:0:0:
356,349,57933,2,0,L|485:362,1,113.999996520996,2|0,0:0|0:0,0:0:0:0:
271,120,58241,1,2,0:0:0:0:
95,298,58394,1,8,0:0:0:0:
361,233,58548,1,0,0:0:0:0:
361,233,58625,1,0,0:0:0:0:
361,233,58702,37,2,1:2:0:0:
173,40,58856,1,0,0:0:0:0:
95,298,59010,1,8,0:0:0:0:
354,143,59164,38,0,P|402:146|421:155,1,56.9999982604981,2|0,1:2|0:0,0:0:0:0:
312,353,59318,1,0,0:0:0:0:
209,189,59471,1,2,0:0:0:0:
476,302,59625,1,8,0:0:0:0:
200,341,59779,38,0,L|211:285,1,56.9999982604981,2|0,1:2|0:0,0:0:0:0:
250,99,59933,1,0,0:0:0:0:
380,276,60087,1,2,0:0:0:0:
430,34,60241,1,8,0:0:0:0:
209,189,60394,38,0,P|280:192|326:163,1,113.999996520996,2|0,1:2|0:0,0:0:0:0:
85,60,60702,1,2,0:0:0:0:
112,314,60856,1,8,1:2:0:0:
250,99,61010,1,0,0:0:0:0:
320,358,61164,38,0,B|385:366|385:366|441:343|451:278|428:213,1,227.999993041992,2|8,0:0|0:0,0:0:0:0:
209,189,61625,1,0,0:0:0:0:
401,126,61779,2,0,L|414:6,1,113.999996520996,2|2,0:0|0:0,0:0:0:0:
359,279,62087,1,8,0:0:0:0:
231,86,62241,38,0,P|183:88|126:121,1,113.999996520996,2|0,0:0|0:0,0:0:0:0:
351,166,62548,2,0,L|357:107,1,56.9999982604981,2|0,0:0|0:0,0:0:0:0:
209,189,62702,1,10,0:0:0:0:
210,217,62779,1,2,0:0:0:0:
211,245,62856,1,2,0:0:0:0:
212,274,62933,1,2,0:0:0:0:
214,302,63010,37,2,0:0:0:0:
267,285,63087,1,0,0:0:0:0:
293,236,63164,1,0,0:0:0:0:
278,183,63241,1,0,0:0:0:0:
231,154,63318,1,8,0:0:0:0:
176,167,63394,1,0,0:0:0:0:
146,213,63471,38,0,P|100:221|27:187,1,113.999996520996,6|0,1:2|0:0,0:0:0:0:
246,26,63779,1,2,0:0:0:0:
3,66,63933,1,8,0:0:0:0:
231,154,64087,1,2,0:0:0:0:
114,0,64241,1,0,0:0:0:0:
361,68,64394,1,2,0:0:0:0:
103,138,64548,1,8,0:0:0:0:
371,285,64702,38,0,P|376:228|367:172,1,113.999996520996,2|0,1:2|0:0,0:0:0:0:
213,384,65010,1,2,0:0:0:0:
474,354,65164,1,8,0:0:0:0:
231,288,65318,2,0,B|163:281|122:337|122:337|63:322|48:243,1,227.999993041992,2|2,0:0|0:0,0:0:0:0:
159,14,65779,1,8,0:0:0:0:
355,203,65933,1,0,0:0:0:0:
107,181,66087,38,0,P|50:167|3:133,1,113.999996520996,2|0,1:2|0:0,0:0:0:0:
333,40,66394,1,8,0:0:0:0:
221,270,66548,2,0,L|213:384,1,113.999996520996,2|0,0:0|0:0,0:0:0:0:
366,172,66856,1,2,0:0:0:0:
159,14,67010,1,8,0:0:0:0:
355,203,67164,38,0,L|491:223,1,113.999996520996,2|0,1:2|0:0,0:0:0:0:
118,118,67471,2,0,L|-18:138,1,113.999996520996,2|8,0:0|0:0,0:0:0:0:
213,384,67779,2,0,L|221:270,1,113.999996520996,2|0,0:0|0:0,0:0:0:0:
357,52,68087,1,2,0:0:0:0:
329,319,68241,1,8,0:0:0:0:
137,150,68394,1,2,0:0:0:0:
137,150,68471,1,0,0:0:0:0:
137,150,68548,37,6,1:2:0:0:
403,163,68702,1,0,0:0:0:0:
120,241,68856,1,8,0:0:0:0:
356,342,69010,1,2,0:0:0:0:
283,118,69164,38,0,P|277:156|277:188,1,56.9999982604981,0|0,1:2|0:0,0:0:0:0:
512,260,69318,1,2,0:0:0:0:
242,286,69471,1,8,0:0:0:0:
386,38,69625,38,0,L|453:47,1,56.9999982604981,2|0,1:2|0:0,0:0:0:0:
173,137,69779,1,0,0:0:0:0:
385,255,69933,1,2,0:0:0:0:
281,27,70087,1,8,0:0:0:0:
236,318,70241,38,0,L|59:294,1,170.999994781494,2|0,0:0|0:0,0:0:0:0:
40,290,70548,1,2,0:0:0:0:
400,232,70702,2,0,P|413:189|405:115,1,113.999996520996,8|0,1:2|0:0,0:0:0:0:
315,384,71010,37,2,0:0:0:0:
507,248,71164,1,0,0:0:0:0:
286,168,71318,1,8,1:2:0:0:
496,37,71471,1,0,0:0:0:0:
172,50,71625,1,2,0:0:0:0:
374,250,71779,1,0,0:0:0:0:
336,5,71933,1,8,1:2:0:0:
142,177,72087,38,0,L|123:317,1,113.999996520996,2|0,1:2|0:0,0:0:0:0:
459,177,72394,2,0,L|478:317,1,113.999996520996,2|8,0:0|0:0,0:0:0:0:
260,49,72702,2,0,L|447:60,1,170.999994781494,2|0,0:0|0:0,0:0:0:0:
458,62,73010,1,0,1:0:0:0:
157,153,73164,2,0,P|106:157|37:134,1,113.999996520996,8|0,1:2|1:0,0:0:0:0:
374,250,73471,38,0,P|387:324|375:387,1,123.499994346619,12|0,0:0|0:0,0:0:0:0:
118,66,73779,1,0,0:0:0:0:
389,26,73933,2,0,L|525:35,1,123.499994346619,8|0,0:0|0:0,0:0:0:0:
279,318,74241,1,0,0:0:0:0:
279,22,74394,1,2,0:0:0:0:
428,177,74548,1,0,0:0:0:0:
157,153,74702,37,12,0:0:0:0:
512,57,74856,1,0,0:0:0:0:
367,384,75010,1,0,0:0:0:0:
302,41,75164,37,12,0:0:0:0:
449,191,75318,2,0,L|465:315,1,123.499994346619,0|0,0:0|0:0,0:0:0:0:
164,188,75625,1,2,0:0:0:0:
428,91,75779,1,0,0:0:0:0:
265,349,75933,37,12,0:0:0:0:
144,74,76087,1,0,0:0:0:0:
441,115,76241,1,0,0:0:0:0:
149,214,76394,37,12,0:0:0:0:
330,10,76548,2,0,L|474:19,1,123.499994346619,0|0,0:0|0:0,0:0:0:0:
262,220,76856,1,8,0:0:0:0:
501,356,77010,1,8,0:0:0:0:
321,110,77164,37,2,0:0:0:0:
184,358,77318,1,12,0:0:0:0:
158,356,77394,1,8,0:3:0:0:
132,354,77471,1,8,0:3:0:0:
106,352,77548,1,8,0:3:0:0:
81,350,77625,1,8,0:3:0:0:
55,349,77702,1,8,0:3:0:0:
30,345,77779,37,8,0:0:0:0:
25,287,77856,1,4,0:3:0:0:
50,236,77933,1,4,0:3:0:0:
98,205,78010,1,4,0:3:0:0:
155,202,78087,1,8,0:0:0:0:
206,228,78164,1,8,0:0:0:0:
236,276,78241,1,8,0:0:0:0:
238,334,78318,1,8,0:0:0:0:
210,384,78394,38,0,L|320:378,1,95,6|0,0:0|0:0,0:0:0:0:
493,277,78702,1,8,0:0:0:0:
352,132,78856,1,0,0:0:0:0:
352,132,78933,1,2,0:0:0:0:
352,132,79010,2,0,B|339:178|339:178|350:236,2,95,2|0|2,0:0|0:0|0:0,0:0:0:0:
293,312,79471,38,0,B|339:337|386:318|386:318|433:295|477:315,1,190,8|2,0:0|0:0,0:0:0:0:
155,202,79933,2,0,P|109:192|63:202,1,95,8|0,0:0|0:0,0:0:0:0:
62,202,80164,1,2,0:0:0:0:
62,202,80241,1,2,0:0:0:0:
293,312,80394,1,0,0:0:0:0:
344,118,80548,38,0,L|352:4,1,114,8|0,0:0|0:0,0:0:0:0:
356,150,80856,38,0,P|309:160|263:150,1,95,2|0,0:0|0:0,0:0:0:0:
16,131,81164,2,0,P|62:121|108:131,1,95,8|0,0:0|0:0,0:0:0:0:
182,229,81394,1,2,0:0:0:0:
199,256,81471,2,0,L|207:379,1,95,2|0,0:0|0:0,0:0:0:0:
62,202,81779,1,2,0:0:0:0:
269,55,81933,38,0,L|261:178,1,95,8|0,0:0|0:0,0:0:0:0:
73,383,82241,2,0,L|66:288,1,95,2|8,0:0|0:0,0:0:0:0:
371,231,82548,1,0,0:0:0:0:
371,231,82625,1,2,0:0:0:0:
371,230,82702,2,0,P|324:237|278:228,1,95,2|0,0:0|0:0,0:0:0:0:
183,75,83010,38,0,P|181:33|249:11,1,114,8|0,0:0|0:0,0:0:0:0:
193,103,83318,38,0,P|140:91|90:98,1,95,6|0,0:0|0:0,0:0:0:0:
0,301,83625,1,8,0:0:0:0:
213,289,83779,1,0,0:0:0:0:
213,289,83856,1,2,0:0:0:0:
213,289,83933,2,0,P|179:256|137:236,2,95,2|0|2,0:0|0:0|0:0,0:0:0:0:
5,271,84394,38,0,L|21:73,1,190,8|2,0:0|0:0,0:0:0:0:
285,133,84856,2,0,L|277:227,1,95,8|0,0:0|0:0,0:0:0:0:
258,361,85087,1,2,0:0:0:0:
258,361,85164,38,0,P|205:373|170:376,2,63.3333333333333,2|0|0,0:0|0:0|0:0,0:0:0:0:
344,303,85471,2,0,P|379:309|415:319,2,63.3333333333333,8|0|0,0:0|0:0|0:0,0:0:0:0:
213,289,85779,38,0,P|194:245|196:198,1,95,6|0,0:0|0:0,0:0:0:0:
57,70,86087,2,0,P|59:117|40:160,1,95,8|0,0:0|0:0,0:0:0:0:
218,176,86318,1,2,0:0:0:0:
237,150,86394,2,0,L|245:56,1,95,2|2,0:0|0:0,0:0:0:0:
104,270,86702,1,2,0:0:0:0:
66,33,86856,38,0,P|159:17|245:55,1,190,8|2,0:0|0:0,0:0:0:0:
375,184,87318,2,0,P|443:187|503:172,1,95,8|0,0:0|0:0,0:0:0:0:
137,142,87625,1,0,0:0:0:0:
137,142,87702,1,0,0:0:0:0:
137,142,87779,2,0,L|138:205,1,47.5
292,205,87933,2,0,L|291:268,1,47.5,8|0,0:0|0:0,0:0:0:0:
195,334,88087,2,0,L|196:397,1,47.5,0|0,3:0|3:0,0:0:0:0:
446,315,88241,54,0,L|445:252,1,47.5,2|0,3:2|0:0,0:0:0:0:
296,209,88548,1,0,0:0:0:0:
296,209,88702,2,0,L|295:265,1,47.5,2|0,3:2|0:0,0:0:0:0:
388,123,89010,2,0,L|387:60,1,47.5,2|0,3:2|0:0,0:0:0:0:
106,117,89318,6,0,P|163:122|231:110,1,113.999996520996,2|0,0:0|0:0,0:0:0:0:
120,143,89779,2,0,P|153:148|196:150,1,56.9999982604981,0|0,3:0|0:0,0:0:0:0:
134,169,90087,2,0,P|177:183|241:187,1,85.4999973907472,0|0,3:0|0:0,0:0:0:0:
148,196,90394,70,0,P|192:225|248:243,1,95,10|0,3:0|0:0,0:0:0:0:
372,349,90702,54,0,P|316:338|260:349,1,114,6|0,0:0|0:0,0:0:0:0:
260,348,91010,1,8,0:0:0:0:
423,125,91318,37,2,0:0:0:0:
310,184,91471,1,2,0:0:0:0:
417,253,91625,1,2,0:0:0:0:
287,40,91779,1,8,0:0:0:0:
287,40,92087,37,2,0:0:0:0:
423,125,92241,2,0,L|417:37,1,76,8|0,0:0|0:0,0:0:0:0:
297,207,92548,1,2,0:0:0:0:
297,207,92702,1,2,0:0:0:0:
164,67,92856,1,8,0:0:0:0:
286,76,93010,1,0,0:0:0:0:
142,197,93164,38,0,P|66:198|0:165,1,152,2|8,0:0|0:0,0:0:0:0:
229,181,93625,1,0,3:0:0:0:
229,181,93702,1,0,3:0:0:0:
229,181,93779,2,0,P|195:198|159:208,1,76,2|2,0:0|0:0,0:0:0:0:
286,76,94087,1,2,0:0:0:0:
325,328,94241,1,8,0:0:0:0:
325,328,94548,37,2,0:0:0:0:
354,150,94702,1,8,0:0:0:0:
223,313,94856,1,0,3:0:0:0:
434,312,95010,1,2,0:0:0:0:
434,312,95164,1,2,0:0:0:0:
198,303,95318,2,0,L|110:308,1,76,8|0,0:0|0:0,0:0:0:0:
453,320,95625,38,0,P|468:248|456:190,1,114,2|0,0:0|0:0,0:0:0:0:
462,208,95933,1,8,0:0:0:0:
346,100,96087,2,0,L|350:148,1,38,0|0,3:0|3:0,0:0:0:0:
287,214,96241,37,2,0:0:0:0:
433,46,96394,1,2,0:0:0:0:
433,46,96702,1,8,0:0:0:0:
433,46,97010,37,2,0:0:0:0:
287,214,97164,1,8,0:0:0:0:
223,7,97318,1,0,3:0:0:0:
223,7,97394,1,0,3:0:0:0:
223,7,97471,1,2,0:0:0:0:
348,110,97625,1,2,0:0:0:0:
81,134,97779,2,0,P|79:96|79:58,1,76,8|0,0:0|0:0,0:0:0:0:
284,242,98087,38,0,P|224:249|178:287,1,114,2|0,0:0|0:0,0:0:0:0:
182,280,98394,1,8,0:0:0:0:
405,305,98548,2,0,L|407:253,1,38,0|0,3:0|3:0,0:0:0:0:
269,353,98702,37,2,0:0:0:0:
492,338,98856,1,2,0:0:0:0:
321,244,99010,1,2,0:0:0:0:
459,116,99164,1,8,0:0:0:0:
459,116,99471,37,2,0:0:0:0:
228,73,99625,2,0,L|85:85,1,114,8|0,0:0|0:0,0:0:0:0:
114,82,99933,1,2,0:0:0:0:
217,199,100087,1,2,0:0:0:0:
27,299,100241,1,8,0:0:0:0:
329,314,100394,1,0,3:0:0:0:
329,314,100471,1,0,3:0:0:0:
328,314,100548,38,0,P|337:272|341:229,1,85.4999973907472,6|2,0:0|0:0,0:0:0:0:
114,82,100856,2,0,P|118:124|126:166,1,85.4999973907472,8|2,0:0|0:0,0:0:0:0:
378,119,101164,2,0,P|336:110|293:106,1,85.4999973907472,0|2,0:0|0:0,0:0:0:0:
146,334,101471,2,0,P|188:329|230:321,1,85.4999973907472,8|0,0:0|0:0,0:0:0:0:
484,186,101779,38,0,L|490:100,1,85.4999973907472,0|2,0:0|0:0,0:0:0:0:
345,208,102087,1,8,0:0:0:0:
471,299,102241,1,2,0:0:0:0:
391,94,102394,2,0,L|270:80,1,85.4999973907472,0|2,0:0|0:0,0:0:0:0:
75,57,102702,1,8,0:0:0:0:
230,0,102856,1,0,0:0:0:0:
137,250,103010,38,0,P|126:190|126:155,1,85.4999973907472,2|0,0:0|0:0,0:0:0:0:
274,305,103318,1,8,0:0:0:0:
122,361,103471,1,2,0:0:0:0:
362,218,103625,2,0,P|408:214|463:222,1,85.4999973907472,0|2,0:0|0:0,0:0:0:0:
303,321,103933,1,8,0:0:0:0:
228,172,104087,38,0,L|245:1,1,170.999994781494,2|2,0:0|0:0,0:0:0:0:
329,211,104548,1,8,0:0:0:0:
97,211,104702,1,2,0:0:0:0:
349,83,104856,1,2,0:0:0:0:
218,307,105010,1,8,0:0:0:0:
135,66,105164,1,2,0:0:0:0:
329,211,105318,1,8,0:0:0:0:
26,253,105471,38,0,P|16:212|25:171,1,85.4999973907472,6|0,0:0|0:0,0:0:0:0:
329,211,105779,1,8,0:0:0:0:
97,211,105933,1,2,0:0:0:0:
264,70,106087,2,0,L|349:83,1,85.4999973907472,0|2,0:0|0:0,0:0:0:0:
209,273,106394,1,8,0:0:0:0:
329,211,106548,38,0,L|516:239,1,170.999994781494,2|2,0:0|0:0,0:0:0:0:
249,350,107010,2,0,P|207:358|166:349,1,85.4999973907472,8|2,0:0|0:0,0:0:0:0:
161,138,107318,37,0,0:0:0:0:
209,273,107471,1,2,0:0:0:0:
22,151,107625,1,8,0:0:0:0:
184,0,107779,1,2,0:0:0:0:
70,265,107933,37,2,0:0:0:0:
322,194,108087,1,0,0:0:0:0:
112,55,108241,2,0,L|13:47,1,85.4999973907472,8|2,0:0|0:0,0:0:0:0:
207,227,108548,1,0,0:0:0:0:
307,2,108702,1,2,0:0:0:0:
426,235,108856,2,0,L|432:328,1,85.4999973907472,8|0,0:0|0:0,0:0:0:0:
200,117,109164,5,8,0:0:0:0:
465,129,109318,1,0,3:0:0:0:
226,244,109471,1,0,3:0:0:0:
362,37,109625,37,8,0:0:0:0:
348,348,109779,1,0,3:0:0:0:
74,201,109933,1,0,3:0:0:0:
308,136,110087,2,0,L|452:148,1,128.249996086121,8|0,0:0|0:0,0:0:0:0:
465,129,110394,21,6,0:0:0:0:
160,343,110702,1,8,0:0:0:0:
315,258,110856,1,8,3:0:0:0:
315,258,110933,1,0,3:0:0:0:
315,258,111010,1,0,3:0:0:0:
182,220,111164,1,2,0:0:0:0:
268,368,111318,1,8,0:0:0:0:
254,58,111471,1,0,0:0:0:0:
172,189,111625,37,2,0:0:0:0:
487,125,111933,1,8,0:0:0:0:
402,280,112087,1,8,3:0:0:0:
402,280,112164,1,0,3:0:0:0:
402,280,112241,1,0,3:0:0:0:
364,147,112394,1,2,0:0:0:0:
512,233,112548,2,0,P|516:278|510:338,1,85.4999973907472,8|0,0:0|0:0,0:0:0:0:
487,125,112856,37,2,0:0:0:0:
121,228,113164,1,8,0:0:0:0:
269,255,113318,1,8,3:0:0:0:
269,255,113394,1,0,3:0:0:0:
269,255,113471,1,0,3:0:0:0:
102,196,113625,1,2,0:0:0:0:
278,278,113779,1,8,0:0:0:0:
109,361,113933,1,0,0:0:0:0:
129,101,114087,37,2,0:0:0:0:
233,365,114394,1,8,0:0:0:0:
135,108,114548,1,8,3:0:0:0:
135,108,114625,1,0,3:0:0:0:
135,108,114702,1,0,3:0:0:0:
167,262,114856,1,2,0:0:0:0:
326,123,115010,2,0,P|386:133|458:180,1,128.249996086121,8|0,0:0|0:0,0:0:0:0:
483,235,115318,37,6,0:0:0:0:
436,46,115471,1,0,0:0:0:0:
344,255,115625,1,8,0:0:0:0:
206,147,115779,1,8,3:0:0:0:
206,147,115856,1,0,3:0:0:0:
206,147,115933,1,0,3:0:0:0:
254,330,116087,1,2,0:0:0:0:
333,91,116241,2,0,L|327:-2,1,85.4999973907472,8|0,0:0|0:0,0:0:0:0:
373,272,116548,37,2,0:0:0:0:
220,167,116702,1,0,0:0:0:0:
448,103,116856,1,8,0:0:0:0:
351,377,117010,1,8,3:0:0:0:
351,377,117087,1,0,3:0:0:0:
351,377,117164,1,0,3:0:0:0:
116,224,117318,1,2,0:0:0:0:
404,255,117471,2,0,L|493:270,1,85.4999973907472,8|0,0:0|0:0,0:0:0:0:
173,383,117779,69,8,0:0:0:0:
204,138,117933,1,2,0:0:0:0:
204,138,118087,1,2,0:0:0:0:
373,272,118241,1,8,0:0:0:0:
116,224,118394,37,2,3:2:0:0:
116,224,118471,1,0,3:0:0:0:
116,224,118548,1,2,3:2:0:0:
365,124,118702,1,8,3:2:0:0:
365,124,118779,1,0,3:0:0:0:
365,124,118856,1,0,3:0:0:0:
392,384,119010,37,0,3:0:0:0:
356,381,119087,1,0,3:0:0:0:
321,379,119164,1,0,3:0:0:0:
286,378,119241,1,0,3:0:0:0:
251,376,119318,37,8,0:3:0:0:
234,333,119394,1,8,0:3:0:0:
233,286,119471,1,8,0:3:0:0:
247,241,119548,1,8,0:3:0:0:
281,209,119625,37,8,0:0:0:0:
339,224,119702,1,8,0:0:0:0:
397,204,119779,1,8,0:0:0:0:
431,153,119856,1,8,0:0:0:0:
429,92,119933,1,8,0:0:0:0:
392,44,120010,1,8,0:0:0:0:
334,27,120087,22,0,P|282:43|241:100,1,113.999996520996,6|0,0:0|0:0,0:0:0:0:
234,333,120394,1,2,0:0:0:0:
338,130,120548,1,8,0:0:0:0:
396,313,120702,38,0,L|509:303,1,113.999996520996,2|0,0:0|0:0,0:0:0:0:
228,205,121010,1,2,0:0:0:0:
464,102,121164,1,8,0:0:0:0:
191,212,121318,38,0,L|204:331,1,113.999996520996,2|0,0:0|0:0,0:0:0:0:
493,114,121625,2,0,L|505:0,1,113.999996520996,2|8,0:0|0:0,0:0:0:0:
356,186,121933,1,2,0:0:0:0:
499,248,122087,1,0,0:0:0:0:
317,44,122241,1,0,0:0:0:0:
292,314,122394,1,8,0:0:0:0:
471,110,122548,1,0,0:0:0:0:
471,110,122625,1,0,0:0:0:0:
471,110,122702,38,0,P|485:185|482:241,1,113.999996520996,2|0,0:0|0:0,0:0:0:0:
172,200,123010,1,8,0:0:0:0:
330,22,123164,2,0,L|443:12,1,113.999996520996,2|0,0:0|0:0,0:0:0:0:
335,214,123471,1,2,0:0:0:0:
140,49,123625,1,8,0:0:0:0:
105,304,123779,38,0,P|174:324|223:316,1,113.999996520996,2|0,0:0|0:0,0:0:0:0:
252,74,124087,2,0,P|209:110|184:161,1,113.999996520996,2|8,0:0|0:0,0:0:0:0:
377,316,124394,2,0,P|366:260|334:213,1,113.999996520996,2|0,0:0|0:0,0:0:0:0:
92,333,124702,1,2,0:0:0:0:
290,296,124856,1,8,0:0:0:0:
38,176,125010,1,0,0:0:0:0:
38,176,125087,1,0,0:0:0:0:
38,176,125164,37,2,1:2:0:0:
193,366,125318,1,0,0:0:0:0:
275,108,125471,1,8,0:0:0:0:
452,256,125625,38,0,L|461:331,1,56.9999982604981,2|0,1:2|0:0,0:0:0:0:
178,222,125779,1,0,0:0:0:0:
408,137,125933,1,2,0:0:0:0:
299,370,126087,1,8,0:0:0:0:
275,107,126241,38,0,P|299:93|326:85,1,56.9999982604981,2|0,1:2|0:0,0:0:0:0:
159,245,126394,1,0,0:0:0:0:
154,22,126548,1,2,0:0:0:0:
306,242,126702,1,8,0:0:0:0:
35,201,126856,38,0,B|30:144|30:144|46:87,1,113.999996520996,2|0,0:0|0:0,0:0:0:0:
274,8,127164,1,2,0:0:0:0:
306,242,127318,1,8,0:0:0:0:
132,159,127471,1,0,0:0:0:0:
132,159,127548,1,0,0:0:0:0:
132,159,127625,38,0,B|190:177|240:148|240:148|295:117|352:135,1,227.999993041992,2|8,0:0|0:0,0:0:0:0:
473,264,128087,1,2,0:0:0:0:
301,355,128241,2,0,P|298:298|306:242,1,113.999996520996,0|2,0:0|0:0,0:0:0:0:
512,61,128548,1,8,0:0:0:0:
260,26,128702,38,0,L|132:10,1,113.999996520996,2|0,0:0|0:0,0:0:0:0:
363,117,129010,2,0,P|375:91|383:64,1,56.9999982604981,2|0,0:0|0:0,0:0:0:0:
154,187,129164,1,8,0:0:0:0:
457,229,129318,1,2,0:0:0:0:
271,48,129471,2,0,L|253:231,1,170.999994781494,8|8,0:0|0:0,0:0:0:0:
335,284,129779,2,0,P|347:258|355:231,1,56.9999982604981,8|0,0:0|0:0,0:0:0:0:
113,171,129933,1,6,1:2:0:0:
113,171,130010,1,0,0:0:0:0:
113,171,130087,38,0,L|129:326,1,113.999996520996,0|2,0:0|0:0,0:0:0:0:
260,26,130394,1,8,0:0:0:0:
18,74,130548,1,2,0:0:0:0:
254,218,130702,1,0,0:0:0:0:
18,262,130856,1,2,0:0:0:0:
201,113,131010,1,8,0:0:0:0:
351,321,131164,38,0,P|451:326|491:305,1,113.999996520996,2|0,1:2|0:0,0:0:0:0:
309,121,131471,1,2,0:0:0:0:
226,363,131625,1,8,0:0:0:0:
411,220,131779,2,0,B|422:145|422:145|398:79|398:79|410:-3,1,227.999993041992,2|2,0:0|0:0,0:0:0:0:
254,218,132241,1,8,0:0:0:0:
140,0,132394,1,0,0:0:0:0:
140,0,132471,1,0,0:0:0:0:
140,0,132548,38,0,P|78:35|41:95,1,113.999996520996,2|0,1:2|0:0,0:0:0:0:
128,327,132856,1,8,0:0:0:0:
273,102,133010,2,0,P|216:99|163:117,1,113.999996520996,2|0,0:0|0:0,0:0:0:0:
389,224,133318,1,2,0:0:0:0:
380,0,133471,1,8,0:0:0:0:
387,260,133625,38,0,L|401:380,1,113.999996520996,2|0,1:2|0:0,0:0:0:0:
272,114,133933,2,0,L|286:-6,1,113.999996520996,2|8,0:0|0:0,0:0:0:0:
157,260,134241,2,0,L|171:380,1,113.999996520996,2|0,0:0|0:0,0:0:0:0:
42,114,134548,1,2,0:0:0:0:
296,207,134702,1,8,0:0:0:0:
17,310,134856,1,0,0:0:0:0:
17,310,134933,1,0,0:0:0:0:
17,310,135010,37,2,1:2:0:0:
183,88,135164,1,0,0:0:0:0:
289,343,135318,1,8,0:0:0:0:
64,135,135471,38,0,L|93:13,1,113.999996520996,2|0,0:0|0:0,0:0:0:0:
279,178,135779,1,2,0:0:0:0:
135,372,135933,1,8,0:0:0:0:
210,56,136087,38,0,P|269:40|395:97,1,170.999994781494,2|0,1:2|0:0,0:0:0:0:
370,72,136394,1,2,0:0:0:0:
388,366,136548,1,8,0:0:0:0:
280,152,136702,37,2,0:0:0:0:
508,223,136856,1,0,0:0:0:0:
234,285,137010,1,2,0:0:0:0:
402,58,137164,1,8,0:0:0:0:
97,105,137318,1,0,0:0:0:0:
97,105,137394,1,0,0:0:0:0:
97,105,137471,37,2,1:2:0:0:
280,152,137625,1,0,0:0:0:0:
120,336,137779,1,8,0:0:0:0:
215,51,137933,1,0,0:0:0:0:
213,268,138087,37,2,0:0:0:0:
34,228,138241,1,0,0:0:0:0:
280,152,138394,1,8,0:0:0:0:
222,382,138548,38,0,P|154:362|107:322,1,113.999996520996,2|0,1:2|0:0,0:0:0:0:
215,51,138856,1,2,0:0:0:0:
362,289,139010,1,8,0:0:0:0:
139,176,139164,1,2,0:0:0:0:
440,121,139318,1,8,0:0:0:0:
440,121,139394,1,8,0:0:0:0:
440,121,139471,1,8,0:0:0:0:
253,167,139625,2,0,L|261:280,1,113.999996520996,8|8,0:0|0:0,0:0:0:0:
486,38,139933,38,0,P|427:24|374:53,1,123.499994346619,12|0,1:2|0:0,0:0:0:0:
370,384,140241,1,0,0:0:0:0:
440,121,140394,1,8,1:2:0:0:
143,204,140548,1,0,0:0:0:0:
368,241,140702,1,0,0:0:0:0:
252,49,140856,2,0,L|130:62,1,123.499994346619,2|0,0:0|0:0,0:0:0:0:
277,310,141164,37,12,1:2:0:0:
396,60,141318,1,0,0:0:0:0:
158,181,141471,1,0,0:0:0:0:
478,270,141625,37,12,1:2:0:0:
122,384,141779,2,0,P|90:320|86:246,1,123.499994346619,0|0,0:0|0:0,0:0:0:0:
396,60,142087,2,0,P|386:120|357:174,1,123.499994346619,2|0,0:0|0:0,0:0:0:0:
260,384,142394,37,12,1:2:0:0:
143,43,142548,1,0,0:0:0:0:
440,250,142702,1,0,0:0:0:0:
78,256,142856,37,12,1:2:0:0:
366,39,143010,2,0,L|495:52,1,123.499994346619,0|0,0:0|0:0,0:0:0:0:
224,256,143318,2,0,L|101:268,1,123.499994346619,8|8,0:0|0:0,0:0:0:0:
341,54,143625,37,2,0:0:0:0:
408,369,143779,1,8,0:0:0:0:
408,369,143856,1,8,0:0:0:0:
408,369,143933,1,8,0:0:0:0:
134,187,144087,1,8,0:0:0:0:
483,217,144241,37,2,0:0:0:0:
161,343,144394,1,2,0:0:0:0:
210,0,144548,1,8,0:0:0:0:
303,274,144702,1,8,0:0:0:0:
0,213,144856,70,0,P|8:158|36:90,1,104.500003189087,6|0,1:2|0:0,0:0:0:0:
235,124,145164,1,8,0:0:0:0:
155,323,145318,1,0,0:0:0:0:
155,323,145394,1,8,0:0:0:0:
155,323,145471,2,0,B|105:338|105:338|53:326,2,104.500003189087,2|2|0,0:0|0:0|0:0,0:0:0:0:
331,174,145933,38,0,B|362:90|290:30|290:30|320:5|375:19,1,209.000006378174,8|2,0:0|0:0,0:0:0:0:
235,124,146394,1,8,0:0:0:0:
449,181,146548,1,0,0:0:0:0:
449,181,146625,1,8,0:0:0:0:
449,181,146702,2,0,P|451:248|429:303,1,104.500003189087,2|2,0:0|0:0,0:0:0:0:
106,131,147010,38,0,L|235:124,1,128.249996086121,8|0,0:0|0:0,0:0:0:0:
104,226,147318,38,0,L|-36:218,1,104.500003189087,2|0,0:0|0:0,0:0:0:0:
326,82,147625,2,0,P|333:133|317:182,1,104.500003189087,8|0,0:0|0:0,0:0:0:0:
235,362,147856,1,8,0:0:0:0:
212,339,147933,2,0,P|204:287|220:238,1,104.500003189087,2|2,0:0|0:0,0:0:0:0:
427,153,148241,1,0,0:0:0:0:
235,42,148394,38,0,L|18:72,1,209.000006378174,8|2,0:0|0:0,0:0:0:0:
225,220,148856,1,8,0:0:0:0:
3,314,149010,1,0,0:0:0:0:
3,314,149087,1,8,0:0:0:0:
3,314,149164,2,0,B|-4:262|-4:262|5:210,1,104.500003189087,2|2,0:0|0:0,0:0:0:0:
235,362,149471,1,8,0:0:0:0:
198,372,149548,1,0,0:0:0:0:
159,375,149625,1,0,0:0:0:0:
120,371,149702,1,0,0:0:0:0:
83,358,149779,38,0,B|71:266|71:266|112:230|209:244,1,209.000006378174,6|8,0:0|0:0,0:0:0:0:
391,331,150241,1,0,0:0:0:0:
391,331,150318,1,8,0:0:0:0:
391,331,150394,2,0,P|456:343|508:340,2,104.500003189087,2|2|0,0:0|0:0|0:0,0:0:0:0:
207,214,150856,38,0,L|232:6,1,209.000006378174,8|0,0:0|0:0,0:0:0:0:
446,150,151318,2,0,B|394:157|394:157|343:146,1,104.500003189087,8|0,0:0|0:0,0:0:0:0:
395,72,151548,1,8,0:0:0:0:
395,72,151625,1,2,0:0:0:0:
369,308,151779,1,2,0:0:0:0:
193,185,151933,38,0,P|132:166|70:179,1,128.249996086121,8|0,0:0|0:0,0:0:0:0:
177,80,152241,38,0,P|239:92|297:76,1,104.500003189087,2|0,0:0|0:0,0:0:0:0:
47,203,152548,2,0,L|65:57,1,104.500003189087,8|0,0:0|0:0,0:0:0:0:
130,266,152779,1,8,0:0:0:0:
151,281,152856,2,0,L|163:384,2,104.500003189087,2|2|0,0:0|0:0|0:0,0:0:0:0:
299,64,153318,38,0,P|389:62|428:81,1,104.500003189087,8|0,0:0|0:0,0:0:0:0:
444,343,153625,1,2,0:0:0:0:
348,271,153779,2,0,L|348:167,1,104.500003189087,8|0,0:0|0:0,0:0:0:0:
348,167,154010,1,8,0:0:0:0:
348,167,154087,1,2,0:0:0:0:
161,317,154241,1,2,0:0:0:0:
204,46,154394,1,8,0:0:0:0:
264,363,154548,1,8,0:0:0:0:
264,363,154625,1,8,0:0:0:0:
264,363,154702,38,0,B|272:310|272:310|255:250,1,104.500003189087,6|0,0:0|0:0,0:0:0:0:
40,177,155010,1,8,0:0:0:0:
204,45,155164,2,0,P|253:30|305:33,1,104.500003189087,0|2,0:0|0:0,0:0:0:0:
403,217,155471,2,0,P|351:219|301:204,1,104.500003189087,2|0,0:0|0:0,0:0:0:0:
135,122,155779,38,0,L|169:332,1,209.000006378174,8|2,0:0|0:0,0:0:0:0:
362,137,156241,1,8,0:0:0:0:
481,384,156394,1,0,0:0:0:0:
481,384,156471,1,8,0:0:0:0:
481,384,156548,1,2,0:0:0:0:
239,189,156702,1,2,0:0:0:0:
239,189,156779,1,0,0:0:0:0:
238,189,156856,2,0,P|262:180|288:177,1,52.2500015945435,8|0,0:0|0:0,0:0:0:0:
479,209,157010,2,0,P|453:205|428:197,1,52.2500015945435,0|0,0:0|0:0,0:0:0:0:
300,55,157164,38,0,P|224:46|147:69,1,156.750004783631,2|0,0:0|0:0,0:0:0:0:
148,68,157471,1,8,0:0:0:0:
369,144,157625,1,0,0:0:0:0:
369,144,157702,1,8,0:0:0:0:
369,144,157779,2,0,L|384:32,2,104.500003189087,2|2|0,0:0|0:0|0:0,0:0:0:0:
231,384,158241,38,0,B|252:313|252:313|236:242|236:242|254:182,1,209.000006378174,8|2,0:0|0:0,0:0:0:0:
427,343,158702,1,8,0:0:0:0:
161,313,158856,1,0,0:0:0:0:
161,313,158933,1,8,0:0:0:0:
161,313,159010,1,2,0:0:0:0:
325,244,159164,1,2,0:0:0:0:
79,216,159318,38,0,L|209:238,1,128.249996086121,8|0,0:0|0:0,0:0:0:0:
104,112,159625,38,0,L|1:130,1,104.500003189087,6|0,0:0|0:0,0:0:0:0:
276,99,159933,1,8,0:0:0:0:
231,384,160087,1,0,0:0:0:0:
231,384,160164,1,8,0:0:0:0:
231,384,160241,1,2,0:0:0:0:
302,228,160394,2,0,P|304:176|289:126,1,104.500003189087,2|0,0:0|0:0,0:0:0:0:
310,337,160702,38,0,P|377:357|519:335,1,209.000006378174,8|2,0:0|0:0,0:0:0:0:
77,243,161164,2,0,L|63:347,1,104.500003189087,8|0,0:0|0:0,0:0:0:0:
63,346,161394,1,8,0:0:0:0:
63,346,161471,1,2,0:0:0:0:
276,99,161625,1,2,0:0:0:0:
17,50,161779,38,0,L|0:176,1,128.249996086121,8|0,0:0|0:0,0:0:0:0:
104,265,162087,38,0,P|183:257|234:276,1,104.500003189087,2|0,0:0|0:0,0:0:0:0:
446,161,162394,2,0,P|394:169|343:159,1,104.500003189087,8|0,0:0|0:0,0:0:0:0:
343,159,162625,1,8,0:0:0:0:
343,159,162702,1,2,0:0:0:0:
298,383,162856,1,2,0:0:0:0:
211,166,163010,1,0,0:0:0:0:
393,302,163164,38,0,L|515:295,1,104.500003189087,8|0,0:0|0:0,0:0:0:0:
200,293,163471,1,2,0:0:0:0:
290,78,163625,2,0,L|412:85,1,104.500003189087,8|0,0:0|0:0,0:0:0:0:
215,170,163856,1,8,0:0:0:0:
215,170,163933,70,0,L|80:163,1,132.999995941162,2|2,0:0|0:0,0:0:0:0:
298,383,164241,1,8,0:0:0:0:
409,58,164394,1,8,0:0:0:0:
409,58,164471,1,8,0:0:0:0:
409,58,164548,6,0,L|398:231,1,156.750004783631,6|0,0:0|0:0,0:0:0:0:
399,214,164856,1,8,0:0:0:0:
200,293,165010,2,0,P|233:284|252:285,1,52.2500015945435,0|8,3:0|0:0,0:0:0:0:
298,383,165164,1,2,0:0:0:0:
47,286,165318,2,0,L|55:157,1,104.500003189087,2|0,0:0|0:0,0:0:0:0:
286,72,165625,38,0,P|228:90|126:60,1,156.750004783631,8|0,0:0|0:0,0:0:0:0:
136,67,165933,1,2,0:0:0:0:
353,146,166087,2,0,P|342:205|305:251,1,104.500003189087,8|0,0:0|0:0,0:0:0:0:
200,293,166318,1,8,0:0:0:0:
170,304,166394,1,2,0:0:0:0:
264,42,166548,1,2,0:0:0:0:
458,147,166702,2,0,P|480:208|481:261,1,104.500003189087,8|0,0:0|0:0,0:0:0:0:
139,319,167010,38,0,L|162:94,1,209.000006378174,2|8,0:0|0:0,0:0:0:0:
298,384,167471,1,0,0:0:0:0:
298,384,167548,1,8,0:0:0:0:
298,384,167625,2,0,L|283:251,1,104.500003189087,2|0,0:0|0:0,0:0:0:0:
269,140,167933,1,0,0:0:0:0:
115,335,168087,38,0,P|22:304|13:205,1,209.000006378174,8|2,0:0|0:0,0:0:0:0:
229,53,168548,2,0,P|311:53|348:83,1,104.500003189087,8|0,0:0|0:0,0:0:0:0:
133,86,168779,1,8,0:0:0:0:
109,115,168856,22,0,L|93:247,1,132.999995941162,2|2,0:0|0:0,0:0:0:0:
419,247,169164,2,0,L|402:115,1,132.999995941162,8|0,0:0|0:0,0:0:0:0:
302,352,169471,6,0,P|355:359|432:356,1,104.500003189087,6|0,0:0|0:0,0:0:0:0:
282,175,169779,1,8,0:0:0:0:
153,384,169933,1,0,0:0:0:0:
153,384,170010,1,8,0:0:0:0:
153,384,170087,2,0,L|168:255,1,104.500003189087,2|2,0:0|0:0,0:0:0:0:
200,34,170394,1,0,0:0:0:0:
383,174,170548,2,0,P|332:184|282:175,1,104.500003189087,8|0,0:0|0:0,0:0:0:0:
512,41,170856,37,2,0:0:0:0:
505,235,171010,2,0,B|498:287|498:287|480:335,1,104.500003189087,8|0,0:0|0:0,0:0:0:0:
369,142,171241,1,8,0:0:0:0:
358,109,171318,2,0,L|361:4,1,104.500003189087,2|2,0:0|0:0,0:0:0:0:
211,235,171625,2,0,L|208:340,1,104.500003189087,8|0,0:0|0:0,0:0:0:0:
264,109,171933,38,0,B|188:85|133:125|133:125|90:114|77:59,1,209.000006378174,2|8,0:0|0:0,0:0:0:0:
37,244,172394,1,0,0:0:0:0:
48,275,172471,1,8,0:0:0:0:
59,306,172548,1,2,0:0:0:0:
80,104,172702,2,0,L|92:-28,1,104.500003189087,2|0,0:0|0:0,0:0:0:0:
310,249,173010,38,0,P|259:253|211:235,1,104.500003189087,8|0,0:0|0:0,0:0:0:0:
408,139,173318,2,0,L|517:163,1,104.500003189087,2|0,0:0|0:0,0:0:0:0:
276,165,173625,1,8,0:0:0:0:
491,22,173779,21,2,3:0:0:0:
444,383,173933,1,2,0:0:0:0:
176,135,174087,37,2,0:3:0:0:
512,276,174241,1,8,0:0:0:0:
512,276,174318,1,8,0:0:0:0:
512,276,174394,6,0,L|287:287,1,209.000006378174,6|8,0:0|0:0,0:0:0:0:
180,108,174856,2,0,P|212:104|240:103,1,52.2500015945435,0|8,3:0|0:0,0:0:0:0:
203,350,175010,2,0,P|189:299|192:247,1,104.500003189087,2|2,0:0|0:0,0:0:0:0:
366,156,175318,1,0,0:0:0:0:
79,93,175471,38,0,L|73:227,1,104.500003189087,8|0,0:0|0:0,0:0:0:0:
303,286,175779,1,2,0:0:0:0:
334,16,175933,1,8,0:0:0:0:
187,227,176087,1,0,0:0:0:0:
187,227,176164,1,8,0:0:0:0:
187,227,176241,69,2,3:0:0:0:
458,53,176394,1,0,0:0:0:0:
402,372,176548,37,2,3:0:0:0:
334,16,176702,1,8,0:0:0:0:
334,16,176779,1,8,0:0:0:0:
334,16,176856,6,0,L|326:227,1,209.000006378174,6|8,0:0|0:0,0:0:0:0:
124,343,177318,2,0,L|132:285,1,52.2500015945435,0|8,3:0|0:0,0:0:0:0:
163,108,177471,1,2,0:0:0:0:
276,336,177625,1,2,0:0:0:0:
74,197,177779,1,0,0:0:0:0:
311,112,177933,38,0,P|368:119|413:149,1,104.500003189087,8|0,0:0|0:0,0:0:0:0:
123,343,178241,1,2,0:0:0:0:
182,81,178394,2,0,P|204:34|245:2,1,104.500003189087,8|0,0:0|0:0,0:0:0:0:
420,172,178625,1,8,0:0:0:0:
425,207,178702,69,2,3:0:0:0:
74,197,178856,1,2,0:0:0:0:
363,0,179010,37,2,3:0:0:0:
285,343,179164,1,8,0:0:0:0:
285,343,179241,1,8,0:0:0:0:
285,343,179318,6,0,L|262:130,1,209.000006378174,6|8,0:0|0:0,0:0:0:0:
431,244,179779,1,0,0:0:0:0:
417,285,179856,1,8,0:0:0:0:
402,327,179933,1,2,0:0:0:0:
143,199,180087,1,2,0:0:0:0:
351,18,180241,1,0,0:0:0:0:
126,215,180394,38,0,P|53:219|-8:206,1,104.500003189087,8|0,0:0|0:0,0:0:0:0:
366,115,180702,1,2,0:0:0:0:
275,334,180856,2,0,L|101:327,1,156.750004783631,8|8,0:0|0:0,0:0:0:0:
118,327,181164,69,2,3:0:0:0:
505,219,181318,1,2,0:0:0:0:
161,22,181471,5,2,3:0:0:0:
484,235,181625,1,8,0:0:0:0:
123,228,181779,38,0,L|161:22,1,209.000006378174,6|8,0:0|0:0,0:0:0:0:
261,230,182241,1,0,0:0:0:0:
268,282,182318,1,8,0:0:0:0:
275,334,182394,1,2,0:0:0:0:
298,79,182548,1,2,0:0:0:0:
21,153,182702,1,0,0:0:0:0:
371,221,182856,6,0,P|447:218|491:197,1,104.500003189087,8|0,0:0|0:0,0:0:0:0:
167,41,183164,1,10,1:2:0:0:
164,345,183318,1,10,1:2:0:0:
412,104,183471,1,10,1:2:0:0:
28,176,183625,37,10,1:2:0:0:
345,366,183779,1,10,1:2:0:0:
349,0,183933,1,10,1:2:0:0:
35,308,184087,1,10,1:2:0:0:
35,308,195625,70,0,P|77:316|176:290,2,142.500005435944,2|0|2,0:0|0:0|0:0,0:0:0:0:
282,232,196394,1,2,0:0:0:0:
282,232,196548,70,0,P|292:288|288:339,1,106.875004076958,6|0,3:2|0:0,0:0:0:0:
288,337,196856,1,8,3:0:0:0:
93,208,197010,2,0,L|101:151,1,35.625001358986,0|0,3:0|3:0,0:0:0:0:
172,292,197164,37,2,3:0:0:0:
176,227,197318,1,2,3:0:0:0:
178,162,197471,1,2,3:0:0:0:
181,96,197625,2,0,L|330:108,1,142.500005435944,10|0,3:0|3:0,0:0:0:0:
388,223,198087,2,0,L|282:232,1,106.875004076958,10|0,3:0|0:0,0:0:0:0:
282,232,198394,1,0,3:0:0:0:
370,324,198548,1,0,3:0:0:0:
481,276,198702,1,8,3:0:0:0:
469,155,198856,1,0,3:0:0:0:
350,131,199010,38,0,P|328:73|332:26,1,106.875004076958,0|0,3:0|0:0,0:0:0:0:
331,29,199318,1,8,3:0:0:0:
185,125,199471,2,0,L|233:128,1,35.625001358986,0|0,3:0|3:0,0:0:0:0:
194,33,199625,37,2,3:0:0:0:
129,35,199779,1,2,3:0:0:0:
65,37,199933,1,2,3:0:0:0:
1,39,200087,2,0,L|19:180,1,142.500005435944,2|0,3:0|3:0,0:0:0:0:
95,318,200548,2,0,L|108:211,1,106.875004076958,2|0,3:0|0:0,0:0:0:0:
108,211,200856,1,0,3:0:0:0:
246,266,201010,1,0,3:0:0:0:
394,162,201164,2,0,P|468:158|510:172,1,106.875004076958,8|0,3:0|0:0,0:0:0:0:
227,250,201471,6,0,P|202:147|211:108,2,142.500005435944,2|0|0,0:0|0:0|0:0,0:0:0:0:
300,336,202548,2,0,L|406:332,1,95,2|0,0:0|0:0,0:0:0:0:
471,337,203010,38,0,B|469:301|469:301|455:281|455:281|453:246,1,95,2|0,0:0|0:0,0:0:0:0:
505,166,203548,2,0,P|483:155|432:148,1,71.25
281,357,203933,38,0,L|299:102,1,237.5,2|2,0:0|0:0,0:0:0:0:
314,99,204856,54,0,L|291:392,1,285.000010871888,2|0,0:0|0:0,0:0:0:0:
250,0,206702,54,0,P|251:35|245:70,1,71.25
178,117,207010,1,0,0:0:0:0:
178,117,207087,1,0,0:0:0:0:
178,117,207164,1,0,0:0:0:0:
178,117,207241,1,0,0:0:0:0:
178,117,207318,1,0,0:0:0:0:
178,117,207394,1,0,0:0:0:0:
178,117,207471,22,0,P|118:107|52:131,1,113.999996520996,6|0,0:0|0:0,0:0:0:0:
298,309,207779,1,2,0:0:0:0:
325,22,207933,1,8,0:0:0:0:
126,233,208087,38,0,L|146:380,1,113.999996520996,2|0,0:0|0:0,0:0:0:0:
321,154,208394,1,2,0:0:0:0:
91,34,208548,1,8,0:0:0:0:
344,166,208702,38,0,P|400:166|467:154,1,113.999996520996,2|0,0:0|0:0,0:0:0:0:
157,144,209010,2,0,P|100:134|43:134,1,113.999996520996,2|8,0:0|0:0,0:0:0:0:
286,277,209318,1,2,0:0:0:0:
220,57,209471,1,0,0:0:0:0:
226,384,209625,1,2,0:0:0:0:
420,242,209779,1,8,0:0:0:0:
94,227,209933,1,0,0:0:0:0:
94,227,210010,1,0,0:0:0:0:
94,227,210087,38,0,P|83:284|100:368,1,113.999996520996,2|2,0:0|0:0,0:0:0:0:
346,195,210394,1,8,0:0:0:0:
113,33,210548,2,0,L|-36:26,1,113.999996520996,2|0,0:0|0:0,0:0:0:0:
208,197,210856,1,2,0:0:0:0:
311,16,211010,1,8,0:0:0:0:
418,270,211164,38,0,L|428:386,1,113.999996520996,2|0,0:0|0:0,0:0:0:0:
256,114,211471,2,0,L|256:-1,1,113.999996520996,2|8,0:0|0:0,0:0:0:0:
94,270,211779,2,0,L|84:386,1,113.999996520996,2|0,0:0|0:0,0:0:0:0:
336,188,212087,1,2,0:0:0:0:
55,138,212241,1,8,0:0:0:0:
235,314,212394,1,0,0:0:0:0:
235,314,212471,1,0,0:0:0:0:
235,314,212548,37,2,1:2:0:0:
227,18,212702,1,2,0:0:0:0:
101,243,212856,1,8,0:0:0:0:
306,180,213010,38,0,L|228:185,1,56.9999982604981,0|0,1:2|0:0,0:0:0:0:
117,336,213164,1,0,0:0:0:0:
361,262,213318,1,2,0:0:0:0:
102,217,213471,1,8,0:0:0:0:
251,335,213625,38,0,L|329:340,1,56.9999982604981,2|0,1:2|0:0,0:0:0:0:
18,286,213779,1,0,0:0:0:0:
249,183,213933,1,2,0:0:0:0:
1,96,214087,1,8,0:0:0:0:
280,183,214241,38,0,P|294:108|284:45,1,113.999996520996,2|0,1:2|0:0,0:0:0:0:
395,280,214548,1,2,0:0:0:0:
143,317,214702,1,8,0:0:0:0:
429,272,214856,1,0,0:0:0:0:
429,272,214933,1,0,0:0:0:0:
429,272,215010,38,0,B|443:197|443:197|432:142|432:142|464:39,1,227.999993041992,2|8,0:0|0:0,0:0:0:0:
280,183,215471,1,2,0:0:0:0:
187,83,215625,2,0,P|100:86|46:117,1,113.999996520996,0|2,0:0|0:0,0:0:0:0:
157,299,215933,1,8,0:0:0:0:
302,159,216087,38,0,L|309:31,1,113.999996520996,2|0,0:0|0:0,0:0:0:0:
139,163,216394,2,0,L|147:229,1,56.9999982604981,2|0,0:0|0:0,0:0:0:0:
377,268,216548,1,8,0:0:0:0:
199,56,216702,1,2,0:0:0:0:
256,373,216856,1,8,0:0:0:0:
460,228,217010,1,8,0:0:0:0:
451,171,217087,1,8,0:0:0:0:
413,130,217164,1,8,0:0:0:0:
359,115,217241,1,8,0:0:0:0:
305,131,217318,38,0,P|280:166|262:243,1,113.999996520996,14|0,0:0|0:0,0:0:0:0:
248,18,217625,1,2,0:0:0:0:
262,233,217779,1,8,0:0:0:0:
54,146,217933,1,2,0:0:0:0:
366,222,218087,1,0,0:0:0:0:
123,290,218241,1,2,0:0:0:0:
173,55,218394,1,8,0:0:0:0:
366,249,218548,38,0,P|365:324|348:369,1,113.999996520996,2|0,1:2|0:0,0:0:0:0:
271,44,218856,2,0,P|336:6|384:0,1,113.999996520996,2|8,0:0|0:0,0:0:0:0:
141,228,219164,2,0,P|75:189|44:42,1,227.999993041992,2|2,0:0|0:0,0:0:0:0:
392,133,219625,1,8,0:0:0:0:
172,100,219779,1,0,0:0:0:0:
172,100,219856,1,0,0:0:0:0:
172,100,219933,38,0,L|297:118,1,113.999996520996,2|2,1:2|0:0,0:0:0:0:
202,326,220241,1,8,0:0:0:0:
424,308,220394,2,0,L|410:194,1,113.999996520996,2|0,0:0|0:0,0:0:0:0:
283,38,220702,1,2,0:0:0:0:
322,354,220856,1,8,0:0:0:0:
469,99,221010,38,0,P|406:85|328:115,1,113.999996520996,2|0,1:2|0:0,0:0:0:0:
100,324,221318,2,0,P|118:271|158:231,1,113.999996520996,2|8,0:0|0:0,0:0:0:0:
470,269,221625,2,0,P|356:253|304:217,1,170.999994781494,2|0,0:0|0:0,0:0:0:0:
310,223,221933,1,2,0:0:0:0:
250,0,222087,1,8,0:0:0:0:
477,106,222241,1,0,0:0:0:0:
477,106,222318,1,0,0:0:0:0:
477,106,222394,37,2,1:2:0:0:
186,137,222548,1,0,0:0:0:0:
382,338,222702,2,0,L|373:267,1,56.9999982604981,8|0,0:0|0:0,0:0:0:0:
341,76,222856,1,2,0:0:0:0:
112,243,223010,38,0,L|228:235,1,113.999996520996,0|2,0:0|0:0,0:0:0:0:
36,104,223318,1,8,0:0:0:0:
181,343,223471,1,2,0:0:0:0:
242,62,223625,1,0,0:0:0:0:
12,201,223779,1,2,0:0:0:0:
329,160,223933,1,8,0:0:0:0:
67,9,224087,2,0,L|82:147,1,113.999996520996,2|0,0:0|0:0,0:0:0:0:
306,304,224394,1,2,0:0:0:0:
341,20,224548,1,8,0:0:0:0:
151,202,224702,1,0,0:0:0:0:
151,202,224779,1,0,0:0:0:0:
151,202,224856,37,2,0:0:0:0:
460,157,225010,1,2,0:0:0:0:
207,107,225164,1,8,0:0:0:0:
258,384,225318,1,2,0:0:0:0:
57,261,225471,2,0,P|40:191|54:139,1,113.999996520996,0|2,0:0|0:0,0:0:0:0:
354,155,225779,1,8,0:0:0:0:
129,23,225933,38,0,L|260:15,1,113.999996520996,2|0,0:0|0:0,0:0:0:0:
491,141,226241,1,8,0:0:0:0:
491,141,226318,1,8,0:0:0:0:
491,141,226394,1,8,0:0:0:0:
172,166,226548,1,8,0:0:0:0:
407,14,226702,1,8,0:0:0:0:
267,298,226856,1,8,0:0:0:0:
242,16,227010,1,8,0:0:0:0:
423,281,227164,1,8,0:0:0:0:
126,343,227318,38,0,P|36:337|-9:316,1,123.499994346619,12|0,1:2|0:0,0:0:0:0:
82,14,227625,1,0,0:0:0:0:
84,241,227779,1,8,1:2:0:0:
242,16,227933,1,0,0:0:0:0:
0,139,228087,1,0,0:0:0:0:
212,255,228241,2,0,L|348:246,1,123.499994346619,0|0,0:0|0:0,0:0:0:0:
512,58,228548,37,12,1:2:0:0:
202,28,228702,1,0,0:0:0:0:
482,215,228856,1,0,0:0:0:0:
186,380,229010,37,12,1:2:0:0:
335,212,229164,2,0,L|326:80,1,123.499994346619,0|0,0:0|0:0,0:0:0:0:
84,196,229471,2,0,L|76:319,1,123.499994346619,0|0,0:0|0:0,0:0:0:0:
320,53,229779,37,12,1:2:0:0:
26,133,229933,1,0,0:0:0:0:
245,347,230087,1,0,0:0:0:0:
163,8,230241,37,12,1:2:0:0:
76,320,230394,1,0,0:0:0:0:
367,242,230548,1,0,0:0:0:0:
26,133,230702,1,8,0:0:0:0:
320,53,230856,1,8,0:0:0:0:
76,320,231010,37,2,0:0:0:0:
386,271,231164,1,8,0:0:0:0:
390,237,231241,1,8,3:0:0:0:
393,202,231318,1,8,3:0:0:0:
397,167,231394,1,8,3:0:0:0:
400,134,231471,1,8,3:0:0:0:
403,99,231548,1,8,3:0:0:0:
407,65,231625,37,8,0:0:0:0:
340,78,231702,1,4,3:0:0:0:
293,127,231779,1,4,3:0:0:0:
283,194,231856,1,4,3:0:0:0:
314,254,231933,1,8,0:0:0:0:
373,287,232010,1,8,0:0:0:0:
441,278,232087,1,8,0:0:0:0:
491,233,232164,1,8,0:0:0:0:
506,167,232241,38,0,B|460:154|460:154|413:164,1,95,6|0,0:0|0:0,0:0:0:0:
216,378,232548,1,8,0:0:0:0:
154,103,232702,1,0,0:0:0:0:
154,103,232779,1,8,0:0:0:0:
154,103,232856,2,0,L|143:229,2,95,2|0|2,0:0|0:0|0:0,0:0:0:0:
216,378,233318,38,0,B|167:378|137:337|137:337|87:327|40:342,1,190,8|2,0:0|0:0,0:0:0:0:
385,297,233779,2,0,L|374:184,1,95,8|0,0:0|0:0,0:0:0:0:
376,202,234010,1,8,0:0:0:0:
376,202,234087,1,2,0:0:0:0:
213,297,234241,1,2,0:0:0:0:
192,80,234394,38,0,P|242:55|304:62,1,114,8|0,0:0|0:0,0:0:0:0:
180,64,234702,38,0,L|192:193,1,95,2|0,0:0|0:0,0:0:0:0:
289,384,235010,2,0,L|298:290,1,95,8|0,0:0|0:0,0:0:0:0:
363,198,235241,1,8,0:0:0:0:
380,170,235318,2,0,P|427:163|473:174,1,95,2|0,0:0|0:0,0:0:0:0:
221,261,235625,1,2,0:0:0:0:
65,100,235779,38,0,P|62:39|80:-14,1,95,8|0,0:0|0:0,0:0:0:0:
374,76,236087,2,0,P|384:122|380:170,1,95,2|8,0:0|0:0,0:0:0:0:
201,19,236394,1,0,0:0:0:0:
201,19,236471,1,8,0:0:0:0:
201,19,236548,2,0,L|313:2,1,95,2|0,0:0|0:0,0:0:0:0:
193,255,236856,38,0,P|135:254|75:241,1,114,8|0,0:0|0:0,0:0:0:0:
179,270,237164,38,0,P|169:356|172:403,1,95,6|0,0:0|0:0,0:0:0:0:
413,139,237471,1,8,0:0:0:0:
161,84,237625,1,0,0:0:0:0:
161,84,237702,1,8,0:0:0:0:
161,84,237779,2,0,P|109:154|88:196,2,95,2|0|2,0:0|0:0|0:0,0:0:0:0:
472,222,238241,38,0,P|390:218|414:138,1,190,8|2,0:0|0:0,0:0:0:0:
445,361,238702,2,0,P|395:363|318:352,1,95,8|0,0:0|0:0,0:0:0:0:
245,293,238933,1,8,0:0:0:0:
245,293,239010,38,0,P|228:235|233:201,2,63.3333333333333,2|0|0,0:0|0:0|0:0,0:0:0:0:
306,128,239318,2,0,P|323:70|318:36,2,63.3333333333333,8|0|0,0:0|0:0|0:0,0:0:0:0:
103,62,239625,38,0,P|150:55|197:61,1,95,6|0,0:0|0:0,0:0:0:0:
511,199,239933,2,0,P|470:207|405:195,1,95,8|0,0:0|0:0,0:0:0:0:
306,128,240164,1,8,0:0:0:0:
294,159,240241,2,0,L|305:262,1,95,2|2,0:0|0:0,0:0:0:0:
457,317,240548,1,0,0:0:0:0:
492,179,240702,38,0,P|416:184|317:298,1,190,8|2,0:0|0:0,0:0:0:0:
110,87,241164,2,0,P|180:84|225:61,1,95,8|0,0:0|0:0,0:0:0:0:
17,159,241471,1,2,0:0:0:0:
6,205,241548,1,0,0:0:0:0:
9,252,241625,1,2,0:0:0:0:
25,296,241702,1,0,0:0:0:0:
52,333,241779,6,0,P|74:344|95:354,1,47.5,8|0,0:0|0:0,0:0:0:0:
294,159,241933,2,0,P|272:168|251:179,1,47.5,0|0,3:0|0:0,0:0:0:0:
