osu file format v14

[General]
AudioFilename: audio.mp3
AudioLeadIn: 0
PreviewTime: 185702
Countdown: 0
SampleSet: Soft
StackLeniency: 0.5
Mode: 0
LetterboxInBreaks: 0
EpilepsyWarning: 1
WidescreenStoryboard: 1

[Editor]
DistanceSpacing: 0.9
BeatDivisor: 4
GridSize: 16
TimelineZoom: 2.3

[Metadata]
Title:Sakebe
TitleUnicode:叫べ
Artist:Manami Numakura
ArtistUnicode:沼倉愛美
Creator:Mishima Yurara
Version:Mikii's Extra
Source:魔法少女育成計画
Tags:Mahou Shoujo Ikusei Keikaku Magical Girl Raising Project まほいく Mahoiku Little Cloudsplash16 doormat depths Kalibe Curi [C_u_r_i] sahuang my angel azusa gaia pkk CelsiusLK -[Koinuri] Koinuri Mikii RLC VINXIS Delis
BeatmapID:1451747
BeatmapSetID:550344

[Difficulty]
HPDrainRate:6.5
CircleSize:4
OverallDifficulty:8.2
ApproachRate:9.2
SliderMultiplier:1.8
SliderTickRate:1

[Events]
//Background and Video events
0,0,"camel.png",0,0
//Break Periods
2,186702,195978
//Storyboard Layer 0 (Background)
//Storyboard Layer 1 (Fail)
//Storyboard Layer 2 (Pass)
//Storyboard Layer 3 (Foreground)
//Storyboard Sound Samples

[TimingPoints]
857,304.568527918782,4,2,1,60,1,0
2988,-100,4,2,1,60,0,0
3217,-100,4,2,1,5,0,0
3318,307.692307692308,4,2,1,60,1,0
3318,-100,4,2,1,60,0,0
5471,-125,4,2,1,60,0,0
5702,-100,4,2,1,5,0,0
5779,-100,4,2,1,60,0,0
8164,-100,4,2,1,5,0,0
8241,-100,4,2,1,60,0,0
12548,-100,4,2,1,70,0,0
12856,-100,4,2,1,70,0,0
15318,-100,4,2,1,60,0,0
15625,-100,4,2,1,60,0,0
17779,-125,4,2,1,60,0,0
18010,-100,4,2,1,5,0,0
18087,-100,4,2,1,60,0,0
20241,-100,4,2,1,60,0,0
20471,-100,4,2,1,5,0,0
20548,-100,4,2,1,60,0,0
22702,-100,4,2,1,60,0,0
22933,-100,4,2,1,5,0,0
23318,-100,4,2,2,40,0,0
24241,-133.333333333333,4,2,2,30,0,0
27164,-133.333333333333,4,2,2,40,0,0
27394,-133.333333333333,4,2,2,5,0,0
27471,-133.333333333333,4,2,2,30,0,0
27702,-133.333333333333,4,2,2,5,0,0
27779,-133.333333333333,4,2,2,30,0,0
28010,-133.333333333333,4,2,2,5,0,0
28087,-133.333333333333,4,2,2,30,0,0
32010,-133.333333333333,4,2,2,5,0,0
32087,-133.333333333333,4,2,2,30,0,0
32318,-133.333333333333,4,2,2,5,0,0
32394,-133.333333333333,4,2,2,40,0,0
32625,-133.333333333333,4,2,2,5,0,0
32702,-133.333333333333,4,2,2,40,0,0
34087,-111.111111111111,4,2,1,50,0,0
42702,-100,4,2,1,60,0,0
42856,-100,4,2,1,85,0,0
43010,-100,4,2,1,60,0,0
43933,-100,4,2,1,70,0,0
44087,-100,4,2,43,70,0,0
51318,-166.666666666667,4,2,1,60,0,0
51625,-142.857142857143,4,2,1,60,0,0
51933,-125,4,2,1,60,0,0
52241,-111.111111111111,4,2,1,60,0,0
52548,-100,4,2,1,60,0,0
53625,-100,4,2,1,80,0,1
73471,-100,4,2,1,80,0,1
78394,-100,4,2,1,70,0,0
80548,-125,4,2,1,70,0,0
80856,-100,4,2,1,70,0,0
83010,-125,4,2,1,70,0,0
83318,-100,4,2,1,70,0,0
88241,-133.333333333333,4,2,2,50,0,0
89318,-166.666666666667,4,2,2,50,0,0
90394,-100,4,2,2,50,0,0
90702,-111.111111111111,4,2,1,60,0,0
100548,-111.111111111111,4,2,1,60,0,0
108856,-100,4,2,1,70,0,0
109471,-100,4,2,1,80,0,0
110394,-100,4,2,1,70,0,0
118394,-100,4,2,1,50,0,0
119010,-100,4,2,1,50,0,0
119318,-100,4,2,1,50,0,0
119625,-100,4,2,1,60,0,0
120087,-100,4,2,1,80,0,1
139933,-100,4,2,1,80,0,1
144856,-111.111111111111,4,2,1,60,0,0
147010,-111.111111111111,4,2,1,60,0,0
147318,-111.111111111111,4,2,1,60,0,0
151933,-111.111111111111,4,2,1,60,0,0
152164,-111.111111111111,4,2,1,5,0,0
152241,-111.111111111111,4,2,1,60,0,0
154087,-111.111111111111,4,2,1,70,0,0
154702,-111.111111111111,4,2,1,70,0,0
159318,-111.111111111111,4,2,1,60,0,0
159625,-111.111111111111,4,2,1,60,0,0
161779,-111.111111111111,4,2,1,60,0,0
162087,-111.111111111111,4,2,1,60,0,0
163933,-100,4,2,1,60,0,0
164548,-111.111111111111,4,2,1,60,0,0
168856,-100,4,2,1,60,0,0
169164,-111.111111111111,4,2,1,60,0,0
169471,-111.111111111111,4,2,1,60,0,0
173779,-100,4,2,1,80,0,0
174394,-111.111111111111,4,2,1,60,0,0
176241,-100,4,2,1,80,0,0
176548,-100,4,2,1,80,0,0
176856,-100,4,2,1,60,0,0
177010,-111.111111111111,4,2,1,70,0,0
178702,-100,4,2,1,80,0,0
179010,-100,4,2,1,90,0,0
179318,-100,4,2,1,60,0,0
179471,-111.111111111111,4,2,1,70,0,0
181164,-83.3333333333333,4,2,1,80,0,0
181471,-83.3333333333333,4,2,1,100,0,0
181779,-100,4,2,1,60,0,0
181933,-100,4,2,1,70,0,0
183164,-90.9090909090909,4,2,1,50,0,0
183318,-100,4,2,1,85,0,0
183625,-90.9090909090909,4,2,1,65,0,0
183933,-90.9090909090909,4,2,1,80,0,0
186702,-100,4,2,1,40,0,0
195625,-133.333333333333,4,2,2,40,0,0
196548,-133.333333333333,4,3,42,40,0,0
201471,-200,4,2,2,40,0,0
204856,-66.6666666666667,4,2,2,40,0,0
205164,-100,4,2,2,60,0,0
206702,-200,4,2,2,40,0,0
207010,-100,4,2,1,35,0,0
207164,-100,4,2,1,35,0,0
207471,-100,4,2,1,80,0,1
227318,-100,4,2,1,80,0,1
232241,-100,4,2,1,60,0,0
234394,-100,4,2,1,60,0,0
234702,-100,4,2,1,60,0,0
236856,-100,4,2,1,60,0,0
237164,-100,4,2,1,60,0,0

[Colours]
Combo1 : 255,128,0
Combo2 : 223,159,191
Combo3 : 198,0,74
Combo4 : 193,0,0
Combo5 : 223,223,159
Combo6 : 217,201,0

[HitObjects]
256,192,1161,12,8,2988,0:3:0:0:
154,111,3318,22,0,B|241:85|233:144|344:119,1,180,6|8,0:0|0:0,0:0:0:0:
235,223,3779,1,0,0:0:0:0:
219,214,3856,1,2,0:0:0:0:
206,201,3933,2,0,P|189:167|182:106,1,90,2|0,0:0|0:0,0:0:0:0:
274,33,4241,1,2,0:0:0:0:
444,98,4394,38,0,L|428:260,1,135,8|0,0:0|0:0,0:0:0:0:
427,259,4702,1,2,0:0:0:0:
330,121,4856,2,0,P|324:72|297:10,1,90,8|0,0:0|0:0,0:0:0:0:
292,30,5087,1,2,0:0:0:0:
274,33,5164,1,2,0:0:0:0:
181,115,5318,1,0,0:0:0:0:
300,209,5471,2,0,P|361:212|415:159,1,108,8|0,0:0|0:0,0:0:0:0:
427,259,5779,38,0,L|403:51,1,180,2|8,0:0|0:0,0:0:0:0:
200,99,6241,2,0,L|145:88,2,45,0|8|0,0:0|0:0|3:0,0:0:0:0:
300,209,6548,1,0,0:0:0:0:
283,48,6702,1,2,0:0:0:0:
99,207,6856,38,0,P|145:201|207:180,1,90,8|0,0:0|0:0,0:0:0:0:
321,315,7164,2,0,P|277:304|232:302,1,90,2|8,0:0|0:0,0:0:0:0:
283,48,7471,2,0,L|301:219,1,135,0|0,0:0|0:0,0:0:0:0:
300,209,7779,1,2,0:0:0:0:
187,189,7933,2,0,L|201:95,1,90,8|0,0:0|0:0,0:0:0:0:
374,116,8241,37,6,0:0:0:0:
187,190,8394,1,0,0:0:0:0:
283,48,8548,1,8,0:0:0:0:
422,196,8702,1,0,0:0:0:0:
417,212,8779,1,8,0:0:0:0:
410,227,8856,2,0,P|362:225|305:208,1,90,2|0,0:0|0:0,0:0:0:0:
265,145,9164,1,2,0:0:0:0:
103,332,9318,38,0,P|98:287|92:242,1,90,8|0,0:0|0:0,0:0:0:0:
32,181,9625,1,2,0:0:0:0:
117,71,9779,2,0,P|160:81|223:82,1,90,8|0,0:0|0:0,0:0:0:0:
332,211,10087,38,0,P|339:239|346:289,2,60
226,347,10394,2,0,P|230:320|237:287,2,60,8|0|0,0:0|0:0|0:0,0:0:0:0:
177,210,10702,38,0,L|-21:246,1,180,2|8,0:0|0:0,0:0:0:0:
201,355,11164,1,0,0:0:0:0:
213,349,11241,1,8,0:0:0:0:
226,347,11318,2,0,P|275:351|314:362,1,90,2|0,0:0|0:0,0:0:0:0:
393,270,11625,1,2,0:0:0:0:
315,84,11779,38,0,P|297:151|280:268,1,180,8|0,0:0|0:0,0:0:0:0:
405,172,12241,1,8,0:0:0:0:
204,136,12394,1,2,0:0:0:0:
201,149,12471,1,0,0:0:0:0:
197,162,12548,2,0,P|149:157|106:145,1,90,0|0,1:0|0:0,0:0:0:0:
45,319,12856,2,0,P|91:305|142:295,1,90,2|8,0:0|0:0,0:0:0:0:
149,303,13087,1,8,0:0:0:0:
163,313,13164,38,0,B|174:207|106:244|109:122,1,180,6|8,0:0|0:0,0:0:0:0:
184,59,13625,2,0,L|252:45,2,45,0|8|0,0:0|0:0|3:0,0:0:0:0:
85,25,13933,1,0,0:0:0:0:
209,141,14087,1,2,0:0:0:0:
303,10,14241,38,0,L|489:30,1,180,8|2,0:0|0:0,0:0:0:0:
366,103,14702,1,8,0:0:0:0:
472,168,14856,1,0,0:0:0:0:
472,168,14933,1,0,0:0:0:0:
472,168,15010,1,2,0:0:0:0:
481,29,15164,1,0,0:0:0:0:
279,44,15318,2,0,P|263:91|269:143,1,90,8|0,0:0|0:0,0:0:0:0:
428,360,15625,38,0,P|454:278|407:223,1,135,2|0,0:0|0:0,0:0:0:0:
413,224,15933,1,8,0:0:0:0:
276,320,16087,1,0,0:0:0:0:
304,193,16241,1,2,0:0:0:0:
304,193,16394,1,0,0:0:0:0:
375,297,16548,1,2,0:0:0:0:
178,347,16702,38,0,P|173:300|163:255,1,90,8|0,0:0|0:0,0:0:0:0:
375,297,17010,2,0,P|417:317|462:324,1,90,2|8,0:0|0:0,0:0:0:0:
304,193,17318,2,0,L|259:207,2,45,2|0|0,0:0|0:0|0:0,0:0:0:0:
401,60,17625,1,2,0:0:0:0:
268,109,17779,2,0,L|181:90,1,72,8|0,0:0|0:0,0:0:0:0:
98,10,18087,38,0,P|52:56|65:140,1,135,6|0,0:0|0:0,0:0:0:0:
64,148,18394,1,8,0:0:0:0:
211,213,18548,1,0,0:0:0:0:
211,213,18625,1,0,0:0:0:0:
211,213,18702,1,2,0:0:0:0:
92,256,18856,1,0,0:0:0:0:
126,88,19010,1,2,0:0:0:0:
317,122,19164,38,0,P|329:211|345:310,1,180,8|2,0:0|0:0,0:0:0:0:
217,315,19625,2,0,L|230:210,1,90,8|0,0:0|0:0,0:0:0:0:
240,219,19856,1,2,0:0:0:0:
252,214,19933,1,2,0:0:0:0:
413,159,20087,1,2,0:0:0:0:
429,325,20241,2,0,P|385:309|322:296,1,90,8|0,0:0|0:0,0:0:0:0:
198,152,20548,38,0,P|283:137|336:227,1,180,2|8,0:0|0:0,0:0:0:0:
147,309,21010,1,0,0:0:0:0:
147,309,21087,1,8,0:0:0:0:
147,309,21164,2,0,P|100:321|42:341,1,90,2|0,0:0|0:0,0:0:0:0:
0,262,21471,1,2,0:0:0:0:
108,53,21625,38,0,L|93:195,1,135,8|0,0:0|0:0,0:0:0:0:
91,212,21933,1,2,0:0:0:0:
222,86,22087,2,0,L|239:179,1,90,8|0,0:0|0:0,0:0:0:0:
331,151,22318,1,0,0:0:0:0:
355,166,22394,38,0,P|350:188|347:210,1,45,2|2,0:0|0:0,0:0:0:0:
275,333,22548,2,0,P|271:311|268:289,1,45,2|2,0:0|0:0,0:0:0:0:
238,174,22702,37,8,0:0:0:0:
435,279,22856,1,2,0:0:0:0:
435,279,24241,22,0,P|362:280|299:331,1,135.000005149842,0|8,3:0|3:0,0:0:0:0:
251,219,24702,2,0,L|307:232,2,33.7500012874604,0|0|2,3:0|3:0|3:0,0:0:0:0:
236,367,25010,2,0,P|230:335|213:289,1,67.5000025749208,2|2,3:0|3:0,0:0:0:0:
90,165,25318,38,0,P|170:146|220:100,1,135.000005149842,10|2,3:0|3:0,0:0:0:0:
362,135,25779,2,0,P|331:125|286:116,1,67.5000025749208,8|0,3:0|3:0,0:0:0:0:
260,40,26087,1,2,3:0:0:0:
454,113,26241,2,0,P|447:151|442:192,1,67.5000025749208,0|8,3:0|3:0,0:0:0:0:
392,355,26548,38,0,P|387:288|357:229,1,135.000005149842,0|0,3:0|0:0,0:0:0:0:
297,162,27010,1,8,3:0:0:0:
276,309,27164,2,0,L|230:321,2,33.7500012874604,0|0|0,3:0|0:0|0:0,0:0:0:0:
264,220,27471,2,0,P|275:190|302:156,1,67.5000025749208,8|0,3:0|0:0,0:0:0:0:
367,115,27779,38,0,L|227:137,1,135.000005149842,8|0,3:0|0:0,0:0:0:0:
356,228,28241,1,8,0:3:0:0:
356,228,28394,1,0,0:0:0:0:
436,176,28548,2,0,P|473:178|511:206,2,67.5000025749208,0|0|8,0:0|0:0|0:3,0:0:0:0:
356,228,29010,1,0,0:0:0:0:
217,174,29164,38,0,L|196:28,1,135.000005149842,0|8,3:0|3:0,0:0:0:0:
129,97,29625,1,0,3:0:0:0:
129,97,29702,1,0,3:0:0:0:
129,97,29779,2,0,P|84:98|39:78,1,67.5000025749208,2|2,3:0|3:0,0:0:0:0:
12,28,30087,1,2,3:0:0:0:
95,207,30241,38,0,P|153:169|236:184,1,135.000005149842,10|2,3:0|3:0,0:0:0:0:
263,242,30702,2,0,L|248:344,1,101.250003862381,8|0,3:0|3:0,0:0:0:0:
248,342,31010,2,0,P|209:341|170:331,1,67.5000025749208,2|0,3:0|3:0,0:0:0:0:
174,248,31318,1,8,3:0:0:0:
348,306,31471,38,0,P|409:275|479:273,1,135.000005149842,0|8,3:0|3:0,0:0:0:0:
511,344,31933,1,0,3:0:0:0:
430,194,32087,2,0,L|369:181,2,33.7500012874604,8|0|0,3:0|0:0|3:0,0:0:0:0:
407,96,32394,2,0,P|375:109|342:114,1,67.5000025749208,8|0,3:0|3:0,0:0:0:0:
262,79,32702,1,8,3:0:0:0:
94,217,33010,37,0,3:0:0:0:
168,258,33164,2,0,P|207:254|248:236,1,67.5000025749208,8|0,3:0|3:0,0:0:0:0:
247,255,33394,1,2,3:0:0:0:
261,264,33471,2,0,L|282:340,1,67.5000025749208,2|2,3:0|3:0,0:0:0:0:
326,206,33779,1,2,3:0:0:0:
51,90,34087,37,6,0:0:0:0:
51,90,34394,2,0,P|103:128|176:114,1,121.499996292114,8|4,0:0|0:3,0:0:0:0:
189,139,34702,2,0,L|200:59,1,80.9999975280763,2|8,0:0|0:3,0:0:0:0:
178,316,35164,37,8,0:0:0:0:
178,316,35471,1,2,0:0:0:0:
271,333,35625,2,0,P|269:271|210:220,1,121.499996292114,8|4,0:0|0:3,0:0:0:0:
208,210,35933,2,0,P|168:218|122:222,1,80.9999975280763,2|8,0:0|0:3,0:0:0:0:
14,306,36241,2,0,P|54:309|95:319,1,80.9999975280763,8|0,0:0|0:0,0:0:0:0:
291,123,36548,37,2,0:0:0:0:
291,123,36856,2,0,L|434:141,1,121.499996292114,8|4,0:0|0:3,0:0:0:0:
411,138,37164,1,2,0:0:0:0:
346,236,37318,2,0,P|320:271|318:321,1,80.9999975280763,8|0,0:3|0:0,0:0:0:0:
511,372,37625,38,0,L|490:205,1,161.999995056153,8|2,0:0|0:0,0:0:0:0:
455,68,38087,2,0,P|378:65|331:117,1,121.499996292114,8|4,0:0|0:3,0:0:0:0:
333,128,38394,1,2,0:0:0:0:
402,292,38548,1,8,0:3:0:0:
490,211,38702,2,0,P|447:216|404:205,1,80.9999975280763,8|0,0:0|0:0,0:0:0:0:
276,295,39010,38,0,L|107:322,1,161.999995056153,2|8,0:0|0:0,0:0:0:0:
260,211,39471,1,0,0:0:0:0:
260,211,39548,1,4,0:3:0:0:
260,211,39625,2,0,P|305:213|343:242,1,80.9999975280763,2|8,0:0|0:3,0:0:0:0:
201,346,39933,1,0,0:0:0:0:
126,248,40087,38,0,L|144:80,1,161.999995056153,8|2,0:0|0:0,0:0:0:0:
74,40,40548,1,8,0:0:0:0:
230,155,40702,1,0,0:0:0:0:
230,155,40779,1,4,0:3:0:0:
230,155,40856,2,0,P|270:155|310:135,1,80.9999975280763,2|8,0:0|0:3,0:0:0:0:
29,120,41164,2,0,L|43:200,1,80.9999975280763,8|0,0:0|0:0,0:0:0:0:
207,310,41471,38,0,P|265:256|344:264,1,161.999995056153,2|8,0:0|0:0,0:0:0:0:
428,320,41933,2,0,L|436:372,2,40.4999987640381,0|4|2,0:0|0:3|0:0,0:0:0:0:
443,167,42241,2,0,P|400:166|365:183,1,80.9999975280763,8|0,0:3|0:0,0:0:0:0:
342,263,42548,1,8,0:0:0:0:
252,197,42702,5,0,0:0:0:0:
320,128,42856,1,4,0:3:0:0:
320,128,42933,1,4,0:3:0:0:
320,128,43010,1,8,0:0:0:0:
254,291,43164,1,8,0:0:0:0:
94,184,43318,37,8,0:0:0:0:
188,349,43471,1,8,0:0:0:0:
186,136,43625,1,8,0:0:0:0:
74,268,43779,1,8,0:0:0:0:
252,197,43933,22,0,P|295:206|344:209,1,90,6|0,0:0|0:0,0:0:0:0:
411,130,44241,1,8,0:0:0:0:
369,317,44394,2,0,P|434:324|499:220,1,180,0|0,0:0|0:0,0:0:0:0:
410,130,44856,1,8,0:0:0:0:
410,130,45010,38,0,P|366:127|322:117,1,90,0|2,0:0|0:0,0:0:0:0:
252,197,45318,1,0,0:0:0:0:
202,30,45471,1,8,0:0:0:0:
322,117,45625,1,0,0:0:0:0:
160,276,45779,2,0,L|143:180,1,90,2|0,0:0|0:0,0:0:0:0:
38,28,46087,2,0,P|14:81|20:119,1,90,8|0,0:0|0:0,0:0:0:0:
147,89,46394,38,0,P|188:110|247:98,1,90,2|0,0:0|0:0,0:0:0:0:
312,15,46702,1,8,0:0:0:0:
252,197,46856,2,0,L|442:169,1,180,0|0,0:0|0:0,0:0:0:0:
487,85,47318,1,8,0:0:0:0:
490,276,47471,38,0,P|447:260|397:257,1,90,0|2,0:0|0:0,0:0:0:0:
287,316,47779,2,0,L|177:331,1,90,0|8,0:0|0:0,0:0:0:0:
92,252,48087,2,0,L|32:243,2,45,0|0|2,0:0|0:0|0:0,0:0:0:0:
197,328,48394,1,0,0:0:0:0:
170,176,48548,1,8,0:0:0:0:
170,176,48856,38,0,P|232:196|306:146,1,135,2|0,0:0|0:0,0:0:0:0:
328,100,49164,2,0,L|311:11,1,90,8|0,0:0|0:0,0:0:0:0:
216,76,49471,1,2,0:0:0:0:
422,19,49625,1,0,0:0:0:0:
216,76,49779,1,8,0:0:0:0:
396,184,49933,1,0,0:0:0:0:
196,222,50087,38,0,L|87:245,1,90,8|2,0:0|0:0,0:0:0:0:
180,365,50394,1,0,0:0:0:0:
338,293,50548,38,0,P|386:284|442:309,1,90,8|2,0:0|0:0,0:0:0:0:
494,361,50856,1,2,0:0:0:0:
397,134,51010,37,8,0:0:0:0:
425,297,51164,1,8,0:0:0:0:
481,209,51318,70,0,L|428:221,1,53.9999983520508,2|0,0:1|0:0,0:0:0:0:
188,205,51625,38,0,L|272:183,1,62.9999980773926,2|0,0:1|0:0,0:0:0:0:
451,81,51933,38,0,L|357:104,1,72,2|0,0:1|0:0,0:0:0:0:
115,84,52241,38,0,L|202:63,1,80.9999975280763,2|2,0:1|0:1,0:0:0:0:
261,258,52548,37,8,0:0:0:0:
261,258,52625,1,0,0:0:0:0:
261,258,52702,2,0,L|268:189,1,45,4|4,0:3|0:3,0:0:0:0:
284,107,52856,1,8,0:0:0:0:
58,327,53472,21,0,0:0:0:0:
58,327,53625,2,0,P|143:313|244:358,1,180,6|0,0:0|0:0,0:0:0:0:
316,300,54087,1,8,0:0:0:0:
184,146,54241,2,0,P|166:186|154:283,1,135,2|0,0:0|0:0,0:0:0:0:
156,307,54548,1,2,0:0:0:0:
269,189,54702,1,8,0:0:0:0:
87,151,54856,38,0,P|43:139|-25:133,1,90,2|0,0:0|0:0,0:0:0:0:
161,248,55164,2,0,P|113:253|51:281,1,90,2|8,0:0|0:0,0:0:0:0:
176,47,55471,2,0,L|326:26,1,135,2|0,0:0|0:0,0:0:0:0:
337,24,55779,1,2,0:0:0:0:
394,159,55933,1,8,0:0:0:0:
237,227,56087,1,2,0:0:0:0:
411,72,56241,38,0,P|477:123|471:204,1,135,2|0,0:0|0:0,0:0:0:0:
474,211,56548,1,8,0:0:0:0:
326,243,56702,2,0,L|225:225,1,90,2|0,0:0|0:0,0:0:0:0:
478,320,57010,2,0,L|385:337,1,90,2|8,0:0|0:0,0:0:0:0:
238,228,57318,38,0,P|197:281|198:362,1,135,2|0,0:0|0:0,0:0:0:0:
204,372,57625,1,2,0:0:0:0:
311,326,57779,1,8,0:0:0:0:
297,156,57933,1,2,0:0:0:0:
142,202,58087,2,0,L|164:309,1,90,0|2,0:0|0:0,0:0:0:0:
160,290,58318,1,0,0:0:0:0:
160,290,58394,1,8,0:0:0:0:
238,228,58548,1,0,0:0:0:0:
40,332,58702,38,0,P|100:321|194:353,1,135,2|0,1:2|0:0,0:0:0:0:
204,372,59010,1,8,0:0:0:0:
311,326,59164,2,0,P|320:282|338:224,1,90,2|0,1:2|0:0,0:0:0:0:
413,293,59471,1,2,0:0:0:0:
458,163,59625,1,8,0:0:0:0:
332,238,59779,38,0,P|290:256|233:251,1,90,2|0,1:2|0:0,0:0:0:0:
250,79,60087,2,0,L|268:171,1,90,2|8,0:0|0:0,0:0:0:0:
123,322,60394,2,0,L|153:141,1,180,2|2,1:2|0:0,0:0:0:0:
43,199,60856,1,8,1:2:0:0:
246,255,61010,1,0,0:0:0:0:
160,85,61164,38,0,B|67:131|68:63|-23:97,1,180,2|8,0:0|0:0,0:0:0:0:
122,187,61625,1,0,0:0:0:0:
135,189,61702,1,0,0:0:0:0:
148,191,61779,1,2,0:0:0:0:
253,81,61933,1,2,0:0:0:0:
99,19,62087,1,8,0:0:0:0:
148,191,62241,38,0,L|252:167,1,90,2|0,0:0|0:0,0:0:0:0:
253,81,62548,1,2,0:0:0:0:
41,167,62702,2,0,P|68:230|73:308,1,135,10|2,0:0|0:0,0:0:0:0:
66,325,63010,1,2,0:0:0:0:
148,191,63164,1,0,0:0:0:0:
267,245,63318,1,8,0:0:0:0:
162,357,63471,1,2,1:2:0:0:
162,357,63548,1,0,0:0:0:0:
162,357,63625,38,0,P|167:312|188:268,1,90,4|2,0:0|0:0,0:0:0:0:
336,331,63933,1,8,0:0:0:0:
266,244,64087,2,0,L|356:231,1,90,2|0,0:0|0:0,0:0:0:0:
300,139,64394,2,0,L|390:127,1,90,2|8,0:0|0:0,0:0:0:0:
494,194,64702,1,2,1:2:0:0:
494,194,64779,1,0,0:0:0:0:
494,194,64856,37,0,0:0:0:0:
345,55,65010,1,2,0:0:0:0:
487,28,65164,1,8,0:0:0:0:
389,127,65318,2,0,P|348:192|392:285,1,180,2|2,0:0|0:0,0:0:0:0:
242,342,65779,2,0,P|256:300|260:241,1,90,8|0,0:0|0:0,0:0:0:0:
205,111,66087,37,2,1:2:0:0:
330,196,66241,1,0,0:0:0:0:
162,271,66394,1,8,0:0:0:0:
343,327,66548,2,0,L|443:311,1,90,2|0,0:0|0:0,0:0:0:0:
199,191,66856,2,0,L|109:202,1,90,2|8,0:0|0:0,0:0:0:0:
40,114,67164,38,0,L|-10:106,2,45,2|0|0,1:2|0:0|0:0,0:0:0:0:
109,202,67471,2,0,P|129:234|144:290,1,90,2|8,0:0|0:0,0:0:0:0:
104,370,67779,1,2,0:0:0:0:
252,252,67933,2,0,P|311:212|379:204,1,135,0|0,0:0|0:0,0:0:0:0:
398,220,68241,1,8,0:0:0:0:
362,307,68394,1,2,0:0:0:0:
269,143,68548,38,0,P|334:118|403:121,1,135,6|0,1:2|0:0,0:0:0:0:
425,134,68856,1,8,0:0:0:0:
335,19,69010,2,0,P|317:57|314:106,1,90,2|0,0:0|1:2,0:0:0:0:
372,203,69318,1,2,0:0:0:0:
438,29,69471,1,8,0:0:0:0:
215,5,69625,38,0,P|228:89|238:190,1,180,2|2,1:2|0:0,0:0:0:0:
165,255,70087,1,8,0:0:0:0:
128,120,70241,1,2,0:0:0:0:
138,111,70318,1,0,0:0:0:0:
149,103,70394,2,0,P|190:84|239:78,1,90,0|2,0:0|0:0,0:0:0:0:
322,137,70702,1,8,1:2:0:0:
262,248,70856,1,0,0:0:0:0:
51,172,71010,38,0,L|79:37,1,135,2|0,0:0|0:0,0:0:0:0:
149,103,71318,2,0,P|160:146|167:200,1,90,8|0,1:2|0:0,0:0:0:0:
92,267,71625,1,2,0:0:0:0:
238,124,71779,1,0,0:0:0:0:
275,303,71933,1,8,1:2:0:0:
46,360,72087,38,0,L|191:329,1,135,2|0,1:2|0:0,0:0:0:0:
248,218,72394,2,0,P|309:220|361:295,1,135,2|0,0:0|0:0,0:0:0:0:
467,328,72702,37,2,0:0:0:0:
467,328,72779,1,0,0:0:0:0:
466,327,72856,2,0,L|486:238,1,90,0|0,0:0|1:0,0:0:0:0:
419,92,73164,1,8,1:2:0:0:
419,92,73318,1,0,1:0:0:0:
342,244,73471,38,0,L|319:140,1,90,12|0,0:0|0:0,0:0:0:0:
296,53,73779,1,0,0:0:0:0:
46,181,73933,38,0,B|99:174|99:174|169:210|169:210|247:199,1,180,8|0,0:0|0:0,0:0:0:0:
186,113,74394,1,2,0:0:0:0:
77,264,74548,1,0,0:0:0:0:
212,304,74702,38,0,P|262:296|299:259,1,90,12|0,0:0|0:0,0:0:0:0:
186,113,75010,1,0,0:0:0:0:
410,216,75164,38,0,P|336:263|317:349,1,180,12|0,0:0|0:0,0:0:0:0:
482,138,75625,2,0,P|436:142|391:118,1,90,2|0,0:0|0:0,0:0:0:0:
434,49,75856,1,0,0:0:0:0:
430,29,75933,38,0,L|320:48,1,90,12|0,0:0|0:0,0:0:0:0:
262,156,76241,1,0,0:0:0:0:
139,29,76394,38,0,B|123:60|123:60|134:116,1,90,12|0,0:0|0:0,0:0:0:0:
224,219,76702,1,0,0:0:0:0:
140,338,76856,38,0,B|152:302|152:302|140:239,1,90,8|8,0:0|0:0,0:0:0:0:
61,278,77164,37,2,0:0:0:0:
234,329,77318,1,12,0:0:0:0:
42,289,77471,37,8,0:3:0:0:
249,207,77625,1,8,0:3:0:0:
46,131,77779,37,8,0:0:0:0:
273,198,77933,1,4,0:3:0:0:
294,232,78010,1,0,0:3:0:0:
331,247,78087,1,8,0:0:0:0:
371,242,78164,1,0,0:0:0:0:
406,222,78241,2,0,L|415:162,1,45,8|8,0:0|0:0,0:0:0:0:
433,37,78394,38,0,L|246:67,1,180,6|8,0:0|0:0,0:0:0:0:
341,161,78856,1,0,0:0:0:0:
341,161,78933,1,2,0:0:0:0:
341,161,79010,1,2,0:0:0:0:
203,3,79164,2,0,P|177:44|177:94,1,90,0|2,0:0|0:0,0:0:0:0:
238,193,79471,38,0,L|221:335,1,135,8|0,0:0|0:0,0:0:0:0:
218,352,79779,1,2,0:0:0:0:
324,241,79933,2,0,P|364:229|424:231,1,90,8|0,0:0|0:0,0:0:0:0:
423,237,80164,1,2,0:0:0:0:
431,248,80241,1,2,0:0:0:0:
466,352,80394,1,0,0:0:0:0:
374,315,80548,2,0,P|347:268|354:216,1,108,8|0,0:0|0:0,0:0:0:0:
460,134,80856,38,0,L|264:114,1,180,2|8,0:0|0:0,0:0:0:0:
177,188,81318,2,0,L|117:205,2,45,0|2|2,0:0|0:0|0:0,0:0:0:0:
253,264,81625,1,0,0:0:0:0:
127,113,81779,1,2,0:0:0:0:
157,312,81933,38,0,L|68:297,1,90,8|0,0:0|0:0,0:0:0:0:
263,168,82241,2,0,L|359:147,1,90,2|8,0:0|0:0,0:0:0:0:
96,34,82548,2,0,P|46:76|67:170,1,135,0|0,0:0|0:0,0:0:0:0:
64,174,82856,1,0,0:0:0:0:
177,188,83010,1,8,0:0:0:0:
127,113,83164,1,0,0:0:0:0:
129,306,83318,38,0,P|171:292|220:287,2,90,6|0|8,0:0|0:0|0:0,0:0:0:0:
30,259,83779,1,0,0:0:0:0:
30,259,83856,1,2,0:0:0:0:
30,259,83933,1,2,0:0:0:0:
127,113,84087,1,0,0:0:0:0:
216,287,84241,1,2,0:0:0:0:
137,214,84394,38,0,P|209:184|313:177,1,180,8|2,0:0|0:0,0:0:0:0:
418,307,84856,2,0,P|380:305|325:283,1,90,8|0,0:0|0:0,0:0:0:0:
272,88,85164,38,0,L|333:75,2,60
419,165,85471,2,0,L|359:179,2,60,8|0|0,0:0|0:0|0:0,0:0:0:0:
216,287,85779,38,0,P|208:230|188:132,1,135,6|0,0:0|0:0,0:0:0:0:
169,129,86087,1,8,0:0:0:0:
112,212,86241,1,0,0:0:0:0:
112,212,86318,1,2,0:0:0:0:
112,212,86394,1,2,0:0:0:0:
278,135,86548,1,2,0:0:0:0:
216,287,86702,1,2,0:0:0:0:
234,63,86856,38,0,P|318:59|364:145,1,180,8|2,0:0|0:0,0:0:0:0:
319,305,87318,2,0,L|303:205,1,90,8|0,0:0|0:0,0:0:0:0:
483,67,87625,1,0,0:0:0:0:
478,93,87702,1,0,0:0:0:0:
473,119,87779,1,0,0:0:0:0:
468,145,87856,1,0,0:0:0:0:
463,171,87933,1,8,0:0:0:0:
364,133,88087,1,0,3:0:0:0:
304,216,88241,6,0,P|272:229|220:226,1,67.5000025749208,2|0,3:2|0:0,0:0:0:0:
239,230,88548,1,0,0:0:0:0:
79,120,88702,38,0,P|119:120|172:162,1,101.250003862381,2|0,3:2|0:0,0:0:0:0:
163,185,89010,2,0,L|151:251,1,67.5000025749208,2|0,3:2|0:0,0:0:0:0:
136,334,89318,1,2,0:0:0:0:
98,320,90702,6,0,P|159:293|223:294,1,121.499996292114,6|0,0:0|0:0,0:0:0:0:
247,305,91010,1,8,0:0:0:0:
292,210,91164,1,0,0:0:0:0:
376,264,91318,2,0,P|383:304|388:345,1,80.9999975280763,2|2,0:0|0:0,0:0:0:0:
292,210,91625,1,2,0:0:0:0:
435,175,91779,38,0,P|438:117|449:13,1,161.999995056153,8|2,0:0|0:0,0:0:0:0:
351,67,92241,2,0,P|308:82|258:74,1,80.9999975280763,8|0,0:0|0:0,0:0:0:0:
121,149,92548,2,0,P|161:147|198:161,1,80.9999975280763,2|2,0:0|0:0,0:0:0:0:
245,238,92856,1,8,0:0:0:0:
56,322,93010,1,0,0:0:0:0:
56,322,93087,1,0,0:0:0:0:
56,322,93164,38,0,L|38:158,1,161.999995056153,2|8,0:0|0:0,0:0:0:0:
147,237,93625,2,0,L|137:304,2,40.4999987640381,0|0|2,3:0|3:0|0:0,0:0:0:0:
198,161,93933,2,0,P|240:158|295:150,1,80.9999975280763,2|2,0:0|0:0,0:0:0:0:
411,299,94241,38,0,P|370:293|330:290,1,80.9999975280763,8|0,0:0|0:0,0:0:0:0:
255,347,94548,1,2,0:0:0:0:
147,237,94702,1,8,0:0:0:0:
89,345,94856,1,0,3:0:0:0:
89,345,94933,1,0,0:0:0:0:
89,345,95010,2,0,P|130:328|185:332,1,80.9999975280763,2|2,0:0|0:0,0:0:0:0:
255,347,95318,1,8,0:0:0:0:
315,216,95471,1,0,0:0:0:0:
207,128,95625,38,0,L|16:153,1,161.999995056153,2|8,0:0|0:0,0:0:0:0:
84,53,96087,2,0,L|52:5,2,40.4999987640381,0|0|2,3:0|3:0|0:0,0:0:0:0:
143,227,96394,2,0,L|239:214,1,80.9999975280763,2|0,0:0|0:0,0:0:0:0:
403,245,96702,38,0,P|344:306|258:281,1,161.999995056153,8|2,0:0|0:0,0:0:0:0:
224,217,97164,2,0,L|236:121,1,80.9999975280763,8|0,0:0|3:0,0:0:0:0:
244,130,97394,1,0,3:0:0:0:
255,124,97471,1,2,0:0:0:0:
408,72,97625,1,2,0:0:0:0:
292,17,97779,1,8,0:0:0:0:
343,145,97933,38,0,L|329:318,1,161.999995056153
204,336,98394,1,8,0:0:0:0:
151,262,98548,2,0,P|193:246|239:253,1,80.9999975280763,0|2,3:0|0:0,0:0:0:0:
343,145,98856,2,0,P|301:161|255:154,1,80.9999975280763,2|2,0:0|0:0,0:0:0:0:
228,249,99164,38,0,L|211:71,1,161.999995056153,8|2,0:0|0:0,0:0:0:0:
303,26,99625,2,0,P|366:17|432:56,1,121.499996292114,8|0,0:0|0:0,0:0:0:0:
435,66,99933,1,2,0:0:0:0:
399,229,100087,1,2,0:0:0:0:
349,139,100241,1,8,0:0:0:0:
435,66,100394,1,0,3:0:0:0:
497,167,100548,38,0,P|486:244|482:344,1,161.999995056153,6|8,0:0|0:0,0:0:0:0:
399,229,101010,2,0,P|336:244|264:200,1,121.499996292114,2|0,0:0|0:0,0:0:0:0:
264,205,101318,1,2,0:0:0:0:
253,111,101471,1,8,0:0:0:0:
281,319,101625,38,0,L|100:337,1,161.999995056153,0|2,0:0|0:0,0:0:0:0:
86,174,102087,1,8,0:0:0:0:
221,226,102241,1,2,0:0:0:0:
121,250,102394,2,0,P|58:251|5:196,1,121.499996292114,0|0,0:0|0:0,0:0:0:0:
4,183,102702,1,8,0:0:0:0:
69,62,102856,1,0,0:0:0:0:
168,147,103010,38,0,P|234:138|346:129,1,161.999995056153,2|8,0:0|0:0,0:0:0:0:
388,191,103471,1,2,0:0:0:0:
425,49,103625,2,0,P|475:48|527:36,1,80.9999975280763,0|2,0:0|0:0,0:0:0:0:
329,129,103933,1,8,0:0:0:0:
491,229,104087,38,0,P|440:233|316:251,1,161.999995056153,2|2,0:0|0:0,0:0:0:0:
271,334,104548,2,0,P|313:350|356:347,1,80.9999975280763,8|2,0:0|0:0,0:0:0:0:
363,343,104779,1,0,0:0:0:0:
375,334,104856,1,2,0:0:0:0:
310,153,105010,1,8,0:0:0:0:
193,265,105164,2,0,L|169:364,1,80.9999975280763,2|8,0:0|0:0,0:0:0:0:
450,264,105471,38,0,P|438:192|414:83,1,161.999995056153,6|8,0:0|0:0,0:0:0:0:
301,74,105933,2,0,P|237:117|260:218,1,161.999995056153,2|2,0:0|0:0,0:0:0:0:
315,242,106394,1,8,0:0:0:0:
161,330,106548,1,2,0:0:0:0:
149,318,106625,1,0,0:0:0:0:
138,305,106702,38,0,P|146:264|152:219,1,80.9999975280763,0|2,0:0|0:0,0:0:0:0:
72,158,107010,1,8,0:0:0:0:
234,63,107164,1,2,0:0:0:0:
293,145,107318,2,0,P|332:136|372:130,1,80.9999975280763,0|2,0:0|0:0,0:0:0:0:
230,240,107625,2,0,P|200:233|150:224,1,80.9999975280763,8|2,0:0|0:0,0:0:0:0:
127,4,107933,38,0,P|146:69|155:145,1,121.499996292114,2|0,0:0|0:0,0:0:0:0:
156,145,108241,1,8,0:0:0:0:
45,222,108394,2,0,P|51:183|63:143,1,80.9999975280763,2|0,0:0|0:0,0:0:0:0:
234,63,108702,2,0,P|247:102|257:146,1,80.9999975280763,2|8,0:0|0:0,0:0:0:0:
278,274,109010,1,0,0:0:0:0:
438,123,109164,5,8,0:0:0:0:
360,217,109318,1,0,3:0:0:0:
256,140,109471,1,0,3:0:0:0:
150,224,109625,1,8,0:0:0:0:
150,224,109702,1,0,0:0:0:0:
150,224,109779,38,0,L|140:279,3,45,0|0|0|0,3:0|0:0|3:0|0:0,0:0:0:0:
43,156,110087,2,0,L|53:101,3,45,8|0|0|0,0:0|0:0|0:0|0:0,0:0:0:0:
163,94,110394,22,0,P|211:87|264:59,1,90,6|0,0:0|0:0,0:0:0:0:
350,19,110702,1,8,0:0:0:0:
341,134,110856,2,0,L|364:197,2,45,8|0|0,3:0|3:0|3:0,0:0:0:0:
248,71,111164,1,2,0:0:0:0:
449,162,111318,1,8,0:0:0:0:
238,263,111471,38,0,P|243:218|260:173,1,90,0|2,0:0|0:0,0:0:0:0:
341,134,111779,1,0,0:0:0:0:
156,206,111933,1,8,0:0:0:0:
333,250,112087,2,0,L|399:235,2,45,8|0|0,3:0|3:0|3:0,0:0:0:0:
239,360,112394,1,2,0:0:0:0:
155,205,112548,2,0,L|138:117,1,90,8|0,0:0|0:0,0:0:0:0:
312,39,112856,38,0,P|356:33|408:57,1,90,2|0,0:0|0:0,0:0:0:0:
465,181,113164,1,8,0:0:0:0:
285,234,113318,1,8,3:0:0:0:
285,234,113394,1,0,3:0:0:0:
285,234,113471,1,0,3:0:0:0:
468,291,113625,1,2,0:0:0:0:
376,240,113779,2,0,L|360:142,1,90,8|0,0:0|0:0,0:0:0:0:
357,133,114010,1,0,0:0:0:0:
353,115,114087,37,2,0:0:0:0:
465,181,114241,1,0,0:0:0:0:
316,316,114394,1,8,0:0:0:0:
133,229,114548,2,0,L|76:222,2,45,8|0|0,3:0|3:0|3:0,0:0:0:0:
316,316,114856,1,2,0:0:0:0:
212,358,115010,2,0,P|219:291|241:227,1,135,8|0,0:0|0:0,0:0:0:0:
256,202,115318,37,6,0:0:0:0:
81,128,115471,1,0,0:0:0:0:
163,63,115625,2,0,P|171:107|177:152,2,90,8|8|0,0:0|3:0|3:0,0:0:0:0:
288,6,116087,2,0,P|280:56|275:120,1,90,2|8,0:0|0:0,0:0:0:0:
456,68,116394,38,0,P|415:54|353:66,1,90,0|2,0:0|0:0,0:0:0:0:
275,95,116702,1,0,0:0:0:0:
330,262,116856,1,8,0:0:0:0:
401,142,117010,1,8,3:0:0:0:
401,142,117087,1,0,3:0:0:0:
401,142,117164,1,0,3:0:0:0:
220,205,117318,1,2,0:0:0:0:
260,327,117471,2,0,P|317:362|381:350,1,135,8|0,0:0|0:0,0:0:0:0:
395,338,117779,21,8,0:0:0:0:
444,244,117933,1,2,0:0:0:0:
401,142,118087,1,2,0:0:0:0:
268,205,118241,37,8,0:0:0:0:
356,224,118394,1,2,3:2:0:0:
444,244,118548,1,2,3:2:0:0:
401,142,118702,37,8,3:2:0:0:
395,338,118856,1,0,3:0:0:0:
268,205,119010,1,0,3:0:0:0:
259,208,119087,1,0,3:0:0:0:
250,211,119164,1,0,3:0:0:0:
241,214,119241,1,0,3:0:0:0:
201,203,119318,37,8,0:3:0:0:
192,200,119395,1,0,0:3:0:0:
183,197,119472,1,0,0:3:0:0:
174,194,119549,1,0,0:3:0:0:
166,191,119625,37,8,0:0:0:0:
128,207,119702,1,0,0:0:0:0:
89,193,119779,1,0,0:0:0:0:
61,163,119856,1,0,0:0:0:0:
61,122,119933,1,8,0:0:0:0:
87,91,120010,1,0,0:0:0:0:
124,75,120087,70,0,P|198:65|257:39,1,135,6|0,0:0|0:0,0:0:0:0:
272,18,120394,1,2,0:0:0:0:
286,222,120548,1,8,0:0:0:0:
407,106,120702,2,0,P|360:111|319:139,1,90,2|0,0:0|0:0,0:0:0:0:
216,300,121010,2,0,P|253:325|299:329,1,90,2|8,0:0|0:0,0:0:0:0:
432,375,121318,38,0,L|413:241,1,135,2|0,0:0|0:0,0:0:0:0:
407,208,121625,1,2,0:0:0:0:
286,222,121779,1,8,0:0:0:0:
332,341,121933,1,2,0:0:0:0:
332,341,122010,1,0,0:0:0:0:
332,341,122087,1,0,0:0:0:0:
448,183,122241,1,0,0:0:0:0:
306,134,122394,2,0,P|251:134|174:85,1,135,8|0,0:0|0:0,0:0:0:0:
161,22,122702,38,0,L|146:187,1,135,2|0,0:0|0:0,0:0:0:0:
146,197,123010,1,8,0:0:0:0:
374,88,123164,2,0,P|338:61|293:55,1,90,2|0,0:0|0:0,0:0:0:0:
136,107,123471,2,0,L|147:206,1,90,0|8,0:0|0:0,0:0:0:0:
317,297,123779,38,0,P|384:310|455:272,1,135,2|0,0:0|0:0,0:0:0:0:
475,217,124087,2,0,L|461:114,1,90,2|8,0:0|0:0,0:0:0:0:
295,55,124394,2,0,L|309:158,1,90,2|0,0:0|0:0,0:0:0:0:
373,223,124702,1,2,0:0:0:0:
373,223,124779,1,0,0:0:0:0:
373,223,124856,1,8,0:0:0:0:
397,68,125010,1,0,0:0:0:0:
216,123,125164,38,0,B|110:146|140:81|34:108,1,180,2|8,1:2|0:0,0:0:0:0:
120,257,125625,2,0,P|139:219|137:145,1,90,2|0,1:2|0:0,0:0:0:0:
271,20,125933,2,0,P|225:29|170:36,1,90,2|8,0:0|0:0,0:0:0:0:
228,203,126241,38,0,P|273:207|330:216,1,90,2|0,1:2|0:0,0:0:0:0:
422,319,126548,2,0,L|433:379,2,45,2|0|8,0:0|0:0|0:0,0:0:0:0:
402,161,126856,1,2,0:0:0:0:
326,298,127010,1,0,0:0:0:0:
473,231,127164,1,2,0:0:0:0:
317,213,127318,2,0,P|254:247|255:340,1,135,8|0,0:0|0:0,0:0:0:0:
251,328,127625,38,0,P|205:332|146:342,1,90,2|0,0:0|0:0,0:0:0:0:
88,267,127933,1,8,0:0:0:0:
199,186,128087,1,2,0:0:0:0:
199,186,128164,1,0,0:0:0:0:
199,186,128241,1,0,0:0:0:0:
161,338,128394,1,2,0:0:0:0:
72,163,128548,1,8,0:0:0:0:
257,120,128702,38,0,P|275:147|279:217,1,90,2|0,0:0|0:0,0:0:0:0:
217,275,129010,1,2,0:0:0:0:
174,95,129164,2,0,P|246:91|297:46,1,135,8|0,0:0|0:0,0:0:0:0:
310,26,129471,1,8,0:0:0:0:
371,156,129625,1,0,0:0:0:0:
371,156,129702,1,8,0:0:0:0:
371,156,129779,2,0,L|378:219,1,45,8|0,0:0|0:0,0:0:0:0:
141,209,129933,38,0,L|120:346,1,135,6|0,1:2|0:0,0:0:0:0:
118,362,130241,1,2,0:0:0:0:
42,252,130394,1,8,0:0:0:0:
110,134,130548,2,0,P|155:129|198:147,1,90,2|0,0:0|0:0,0:0:0:0:
311,291,130856,2,0,L|218:313,1,90,2|8,0:0|0:0,0:0:0:0:
285,158,131164,1,2,1:2:0:0:
403,317,131318,37,0,0:0:0:0:
212,225,131471,2,0,L|153:213,2,45,2|0|8,0:0|0:0|0:0,0:0:0:0:
391,181,131779,1,2,0:0:0:0:
311,291,131933,2,0,P|301:221|285:156,1,135,0|0,0:0|0:0,0:0:0:0:
275,118,132241,2,0,P|235:136|186:137,1,90,8|0,0:0|0:0,0:0:0:0:
176,134,132471,1,0,0:0:0:0:
164,126,132548,37,2,1:2:0:0:
209,45,132702,1,0,0:0:0:0:
212,225,132856,1,8,0:0:0:0:
73,162,133010,2,0,P|78:118|87:74,1,90,2|0,0:0|0:0,0:0:0:0:
164,126,133318,1,2,0:0:0:0:
0,105,133471,1,8,0:0:0:0:
164,126,133625,38,0,P|172:189|183:292,1,135,2|0,1:2|0:0,0:0:0:0:
182,284,133933,1,2,0:0:0:0:
260,190,134087,1,8,0:0:0:0:
84,246,134241,1,2,0:0:0:0:
127,349,134394,2,0,P|162:367|217:362,1,90,0|2,0:0|0:0,0:0:0:0:
368,337,134702,2,0,P|361:293|352:249,1,90,8|0,0:0|0:0,0:0:0:0:
349,236,134933,1,0,0:0:0:0:
344,224,135010,37,2,1:2:0:0:
368,86,135164,1,0,0:0:0:0:
260,190,135318,1,8,0:0:0:0:
411,168,135471,2,0,P|456:172|499:181,1,90,2|0,0:0|0:0,0:0:0:0:
276,99,135779,2,0,P|232:94|188:81,1,90,2|8,0:0|0:0,0:0:0:0:
110,240,136087,38,0,P|184:253|262:181,1,180,2|2,1:2|0:0,0:0:0:0:
278,308,136548,1,8,0:0:0:0:
170,345,136702,1,2,0:0:0:0:
170,345,136779,1,0,0:0:0:0:
170,345,136856,2,0,P|180:301|184:242,1,90,0|2,0:0|0:0,0:0:0:0:
26,171,137164,2,0,P|14:208|10:273,1,90,8|0,0:0|0:0,0:0:0:0:
181,169,137471,38,0,L|326:141,1,135,2|0,1:2|0:0,0:0:0:0:
335,138,137779,1,8,0:0:0:0:
421,267,137933,2,0,L|484:279,2,45,0|0|2,0:0|0:0|0:0,0:0:0:0:
267,223,138241,1,0,0:0:0:0:
332,311,138394,1,8,0:0:0:0:
468,140,138548,38,0,P|466:74|400:23,1,135,2|0,1:2|0:0,0:0:0:0:
340,52,138856,2,0,B|272:75|272:23|195:44,1,135,2|0,0:0|0:0,0:0:0:0:
152,116,139164,1,2,0:0:0:0:
152,116,139241,1,0,0:0:0:0:
152,116,139318,38,0,L|165:233,1,90,8|8,0:0|0:0,0:0:0:0:
56,168,139625,1,8,0:0:0:0:
254,39,139779,1,8,0:0:0:0:
92,20,139933,38,0,P|58:47|46:89,1,90,12|0,1:2|0:0,0:0:0:0:
56,168,140241,1,0,0:0:0:0:
236,156,140394,2,0,B|298:141|298:141|358:152|358:152|422:130,1,180,8|0,1:2|0:0,0:0:0:0:
341,55,140856,1,2,0:0:0:0:
304,240,141010,1,0,0:0:0:0:
304,240,141087,1,0,0:0:0:0:
304,240,141164,38,0,P|263:257|218:256,1,90,12|0,1:2|0:0,0:0:0:0:
136,160,141471,1,0,0:0:0:0:
144,288,141625,38,0,P|239:290|267:373,1,180,12|0,1:2|0:0,0:0:0:0:
58,318,142087,2,0,P|55:276|72:221,1,90,2|0,0:0|0:0,0:0:0:0:
73,215,142318,1,0,0:0:0:0:
78,204,142394,37,12,1:2:0:0:
161,129,142548,1,0,0:0:0:0:
34,92,142702,1,0,0:0:0:0:
167,215,142856,38,0,B|264:189,1,90,12|0,1:2|0:0,0:0:0:0:
359,126,143164,1,0,0:0:0:0:
387,258,143318,1,8,0:0:0:0:
241,103,143471,1,8,0:0:0:0:
370,40,143625,22,0,P|426:69|425:172,1,135,2|8,0:0|0:0,0:0:0:0:
441,155,143933,2,0,B|352:183,1,90,8|8,0:0|0:0,0:0:0:0:
306,301,144241,37,2,0:0:0:0:
264,157,144394,1,2,0:0:0:0:
387,258,144548,37,8,0:0:0:0:
264,157,144702,1,8,0:0:0:0:
216,340,144856,38,0,P|202:280|150:229,1,121.499996292114,6|0,1:2|0:0,0:0:0:0:
134,227,145164,1,8,0:0:0:0:
40,303,145318,1,0,0:0:0:0:
40,303,145394,1,8,0:0:0:0:
40,303,145471,2,0,L|128:313,1,80.9999975280763,2|2,0:0|0:0,0:0:0:0:
268,227,145779,1,0,0:0:0:0:
201,97,145933,38,0,L|42:125,1,161.999995056153,8|2,0:0|0:0,0:0:0:0:
134,227,146394,1,8,0:0:0:0:
253,190,146548,2,0,L|205:181,2,40.4999987640381,0|8|2,0:0|0:0|0:0,0:0:0:0:
334,254,146856,2,0,P|346:294|354:342,1,80.9999975280763,2|8,0:0|0:0,0:0:0:0:
352,332,147164,1,0,0:0:0:0:
188,336,147318,38,0,L|211:199,1,121.499996292114,2|0,0:0|0:0,0:0:0:0:
213,182,147625,1,8,0:0:0:0:
126,123,147779,2,0,L|73:93,2,40.4999987640381,0|0|8,0:0|0:0|0:0,0:0:0:0:
119,251,148087,1,2,0:0:0:0:
265,102,148241,1,0,0:0:0:0:
128,25,148394,38,0,P|30:37|8:115,1,161.999995056153,8|2,0:0|0:0,0:0:0:0:
116,204,148856,2,0,L|128:109,1,80.9999975280763,8|0,0:0|0:0,0:0:0:0:
122,115,149087,1,8,0:0:0:0:
118,108,149164,1,2,0:0:0:0:
30,176,149318,1,2,0:0:0:0:
169,288,149471,1,8,0:0:0:0:
197,265,149548,1,0,0:0:0:0:
232,258,149625,1,0,0:0:0:0:
267,268,149702,1,0,0:0:0:0:
294,291,149779,38,0,L|278:166,1,121.499996292114,6|0,0:0|0:0,0:0:0:0:
277,154,150087,1,8,0:0:0:0:
374,65,150241,2,0,L|363:154,1,80.9999975280763,0|2,0:0|0:0,0:0:0:0:
196,167,150548,1,2,0:0:0:0:
373,252,150702,1,0,0:0:0:0:
276,70,150856,38,0,P|218:49|112:90,1,161.999995056153,8|0,0:0|0:0,0:0:0:0:
15,184,151318,1,8,0:0:0:0:
97,255,151471,1,0,0:0:0:0:
97,255,151548,1,8,0:0:0:0:
97,255,151625,2,0,P|101:213|111:157,1,80.9999975280763,2|2,0:0|0:0,0:0:0:0:
193,216,151933,2,0,P|197:175|204:136,1,80.9999975280763,8|0,0:0|0:0,0:0:0:0:
261,329,152241,38,0,P|338:340|394:286,1,161.999995056153,2|8,0:0|0:0,0:0:0:0:
343,189,152702,1,0,0:0:0:0:
343,189,152779,1,8,0:0:0:0:
343,189,152856,1,2,0:0:0:0:
441,134,153010,1,2,0:0:0:0:
315,265,153164,1,0,0:0:0:0:
225,210,153318,38,0,P|229:159|250:48,1,161.999995056153,8|2,0:0|0:0,0:0:0:0:
344,29,153779,1,8,0:0:0:0:
138,100,153933,1,0,0:0:0:0:
138,100,154010,1,0,0:0:0:0:
138,100,154087,2,0,P|93:109|54:111,1,80.9999975280763,2|2,0:0|0:0,0:0:0:0:
54,290,154394,2,0,P|99:281|138:279,1,80.9999975280763,8|8,0:0|0:0,0:0:0:0:
149,260,154625,1,8,0:0:0:0:
162,243,154702,38,0,P|119:174|150:86,1,161.999995056153,6|8,0:0|0:0,0:0:0:0:
218,42,155164,1,0,0:0:0:0:
342,136,155318,2,0,P|333:179|328:228,1,80.9999975280763,2|2,0:0|0:0,0:0:0:0:
382,292,155625,1,0,0:0:0:0:
234,184,155779,38,0,P|179:187|89:230,1,121.499996292114,8|0,0:0|0:0,0:0:0:0:
95,238,156087,1,2,0:0:0:0:
191,301,156241,1,8,0:0:0:0:
109,346,156394,1,0,0:0:0:0:
109,346,156471,1,8,0:0:0:0:
109,346,156548,1,2,0:0:0:0:
11,241,156702,2,0,P|16:202|22:136,1,80.9999975280763,2|8,0:0|0:0,0:0:0:0:
70,88,157010,1,0,0:0:0:0:
232,67,157164,38,0,P|256:124|216:193,1,121.499996292114,2|0,0:0|0:0,0:0:0:0:
214,199,157471,1,8,0:0:0:0:
117,211,157625,1,0,0:0:0:0:
117,211,157702,1,8,0:0:0:0:
117,211,157779,1,2,0:0:0:0:
70,88,157933,2,0,P|109:100|155:106,1,80.9999975280763,2|0,0:0|0:0,0:0:0:0:
373,173,158241,38,0,P|325:178|209:200,1,161.999995056153,8|2,0:0|0:0,0:0:0:0:
323,307,158702,2,0,P|356:311|425:322,1,80.9999975280763,8|0,0:0|0:0,0:0:0:0:
423,325,158933,1,8,0:0:0:0:
442,332,159010,2,0,P|450:284|461:243,1,80.9999975280763,2|2,0:0|0:0,0:0:0:0:
389,93,159318,2,0,P|381:141|370:182,1,80.9999975280763,8|0,0:0|0:0,0:0:0:0:
200,286,159625,38,0,P|134:228|156:134,1,161.999995056153,6|8,0:0|0:0,0:0:0:0:
228,84,160087,2,0,L|279:64,2,40.4999987640381,0|8|2,0:0|0:0|0:0,0:0:0:0:
96,59,160394,1,2,0:0:0:0:
220,192,160548,1,0,0:0:0:0:
319,134,160702,38,0,L|511:162,1,161.999995056153,8|2,0:0|0:0,0:0:0:0:
457,23,161164,2,0,L|353:40,1,80.9999975280763,8|0,0:0|0:0,0:0:0:0:
371,48,161394,1,8,0:0:0:0:
365,61,161471,1,2,0:0:0:0:
256,21,161625,1,2,0:0:0:0:
319,134,161779,2,0,P|343:175|343:217,1,80.9999975280763,8|0,0:0|0:0,0:0:0:0:
224,329,162087,38,0,L|243:191,1,121.499996292114,2|0,0:0|0:0,0:0:0:0:
243,187,162394,1,8,0:0:0:0:
147,249,162548,1,0,0:0:0:0:
139,258,162625,1,8,0:0:0:0:
129,264,162702,2,0,P|88:285|47:285,1,80.9999975280763,2|2,0:0|0:0,0:0:0:0:
3,202,163010,1,0,0:0:0:0:
130,88,163164,38,0,B|210:119|202:47|317:104,1,161.999995056153,8|2,0:0|0:0,0:0:0:0:
349,162,163625,1,8,0:0:0:0:
443,31,163779,1,0,0:0:0:0:
443,31,163933,70,0,P|391:30|343:54,1,90,2|2,0:0|0:0,0:0:0:0:
262,175,164241,2,0,P|306:177|348:161,1,90,8|8,0:0|0:0,0:0:0:0:
348,161,164471,1,8,0:0:0:0:
348,161,164548,1,6,0:0:0:0:
17,228,164856,53,8,0:0:0:0:
76,293,165010,2,0,L|86:341,2,40.4999987640381,0|8|2,3:0|0:0|0:0,0:0:0:0:
159,145,165318,2,0,L|134:229,1,80.9999975280763,2|0,0:0|0:0,0:0:0:0:
179,330,165625,38,0,P|211:261|305:246,1,161.999995056153,8|2,0:0|0:0,0:0:0:0:
136,222,166087,1,8,0:0:0:0:
284,336,166241,1,0,0:0:0:0:
284,336,166318,1,8,0:0:0:0:
284,336,166394,2,0,P|322:325|376:314,1,80.9999975280763,2|2,0:0|0:0,0:0:0:0:
438,355,166702,1,8,0:0:0:0:
289,241,166856,1,0,0:0:0:0:
199,299,167010,38,0,P|192:254|176:176,1,121.499996292114,2|0,0:0|0:0,0:0:0:0:
164,160,167318,1,8,0:0:0:0:
89,228,167471,1,0,0:0:0:0:
261,145,167625,2,0,P|267:104|284:50,1,80.9999975280763,2|0,0:0|0:0,0:0:0:0:
348,178,167933,1,0,0:0:0:0:
176,70,168087,38,0,P|119:80|11:107,1,161.999995056153,8|2,0:0|0:0,0:0:0:0:
164,160,168548,2,0,P|216:165|260:180,1,80.9999975280763,8|0,0:0|0:0,0:0:0:0:
252,178,168779,1,8,0:0:0:0:
260,184,168856,69,2,0:0:0:0:
298,276,169010,1,2,0:0:0:0:
144,344,169164,2,0,P|109:340|48:317,1,80.9999975280763,8|0,0:0|0:0,0:0:0:0:
8,200,169471,1,6,0:0:0:0:
384,327,169779,5,8,0:0:0:0:
456,265,169933,1,0,0:0:0:0:
456,265,170010,1,8,0:0:0:0:
456,265,170087,2,0,L|468:172,1,80.9999975280763,2|2,0:0|0:0,0:0:0:0:
392,65,170394,1,0,0:0:0:0:
305,121,170548,2,0,L|324:223,1,80.9999975280763,8|0,0:0|0:0,0:0:0:0:
211,41,170856,37,2,0:0:0:0:
130,89,171010,2,0,L|106:181,1,80.9999975280763,8|0,0:0|0:0,0:0:0:0:
106,179,171241,1,8,0:0:0:0:
103,191,171318,1,2,0:0:0:0:
193,251,171471,1,2,0:0:0:0:
89,350,171625,2,0,P|132:340|190:340,1,80.9999975280763,8|0,0:0|0:0,0:0:0:0:
324,341,171933,38,0,P|319:287|295:158,1,161.999995056153,2|8,0:0|0:0,0:0:0:0:
220,109,172394,2,0,L|169:95,2,40.4999987640381,0|8|2,0:0|0:0|0:0,0:0:0:0:
312,63,172702,1,2,0:0:0:0:
209,199,172856,2,0,L|118:223,1,80.9999975280763,0|8,0:0|0:0,0:0:0:0:
55,161,173164,37,0,0:0:0:0:
115,310,173318,1,2,0:0:0:0:
209,199,173471,2,0,P|222:159|220:112,1,80.9999975280763,0|8,0:0|0:0,0:0:0:0:
216,104,173702,1,0,0:0:0:0:
208,87,173779,70,0,P|165:96|115:102,1,90,2|2,3:0|0:0,0:0:0:0:
206,291,174087,2,0,P|249:282|299:276,1,90,2|8,0:3|0:0,0:0:0:0:
324,276,174318,1,8,0:0:0:0:
324,276,174394,1,6,0:0:0:0:
431,107,174702,53,8,0:0:0:0:
356,40,174856,2,0,L|366:-9,2,40.4999987640381,0|8|2,3:0|0:0|0:0,0:0:0:0:
364,206,175164,2,0,L|346:127,1,80.9999975280763,2|0,0:0|0:0,0:0:0:0:
136,104,175471,38,0,P|175:172|286:166,1,161.999995056153,8|2,0:0|0:0,0:0:0:0:
346,127,175933,1,8,0:0:0:0:
303,304,176087,1,0,0:0:0:0:
156,283,176241,22,0,P|162:238|172:186,1,90,2|0,3:0|0:0,0:0:0:0:
439,117,176548,2,0,P|432:163|424:205,1,90,2|8,3:0|0:0,0:0:0:0:
416,246,176779,1,8,0:0:0:0:
416,246,176856,1,6,0:0:0:0:
284,27,177164,53,8,0:0:0:0:
190,158,177318,1,0,3:0:0:0:
190,158,177394,1,8,0:0:0:0:
190,158,177471,1,2,0:0:0:0:
346,108,177625,2,0,L|426:114,1,80.9999975280763,2|0,0:0|0:0,0:0:0:0:
169,41,177933,38,0,L|68:55,1,80.9999975280763,8|0,0:0|0:0,0:0:0:0:
240,200,178241,1,2,0:0:0:0:
300,32,178394,1,8,0:0:0:0:
98,131,178548,1,0,0:0:0:0:
98,131,178702,22,0,P|98:178|120:238,1,90,2|2,3:0|0:0,0:0:0:0:
347,321,179010,2,0,P|347:274|325:214,1,90,2|8,3:0|0:0,0:0:0:0:
297,169,179241,1,8,0:0:0:0:
297,169,179318,1,6,0:0:0:0:
40,288,179625,5,8,0:0:0:0:
199,317,179779,2,0,L|210:364,2,40.4999987640381,0|8|2,0:0|0:0|0:0,0:0:0:0:
188,199,180087,2,0,P|156:211|96:218,1,80.9999975280763,2|0,0:0|0:0,0:0:0:0:
254,56,180394,38,0,P|292:65|363:70,1,80.9999975280763,8|0,0:0|0:0,0:0:0:0:
418,24,180702,1,2,0:0:0:0:
325,244,180856,1,8,0:0:0:0:
144,95,181010,1,0,0:0:0:0:
144,95,181164,70,0,P|131:43|156:-3,1,107.999996704102,2|2,3:0|0:0,0:0:0:0:
325,244,181471,2,0,P|337:300|314:344,1,107.999996704102,2|8,3:0|0:0,0:0:0:0:
251,283,181702,1,0,0:0:0:0:
251,283,181779,1,6,0:0:0:0:
346,57,182087,5,8,0:0:0:0:
425,197,182241,1,0,0:0:0:0:
425,197,182318,1,8,0:0:0:0:
425,197,182394,1,2,0:0:0:0:
280,173,182548,2,0,L|191:188,1,90,2|0,0:0|0:0,0:0:0:0:
217,74,182856,1,8,0:0:0:0:
251,283,183010,69,0,0:0:0:0:
107,184,183164,1,10,1:2:0:0:
122,325,183318,37,10,1:2:0:0:
255,128,183471,1,10,1:2:0:0:
273,339,183625,37,10,1:2:0:0:
103,81,183779,1,10,1:2:0:0:
104,348,183933,37,10,1:2:0:0:
271,66,184087,1,10,1:2:0:0:
235,71,196548,6,0,P|280:88|346:86,1,101.250003862381,6|0,3:2|0:0,0:0:0:0:
332,88,196856,1,8,3:0:0:0:
191,172,197164,2,0,P|158:187|113:183,1,67.5000025749208,2|2,3:0|3:0,0:0:0:0:
127,187,197625,38,0,P|141:259|146:337,1,135.000005149842,10|0,3:0|3:0,0:0:0:0:
237,336,198087,2,0,P|283:309|348:323,1,101.250003862381,10|0,3:0|0:0,0:0:0:0:
345,339,198394,2,0,P|350:299|360:254,1,67.5000025749208,0|0,3:0|3:0,0:0:0:0:
419,206,198702,2,0,P|456:212|501:218,1,67.5000025749208,8|0,3:0|3:0,0:0:0:0:
294,209,199010,38,0,P|288:166|269:88,1,101.250003862381,0|0,3:0|0:0,0:0:0:0:
275,109,199318,1,8,3:0:0:0:
413,34,199625,2,0,P|422:69|440:106,1,67.5000025749208,2|2,3:0|3:0,0:0:0:0:
275,109,200087,38,0,P|214:120|135:131,1,135.000005149842,2|0,3:0|3:0,0:0:0:0:
61,191,200548,2,0,P|68:219|77:311,1,101.250003862381,2|0,3:0|0:0,0:0:0:0:
82,324,200856,2,0,P|117:315|156:314,1,67.5000025749208,0|0,3:0|3:0,0:0:0:0:
241,251,201164,2,0,P|274:253|307:261,1,67.5000025749208,8|0,3:0|0:0,0:0:0:0:
387,332,201471,1,0,0:0:0:0:
256,192,201548,12,0,203779,0:0:0:0:
256,192,203933,12,0,205164,0:0:0:0:
239,150,206702,38,0,L|251:212,2,45
168,258,207318,1,0,0:0:0:0:
168,258,207471,54,0,P|231:229|344:266,1,180,6|2,0:0|0:0,0:0:0:0:
393,332,207933,1,8,0:0:0:0:
491,170,208087,2,0,L|398:184,1,90,2|0,0:0|0:0,0:0:0:0:
333,256,208394,1,2,0:0:0:0:
262,139,208548,1,8,0:0:0:0:
141,204,208702,38,0,P|151:269|158:356,1,135,2|0,0:0|0:0,0:0:0:0:
160,359,209010,1,2,0:0:0:0:
62,305,209164,1,8,0:0:0:0:
251,314,209318,1,2,0:0:0:0:
251,314,209394,1,0,0:0:0:0:
251,314,209471,2,0,P|245:266|234:204,1,90,0|2,0:0|0:0,0:0:0:0:
179,83,209779,2,0,P|110:75|47:128,1,135,8|0,0:0|0:0,0:0:0:0:
45,146,210087,37,2,0:0:0:0:
238,224,210241,1,2,0:0:0:0:
289,74,210394,1,8,0:0:0:0:
137,168,210548,2,0,L|151:224,2,45,2|0|0,0:0|0:0|0:0,0:0:0:0:
306,156,210856,2,0,L|395:169,1,90,2|8,0:0|0:0,0:0:0:0:
382,306,211164,38,0,L|483:293,1,90,2|0,0:0|0:0,0:0:0:0:
238,224,211471,2,0,L|137:211,1,90,2|8,0:0|0:0,0:0:0:0:
277,348,211779,2,0,L|284:300,2,45,2|0|0,0:0|0:0|0:0,0:0:0:0:
189,302,212087,1,2,0:0:0:0:
342,221,212241,2,0,P|350:168|361:56,1,135,8|0,0:0|0:0,0:0:0:0:
361,56,212548,37,2,1:2:0:0:
248,110,212702,1,2,0:0:0:0:
442,213,212856,1,8,0:0:0:0:
278,293,213010,1,0,1:2:0:0:
278,293,213087,1,0,0:0:0:0:
278,293,213164,2,0,L|183:302,1,90,0|2,0:0|0:0,0:0:0:0:
69,211,213471,1,8,0:0:0:0:
141,120,213625,38,0,P|161:152|180:219,1,90,2|0,1:2|0:0,0:0:0:0:
51,299,213933,2,0,L|70:204,1,90,2|8,0:0|0:0,0:0:0:0:
231,62,214241,2,0,P|299:85|384:23,1,180,2|2,1:2|0:0,0:0:0:0:
456,108,214702,1,8,0:0:0:0:
343,203,214856,38,0,L|357:267,2,45,0|0|2,0:0|0:0|0:0,0:0:0:0:
250,147,215164,1,0,0:0:0:0:
442,213,215318,1,8,0:0:0:0:
279,311,215471,1,2,0:0:0:0:
442,213,215625,2,0,L|431:307,1,90,0|2,0:0|0:0,0:0:0:0:
497,364,215933,1,8,0:0:0:0:
294,233,216087,38,0,P|244:236|196:307,1,135,2|0,0:0|0:0,0:0:0:0:
199,322,216394,2,0,P|151:314|101:315,1,90,2|8,0:0|0:0,0:0:0:0:
50,239,216702,1,2,0:0:0:0:
50,239,216779,1,0,0:0:0:0:
50,239,216856,1,8,0:0:0:0:
152,113,217010,38,0,L|163:63,1,45,8|8,0:0|0:0,0:0:0:0:
278,209,217164,2,0,L|285:165,1,45,8|8,0:0|0:0,0:0:0:0:
275,38,217318,38,0,P|355:68|429:57,1,135,14|0,0:0|0:0,0:0:0:0:
430,55,217625,1,2,0:0:0:0:
285,165,217779,1,8,0:0:0:0:
386,252,217933,2,0,L|398:161,1,90,2|0,0:0|0:0,0:0:0:0:
265,56,218241,2,0,P|219:69|194:104,1,90,2|8,0:0|0:0,0:0:0:0:
250,303,218548,38,0,B|337:283|319:360|451:331,1,180,2|2,1:2|0:0,0:0:0:0:
386,252,219010,1,8,0:0:0:0:
188,206,219164,1,2,0:0:0:0:
188,206,219241,1,0,0:0:0:0:
188,206,219318,2,0,P|153:236|141:301,1,90,0|2,0:0|0:0,0:0:0:0:
275,343,219625,1,8,0:0:0:0:
308,180,219779,38,0,L|316:127,2,45,0|0|2,0:0|0:0|1:2,0:0:0:0:
405,339,220087,2,0,L|384:242,1,90,2|8,0:0|0:0,0:0:0:0:
424,164,220394,1,2,0:0:0:0:
228,106,220548,1,0,0:0:0:0:
294,234,220702,1,2,0:0:0:0:
397,75,220856,1,8,0:0:0:0:
255,28,221010,38,0,P|198:31|147:115,1,135,2|0,1:2|0:0,0:0:0:0:
147,119,221318,1,2,0:0:0:0:
241,202,221471,1,8,0:0:0:0:
48,104,221625,2,0,P|60:173|64:214,1,90,2|0,0:0|0:0,0:0:0:0:
126,302,221933,2,0,L|110:359,2,45,2|0|8,0:0|0:0|0:0,0:0:0:0:
241,202,222241,1,0,0:0:0:0:
241,202,222318,1,0,0:0:0:0:
241,202,222394,38,0,P|297:168|395:182,1,135,2|0,1:2|0:0,0:0:0:0:
396,194,222702,1,8,0:0:0:0:
311,51,222856,2,0,L|297:150,1,90,2|0,0:0|0:0,0:0:0:0:
323,256,223164,1,2,0:0:0:0:
411,89,223318,1,8,0:0:0:0:
177,90,223471,38,0,P|197:162|212:283,1,180,2|2,0:0|0:0,0:0:0:0:
68,331,223933,2,0,P|74:284|92:216,1,90,8|2,0:0|0:0,0:0:0:0:
91,231,224164,1,0,0:0:0:0:
100,221,224241,1,0,0:0:0:0:
202,174,224394,1,2,0:0:0:0:
78,100,224548,1,8,0:0:0:0:
211,266,224702,1,0,0:0:0:0:
310,203,224856,38,0,P|305:159|283:50,1,135,2|0,0:0|0:0,0:0:0:0:
281,45,225164,1,8,0:0:0:0:
389,63,225318,2,0,L|448:50,2,45,2|0|0,0:0|0:0|0:0,0:0:0:0:
401,173,225625,2,0,L|495:188,1,90,2|8,0:0|0:0,0:0:0:0:
400,290,225933,38,0,P|364:283|258:334,1,135,2|0,0:0|0:0,0:0:0:0:
210,356,226241,1,8,0:0:0:0:
89,307,226394,5,8,0:0:0:0:
243,198,226548,1,8,0:0:0:0:
77,150,226702,37,8,0:0:0:0:
243,198,226856,1,8,0:0:0:0:
48,270,227010,37,8,0:0:0:0:
219,63,227164,1,8,0:0:0:0:
349,152,227318,22,0,B|323:261|391:215|372:343,1,180,12|0,1:2|0:0,0:0:0:0:
442,177,227779,2,0,P|449:133|443:78,1,90,8|0,1:2|0:0,0:0:0:0:
243,198,228087,2,0,P|247:250|260:295,1,90,0|0,0:0|0:0,0:0:0:0:
305,77,228394,1,0,0:0:0:0:
305,77,228471,1,0,0:0:0:0:
305,77,228548,38,0,B|263:60|263:60|185:65,1,90,12|0,1:2|0:0,0:0:0:0:
158,168,228856,1,0,0:0:0:0:
370,161,229010,2,0,P|395:126|396:64,1,90,12|0,1:2|0:0,0:0:0:0:
243,198,229318,1,0,0:0:0:0:
334,269,229471,2,0,L|438:257,1,90,0|0,0:0|0:0,0:0:0:0:
437,257,229702,1,0,0:0:0:0:
451,255,229779,37,12,1:2:0:0:
370,161,229933,1,0,0:0:0:0:
272,351,230087,1,0,0:0:0:0:
153,231,230241,38,0,B|149:184|149:184|179:120,1,90,12|0,1:2|0:0,0:0:0:0:
55,33,230548,2,0,B|59:80|59:80|29:144,1,90,0|8,0:0|0:0,0:0:0:0:
185,29,230856,1,8,0:0:0:0:
292,95,231010,6,0,L|305:157,3,45,2|0|8|8,0:0|0:0|0:0|3:0,0:0:0:0:
234,212,231318,2,0,L|244:257,3,45,8|8|8|8,3:0|3:0|3:0|3:0,0:0:0:0:
345,330,231625,37,8,0:0:0:0:
389,338,231702,1,4,3:0:0:0:
432,326,231779,1,4,3:0:0:0:
461,291,231856,1,4,3:0:0:0:
468,246,231933,2,0,L|452:175,1,45,8|8,0:0|0:0,0:0:0:0:
458,26,232087,2,0,L|474:97,1,45,8|8,0:0|0:0,0:0:0:0:
378,182,232241,22,0,P|334:221|242:205,1,135,6|0,0:0|0:0,0:0:0:0:
234,212,232548,1,8,0:0:0:0:
310,41,232702,1,0,0:0:0:0:
310,41,232779,1,8,0:0:0:0:
310,41,232856,2,0,L|297:134,1,90,2|0,0:0|0:0,0:0:0:0:
378,182,233164,1,2,0:0:0:0:
300,300,233318,38,0,B|203:277|216:358|119:341,1,180,8|2,0:0|0:0,0:0:0:0:
26,223,233779,2,0,P|82:228|126:235,1,90,8|0,0:0|0:0,0:0:0:0:
124,237,234010,1,8,0:0:0:0:
132,242,234087,1,2,0:0:0:0:
214,175,234241,1,2,0:0:0:0:
137,11,234394,2,0,P|119:72|107:144,1,135,8|0,0:0|0:0,0:0:0:0:
107,165,234702,37,2,0:0:0:0:
214,175,234856,1,0,0:0:0:0:
281,77,235010,1,8,0:0:0:0:
322,237,235164,1,0,0:0:0:0:
322,237,235241,1,8,0:0:0:0:
322,237,235318,2,0,P|363:241|431:257,1,90,2|0,0:0|0:0,0:0:0:0:
471,321,235625,1,2,0:0:0:0:
482,134,235779,38,0,L|373:153,1,90,8|0,0:0|0:0,0:0:0:0:
240,202,236087,2,0,P|236:250|264:314,1,90,2|8,0:0|0:0,0:0:0:0:
310,112,236394,2,0,L|317:56,2,45,0|8|2,0:0|0:0|0:0,0:0:0:0:
151,204,236702,1,0,0:0:0:0:
322,237,236856,1,8,0:0:0:0:
227,65,237010,1,0,0:0:0:0:
71,223,237164,38,0,P|129:290|196:271,1,135,6|0,0:0|0:0,0:0:0:0:
199,278,237471,1,8,0:0:0:0:
227,65,237625,1,0,0:0:0:0:
227,65,237702,1,8,0:0:0:0:
227,65,237779,1,2,0:0:0:0:
322,237,237933,1,0,0:0:0:0:
151,204,238087,1,2,0:0:0:0:
312,134,238241,38,0,P|366:123|498:113,1,180,8|2,0:0|0:0,0:0:0:0:
322,237,238702,2,0,P|294:230|215:226,1,90,8|0,0:0|0:0,0:0:0:0:
106,279,239010,38,0,P|79:277|28:268,2,60
164,126,239318,2,0,P|199:127|231:135,2,60,8|0|0,0:0|0:0|0:0,0:0:0:0:
233,224,239625,38,0,P|293:228|346:154,1,135,6|0,0:0|0:0,0:0:0:0:
330,138,239933,1,8,0:0:0:0:
380,303,240087,2,0,L|367:356,2,45,0|8|2,0:0|0:0|0:0,0:0:0:0:
448,167,240394,2,0,L|463:255,1,90,2|0,0:0|0:0,0:0:0:0:
367,64,240702,38,0,P|296:59|253:166,1,180,8|2,0:0|0:0,0:0:0:0:
327,216,241164,1,8,0:0:0:0:
214,288,241318,54,0,L|140:303,2,45,0|0|2,0:0|0:0|0:0,0:0:0:0:
354,330,241625,1,2,0:0:0:0:
176,217,241779,37,8,0:0:0:0:
330,138,241933,1,0,3:0:0:0:
