osu file format v14

[General]
AudioFilename: audio.mp3
AudioLeadIn: 0
PreviewTime: 185702
Countdown: 0
SampleSet: Soft
StackLeniency: 0.7
Mode: 0
LetterboxInBreaks: 0
EpilepsyWarning: 1
WidescreenStoryboard: 1

[Editor]
DistanceSpacing: 1.4
BeatDivisor: 4
GridSize: 4
TimelineZoom: 1.7

[Metadata]
Title:Sakebe
TitleUnicode:叫べ
Artist:Manami Numakura
ArtistUnicode:沼倉愛美
Creator:Mishima Yurara
Version:Little's Insane
Source:魔法少女育成計画
Tags:Mahou Shoujo Ikusei Keikaku Magical Girl Raising Project まほいく Mahoiku Little Cloudsplash16 doormat depths Kalibe Curi [C_u_r_i] sahuang my angel azusa gaia pkk CelsiusLK -[Koinuri] Koinuri Mikii RLC VINXIS Delis
BeatmapID:1175500
BeatmapSetID:550344

[Difficulty]
HPDrainRate:6
CircleSize:4
OverallDifficulty:8
ApproachRate:9.1
SliderMultiplier:1.6
SliderTickRate:1

[Events]
//Background and Video events
0,0,"camel.png",0,0
//Break Periods
2,186702,195041
//Storyboard Layer 0 (Background)
//Storyboard Layer 1 (Fail)
//Storyboard Layer 2 (Pass)
//Storyboard Layer 3 (Foreground)
//Storyboard Sound Samples

[TimingPoints]
857,304.568527918782,4,2,1,60,1,0
3318,307.692307692308,4,2,1,60,1,0
23010,-111.111111111111,4,2,1,60,0,0
23625,-111.111111111111,4,2,2,30,0,0
24241,-111.111111111111,4,2,2,50,0,0
34087,-111.111111111111,4,2,1,60,0,0
43933,-100,4,2,1,70,0,0
51318,-100,4,2,1,60,0,0
53625,-90.9090909090909,4,2,1,80,0,1
78394,-100,4,2,1,70,0,0
88241,-100,4,2,2,50,0,0
90702,-100,4,2,1,60,0,0
110394,-125,4,2,1,60,0,0
119010,-100,4,2,1,60,0,0
120087,-100,4,2,1,80,0,1
144856,-100,4,2,1,60,0,0
173779,-90.9090909090909,4,2,1,80,0,0
175010,-100,4,2,1,80,0,0
176241,-90.9090909090909,4,2,1,80,0,0
177471,-100,4,2,1,80,0,0
178702,-90.9090909090909,4,2,1,80,0,0
179933,-100,4,2,1,80,0,0
181164,-90.9090909090909,4,2,1,80,0,0
183164,-90.9090909090909,4,2,1,50,0,0
183625,-90.9090909090909,4,2,1,65,0,0
183933,-90.9090909090909,4,2,1,80,0,0
195625,-125,4,2,2,40,0,0
203933,-166.666666666667,4,2,2,40,0,0
207010,-111.111111111111,4,2,2,40,0,0
207471,-90.9090909090909,4,2,1,80,0,1
232241,-100,4,2,1,60,0,0

[Colours]
Combo1 : 255,128,0
Combo2 : 223,159,191
Combo3 : 198,0,74
Combo4 : 193,0,0
Combo5 : 223,223,159
Combo6 : 217,201,0

[HitObjects]
256,192,857,12,8,2988,0:3:0:0:
364,84,3318,22,0,L|345:202,1,120,6|0,0:0|0:0,0:0:0:0:
304,272,3626,2,0,L|316:352,1,80,8|0,0:0|0:0,0:0:0:0:
436,244,3933,1,2,0:0:0:0:
264,200,4087,2,0,P|224:195|184:199,1,80,0|2,0:0|0:0,0:0:0:0:
56,328,4395,38,0,B|125:338|125:338|164:326|164:326|213:334,1,160,8|2,0:0|0:0,0:0:0:0:
84,228,4857,2,0,P|80:188|84:148,1,80,8|0,0:0|0:0,0:0:0:0:
97,70,5087,1,2,0:0:0:0:
97,70,5164,1,2,0:0:0:0:
272,112,5318,1,0,0:0:0:0:
201,255,5472,2,0,L|213:335,1,80,8|0,0:0|0:0,0:0:0:0:
392,367,5780,38,0,P|404:288|398:208,1,160,2|8,0:0|0:0,0:0:0:0:
272,112,6241,1,0,0:0:0:0:
272,112,6318,1,8,0:0:0:0:
272,112,6395,1,0,3:0:0:0:
201,255,6549,1,0,0:0:0:0:
398,209,6703,1,2,0:0:0:0:
312,372,6857,38,0,L|232:360,1,80,8|0,0:0|0:0,0:0:0:0:
84,228,7164,1,2,0:0:0:0:
272,200,7318,1,8,0:0:0:0:
136,72,7472,1,0,0:0:0:0:
136,72,7549,1,2,0:0:0:0:
136,72,7626,2,0,P|131:111|135:151,1,80,2|2,0:0|0:0,0:0:0:0:
201,255,7933,1,8,0:0:0:0:
398,209,8087,1,0,0:0:0:0:
312,372,8241,38,0,L|232:360,1,80,6|0,0:0|0:0,0:0:0:0:
429,314,8549,1,8,0:0:0:0:
201,255,8703,1,0,0:0:0:0:
201,255,8780,1,8,0:0:0:0:
201,255,8857,2,0,L|281:243,1,80,2|0,0:0|0:0,0:0:0:0:
84,197,9164,1,2,0:0:0:0:
188,56,9318,38,0,P|257:86|256:162,1,160,8|2,0:0|0:0,0:0:0:0:
84,197,9780,1,8,0:0:0:0:
201,329,9933,1,0,0:0:0:0:
316,308,10087,2,0,L|329:359,2,53.3333333333333,2|0|0,0:0|0:0|0:0,0:0:0:0:
405,310,10395,2,0,L|414:257,2,53.3333333333333,8|0|0,0:0|0:0|0:0,0:0:0:0:
471,209,10703,38,0,P|419:183|364:203,1,120,2|0,0:0|0:0,0:0:0:0:
284,192,11010,2,0,L|272:112,1,80,8|0,0:0|0:0,0:0:0:0:
260,32,11241,1,8,0:0:0:0:
260,32,11318,1,2,0:0:0:0:
380,84,11472,1,0,0:0:0:0:
196,208,11626,1,2,0:0:0:0:
332,336,11779,38,0,B|381:342|381:342|419:328|419:328|489:336,1,160,8|2,0:0|0:0,0:0:0:0:
276,196,12241,2,0,L|196:208,1,80,2|2,0:0|0:0,0:0:0:0:
116,220,12472,1,0,0:0:0:0:
116,220,12549,1,0,1:0:0:0:
201,329,12703,1,0,0:0:0:0:
236,100,12857,1,2,0:0:0:0:
396,224,13010,1,8,0:0:0:0:
396,224,13087,1,8,0:0:0:0:
396,224,13164,38,0,P|348:258|291:248,1,120,6|0,0:0|0:0,0:0:0:0:
248,179,13472,2,0,L|236:99,1,80,8|0,0:0|0:0,0:0:0:0:
24,176,13780,1,0,3:0:0:0:
160,256,13933,2,0,L|148:336,1,80,0|2,0:0|0:0,0:0:0:0:
24,176,14241,38,0,P|75:121|146:148,1,160,8|2,0:0|0:0,0:0:0:0:
291,248,14703,2,0,L|371:236,1,80,8|0,0:0|0:0,0:0:0:0:
448,104,15010,2,0,L|368:116,1,80,2|0,0:0|0:0,0:0:0:0:
146,148,15318,1,8,0:0:0:0:
291,248,15472,1,0,0:0:0:0:
168,352,15626,38,0,L|50:333,1,120,2|0,0:0|0:0,0:0:0:0:
4,268,15933,1,8,0:0:0:0:
146,148,16087,1,0,0:0:0:0:
146,148,16164,1,8,0:0:0:0:
146,148,16241,1,0,3:0:0:0:
116,296,16395,1,0,0:0:0:0:
28,152,16549,1,2,0:0:0:0:
280,224,16703,38,0,L|200:236,1,80,8|0,0:0|0:0,0:0:0:0:
224,52,17010,2,0,L|304:40,1,80,2|8,0:0|0:0,0:0:0:0:
444,152,17318,1,0,0:0:0:0:
280,224,17472,1,2,0:0:0:0:
448,288,17626,1,2,0:0:0:0:
284,360,17780,2,0,L|204:348,1,80,8|0,0:0|0:0,0:0:0:0:
52,248,18087,38,0,P|103:192|173:219,1,160,6|8,0:0|0:0,0:0:0:0:
284,360,18549,1,0,0:0:0:0:
284,360,18626,1,0,0:0:0:0:
284,360,18703,1,2,0:0:0:0:
448,288,18857,2,0,P|453:248|449:208,1,80,0|2,0:0|0:0,0:0:0:0:
273,65,19164,38,0,P|268:145|280:224,1,160,8|2,0:0|0:0,0:0:0:0:
392,100,19626,1,8,0:0:0:0:
168,148,19780,1,0,0:0:0:0:
168,148,19857,1,2,0:0:0:0:
168,148,19933,2,0,L|88:136,1,80,2|2,0:0|0:0,0:0:0:0:
252,312,20241,2,0,L|332:300,1,80,8|0,0:0|0:0,0:0:0:0:
480,232,20548,38,0,P|432:198|375:208,1,120,2|0,0:0|0:0,0:0:0:0:
296,188,20857,2,0,L|284:108,1,80,8|0,0:0|0:0,0:0:0:0:
272,30,21087,1,8,0:0:0:0:
272,30,21164,1,2,0:0:0:0:
392,100,21318,1,0,0:0:0:0:
188,176,21472,1,2,0:0:0:0:
328,332,21626,38,0,L|408:320,1,80,8|0,0:0|0:0,0:0:0:0:
384,184,21933,1,2,0:0:0:0:
204,296,22087,2,0,L|120:284,1,80,8|0,0:0|0:0,0:0:0:0:
52,140,22395,1,2,0:0:0:0:
52,140,22472,1,2,0:0:0:0:
52,140,22549,1,2,0:0:0:0:
188,176,22703,1,8,0:0:0:0:
20,248,22857,1,2,0:0:0:0:
204,296,23626,53,2,3:0:0:0:
204,296,23933,1,2,3:0:0:0:
204,296,24241,6,0,P|265:263|329:293,1,143.999995605469,0|8,3:0|3:0,0:0:0:0:
460,232,24703,1,0,3:0:0:0:
460,232,24780,1,0,3:0:0:0:
460,232,24857,2,0,L|468:160,1,71.9999978027344,2|2,3:0|3:0,0:0:0:0:
364,64,25164,1,2,3:0:0:0:
253,199,25318,38,0,L|268:342,1,143.999995605469,10|2,3:0|3:0,0:0:0:0:
380,224,25780,1,8,3:0:0:0:
180,304,25933,1,0,3:0:0:0:
180,304,26010,1,0,3:0:0:0:
180,304,26087,2,0,L|108:296,1,71.9999978027344,2|0,3:0|3:0,0:0:0:0:
36,192,26395,1,8,3:0:0:0:
148,104,26549,38,0,P|175:126|191:158,1,71.9999978027344,0|0,3:0|3:0,0:0:0:0:
180,304,26857,2,0,L|172:376,1,71.9999978027344,0|8,0:0|3:0,0:0:0:0:
36,192,27164,2,0,L|28:120,1,71.9999978027344,0|0,3:0|0:0,0:0:0:0:
228,236,27472,1,8,3:0:0:0:
228,236,27780,38,0,B|272:228|272:228|316:236|316:236|369:227,1,143.999995605469,8|0,3:0|0:0,0:0:0:0:
436,120,28241,1,8,0:3:0:0:
284,56,28395,1,0,0:0:0:0:
284,56,28472,1,0,0:0:0:0:
284,56,28549,2,0,L|276:128,1,71.9999978027344,0|0,0:0|0:0,0:0:0:0:
320,316,28857,1,8,0:3:0:0:
456,208,29010,1,0,0:0:0:0:
272,228,29164,38,0,L|164:216,1,107.999996704102,0|0,3:0|0:0,0:0:0:0:
92,228,29472,2,0,P|76:260|77:295,1,71.9999978027344,8|0,3:0|3:0,0:0:0:0:
120,364,29703,1,0,3:0:0:0:
120,364,29780,1,2,3:0:0:0:
288,344,29933,2,0,L|360:336,1,71.9999978027344,2|2,3:0|3:0,0:0:0:0:
358,151,30241,38,0,P|291:162|272:228,1,143.999995605469,10|2,3:0|3:0,0:0:0:0:
452,320,30703,1,8,3:0:0:0:
468,176,30857,1,0,3:0:0:0:
468,176,30933,1,0,3:0:0:0:
468,176,31010,2,0,L|476:104,1,71.9999978027344,2|0,3:0|3:0,0:0:0:0:
272,228,31318,1,8,3:0:0:0:
452,320,31472,1,0,3:0:0:0:
296,364,31626,38,0,L|224:356,1,71.9999978027344,0|8,3:0|3:0,0:0:0:0:
92,256,31933,1,0,3:0:0:0:
257,160,32087,2,0,P|273:192|272:228,1,71.9999978027344,8|0,3:0|3:0,0:0:0:0:
132,132,32395,2,0,P|130:96|146:64,1,71.9999978027344,8|0,3:0|3:0,0:0:0:0:
304,60,32703,38,0,B|356:76|356:76|445:61,1,143.999995605469,8|0,3:0|3:0,0:0:0:0:
272,227,33164,1,8,3:0:0:0:
444,272,33318,1,0,3:0:0:0:
444,272,33395,1,2,3:0:0:0:
444,272,33472,1,2,3:0:0:0:
296,364,33626,2,0,L|224:356,1,71.9999978027344,2|2,3:0|3:0,0:0:0:0:
68,248,33933,1,0,3:0:0:0:
32,372,34087,37,6,0:0:0:0:
272,227,34395,1,8,0:0:0:0:
156,108,34549,1,0,0:0:0:0:
156,108,34626,1,4,0:3:0:0:
156,108,34703,1,2,0:0:0:0:
68,248,34857,2,0,P|100:264|136:263,1,71.9999978027344,8|0,0:3|0:0,0:0:0:0:
300,192,35164,38,0,L|285:335,1,143.999995605469,8|2,0:0|0:0,0:0:0:0:
156,108,35626,1,8,0:0:0:0:
392,180,35780,1,0,0:0:0:0:
392,180,35857,1,4,0:3:0:0:
392,180,35934,2,0,L|464:172,1,71.9999978027344,2|8,0:0|0:3,0:0:0:0:
248,260,36241,2,0,L|176:252,1,71.9999978027344,8|0,0:0|0:0,0:0:0:0:
312,76,36549,37,2,0:0:0:0:
64,40,36857,1,8,0:0:0:0:
196,132,37010,1,0,0:0:0:0:
196,132,37087,1,4,0:3:0:0:
196,132,37164,1,2,0:0:0:0:
76,240,37318,2,0,L|4:232,1,71.9999978027344,8|0,0:3|0:0,0:0:0:0:
188,352,37626,38,0,L|331:337,1,143.999995605469,8|2,0:0|0:0,0:0:0:0:
452,300,38087,2,0,P|470:269|472:233,1,71.9999978027344,8|0,0:0|0:0,0:0:0:0:
468,160,38318,1,4,0:3:0:0:
468,160,38395,2,0,L|460:88,1,71.9999978027344,2|8,0:0|0:3,0:0:0:0:
284,48,38703,2,0,L|292:120,1,71.9999978027344,8|0,0:0|0:0,0:0:0:0:
308,260,39010,37,2,0:0:0:0:
60,216,39318,1,8,0:0:0:0:
212,160,39472,1,0,0:0:0:0:
212,160,39549,1,4,0:3:0:0:
212,160,39626,1,2,0:0:0:0:
196,304,39780,2,0,L|188:376,1,71.9999978027344,8|0,0:3|0:0,0:0:0:0:
360,320,40087,38,0,P|389:256|356:195,1,143.999995605469,8|2,0:0|0:0,0:0:0:0:
212,160,40549,2,0,L|204:88,1,71.9999978027344,8|0,0:0|0:0,0:0:0:0:
300,40,40780,1,4,0:3:0:0:
300,40,40857,2,0,P|318:71|320:107,1,71.9999978027344,2|8,0:0|0:3,0:0:0:0:
440,156,41164,2,0,L|512:148,1,71.9999978027344,8|0,0:0|0:0,0:0:0:0:
308,260,41472,38,0,L|165:245,1,143.999995605469,2|8,0:0|0:0,0:0:0:0:
64,132,41933,1,0,0:0:0:0:
64,132,42010,1,4,0:3:0:0:
64,132,42087,1,2,0:0:0:0:
184,87,42241,2,0,P|219:83|255:85,1,71.9999978027344,8|0,0:3|0:0,0:0:0:0:
420,124,42549,1,8,0:0:0:0:
308,260,42703,53,0,0:0:0:0:
432,296,42857,1,4,0:3:0:0:
280,252,43010,37,8,0:0:0:0:
404,216,43164,1,8,0:0:0:0:
252,260,43318,37,8,0:0:0:0:
376,296,43472,1,8,0:0:0:0:
224,252,43626,37,8,0:0:0:0:
348,216,43780,1,8,0:0:0:0:
259,356,43933,22,0,P|220:364|181:355,1,80,6|0,0:0|0:0,0:0:0:0:
68,284,44241,1,8,0:0:0:0:
224,252,44395,1,0,0:0:0:0:
60,205,44549,2,0,P|59:244|68:284,1,80,2|0,0:0|0:0,0:0:0:0:
224,252,44857,2,0,P|232:172|235:92,1,160,8|2,0:0|0:0,0:0:0:0:
112,64,45318,37,0,0:0:0:0:
264,176,45472,2,0,P|301:161|340:156,1,80,8|0,0:0|0:0,0:0:0:0:
472,248,45780,2,0,P|434:233|395:228,1,80,2|0,0:0|0:0,0:0:0:0:
264,320,46087,2,0,P|301:305|340:300,1,80,8|0,0:0|0:0,0:0:0:0:
180,248,46395,38,0,P|140:242|103:228,1,80,2|0,0:0|0:0,0:0:0:0:
80,100,46703,1,8,0:0:0:0:
80,100,46857,1,0,0:0:0:0:
264,176,47010,2,0,P|303:170|340:156,1,80,2|0,0:0|0:0,0:0:0:0:
476,84,47318,2,0,B|472:123|472:123|458:150|458:150|450:239,1,160,8|2,0:0|0:0,0:0:0:0:
264,176,47780,37,0,0:0:0:0:
180,248,47933,2,0,L|188:328,1,80,8|0,0:0|0:0,0:0:0:0:
360,180,48241,2,0,L|352:260,1,80,2|0,0:0|0:0,0:0:0:0:
176,148,48549,2,0,L|168:68,1,80,8|0,0:0|0:0,0:0:0:0:
404,96,48857,38,0,P|349:150|273:136,1,160,2|8,0:0|0:0,0:0:0:0:
168,68,49318,1,0,0:0:0:0:
80,160,49472,2,0,L|88:240,1,80,2|0,0:0|0:0,0:0:0:0:
278,292,49780,1,8,0:0:0:0:
148,348,49933,37,0,0:0:0:0:
278,292,50087,2,0,L|352:260,1,80,8|2,0:0|0:0,0:0:0:0:
120,248,50395,37,0,0:0:0:0:
250,192,50549,2,0,L|324:160,1,80,8|2,0:0|0:0,0:0:0:0:
278,292,50857,53,2,0:0:0:0:
120,248,51010,2,0,L|42:226,1,80,8|8,0:0|0:0,0:0:0:0:
213,104,51318,53,2,0:1:0:0:
293,176,51472,1,0,0:0:0:0:
190,209,51626,37,2,0:1:0:0:
157,106,51780,1,0,0:0:0:0:
260,73,51934,1,2,0:1:0:0:
323,160,52088,37,0,0:0:0:0:
259,246,52241,1,2,0:1:0:0:
157,211,52395,1,2,0:1:0:0:
55,246,52549,37,8,0:0:0:0:
53,260,52626,1,8,0:0:0:0:
51,274,52703,1,4,0:3:0:0:
49,288,52780,1,4,0:3:0:0:
47,302,52857,38,0,P|99:357|175:342,1,160,8|0,0:0|0:0,0:0:0:0:
272,336,53241,1,0,0:0:0:0:
272,336,53318,2,0,L|280:376,1,40
380,336,53472,1,0,0:0:0:0:
380,336,53549,1,0,0:0:0:0:
380,336,53625,22,0,L|396:160,1,176.000005371094,6|0,0:0|0:0,0:0:0:0:
288,44,54087,1,8,0:0:0:0:
162,145,54241,2,0,P|202:161|245:157,1,88.000002685547,2|0,0:0|0:0,0:0:0:0:
408,88,54549,2,0,P|451:84|491:100,1,88.000002685547,2|8,0:0|0:0,0:0:0:0:
476,260,54857,38,0,B|424:280|424:280|304:264,1,176.000005371094,2|2,0:0|0:0,0:0:0:0:
92,236,55318,1,8,0:0:0:0:
156,352,55472,2,0,L|243:341,1,88.000002685547,2|0,0:0|0:0,0:0:0:0:
324,240,55780,1,2,0:0:0:0:
168,180,55934,2,0,L|178:267,1,88.000002685547,8|2,0:0|0:0,0:0:0:0:
358,314,56241,38,0,P|404:244|365:169,1,176.000005371094,2|8,0:0|0:0,0:0:0:0:
228,112,56703,2,0,L|238:24,1,88.000002685547,2|0,0:0|0:0,0:0:0:0:
392,152,57010,1,2,0:0:0:0:
392,152,57164,1,8,0:0:0:0:
240,227,57318,38,0,P|280:243|324:240,1,88.000002685547,2|0,0:0|0:0,0:0:0:0:
472,320,57626,2,0,P|428:316|388:332,1,88.000002685547,2|8,0:0|0:0,0:0:0:0:
240,356,57933,2,0,B|196:348|196:348|167:355|167:355|67:337,1,176.000005371094,2|2,0:0|0:0,0:0:0:0:
140,176,58394,1,8,0:0:0:0:
164,272,58548,1,0,0:0:0:0:
328,212,58702,38,0,L|338:124,1,88.000002685547,2|0,1:2|0:0,0:0:0:0:
140,176,59010,1,8,0:0:0:0:
256,312,59164,2,0,L|344:302,1,88.000002685547,2|0,1:2|0:0,0:0:0:0:
452,212,59471,1,2,0:0:0:0:
308,136,59625,1,8,0:0:0:0:
432,32,59779,38,0,P|448:72|445:116,1,88.000002685547,2|0,1:2|0:0,0:0:0:0:
236,192,60087,2,0,P|220:152|223:108,1,88.000002685547,2|8,0:0|0:0,0:0:0:0:
92,44,60394,2,0,L|76:220,1,176.000005371094,2|2,1:2|0:0,0:0:0:0:
240,332,60856,1,8,1:2:0:0:
236,192,61010,1,0,0:0:0:0:
112,300,61164,37,2,0:0:0:0:
296,260,61318,1,0,0:0:0:0:
104,200,61471,2,0,L|20:173,1,88.000002685547,8|0,0:0|0:0,0:0:0:0:
276,56,61779,1,2,0:0:0:0:
236,192,61933,1,2,0:0:0:0:
236,192,62010,1,0,0:0:0:0:
236,192,62087,1,8,0:0:0:0:
372,232,62241,38,0,L|459:219,1,88.000002685547,2|0,0:0|0:0,0:0:0:0:
336,352,62548,1,2,0:0:0:0:
164,264,62702,1,10,0:0:0:0:
372,232,62856,1,2,0:0:0:0:
276,116,63010,2,0,P|232:108|189:112,1,88.000002685547,2|0,0:0|0:0,0:0:0:0:
94,306,63318,1,8,0:0:0:0:
94,306,63394,1,0,0:0:0:0:
94,306,63471,38,0,P|167:346|237:300,1,176.000005371094,6|2,1:2|0:0,0:0:0:0:
372,232,63933,1,8,0:0:0:0:
468,292,64087,2,0,L|455:379,1,88.000002685547,2|0,0:0|0:0,0:0:0:0:
237,300,64394,2,0,L|224:213,1,88.000002685547,2|8,0:0|0:0,0:0:0:0:
383,59,64702,38,0,B|368:144|368:144|380:184|380:184|372:232,1,176.000005371094,2|2,1:2|0:0,0:0:0:0:
224,88,65164,1,8,0:0:0:0:
78,187,65318,2,0,P|144:240|224:211,1,176.000005371094,2|2,0:0|0:0,0:0:0:0:
372,231,65779,1,8,0:0:0:0:
260,332,65933,1,0,0:0:0:0:
456,364,66087,38,0,P|459:320|457:276,1,88.000002685547,2|0,1:2|0:0,0:0:0:0:
304,148,66394,1,8,0:0:0:0:
172,323,66548,2,0,P|216:324|260:332,1,88.000002685547,2|0,0:0|0:0,0:0:0:0:
143,183,66856,2,0,P|99:184|56:192,1,88.000002685547,2|8,0:0|0:0,0:0:0:0:
232,56,67164,38,0,P|242:143|247:231,1,176.000005371094,2|2,1:2|0:0,0:0:0:0:
424,284,67625,1,8,0:0:0:0:
348,160,67779,2,0,L|434:144,1,88.000002685547,2|0,0:0|0:0,0:0:0:0:
304,328,68087,1,2,0:0:0:0:
170,303,68241,2,0,L|84:288,1,88.000002685547,8|2,0:0|0:0,0:0:0:0:
32,128,68548,38,0,P|118:113|206:108,1,176.000005371094,6|8,1:2|0:0,0:0:0:0:
348,160,69010,1,2,0:0:0:0:
348,160,69087,1,0,0:0:0:0:
348,160,69164,1,0,1:2:0:0:
204,208,69318,1,2,0:0:0:0:
356,280,69471,1,8,0:0:0:0:
211,352,69625,38,0,P|168:356|124:349,1,88.000002685547,2|0,1:2|0:0,0:0:0:0:
52,188,69933,1,2,0:0:0:0:
188,232,70087,1,8,0:0:0:0:
272,80,70241,1,2,0:0:0:0:
136,160,70394,1,0,0:0:0:0:
352,212,70548,1,2,0:0:0:0:
232,328,70702,2,0,L|144:317,1,88.000002685547,8|0,1:2|0:0,0:0:0:0:
48,170,71010,38,0,L|136:160,1,88.000002685547,2|0,0:0|0:0,0:0:0:0:
352,64,71318,1,8,1:2:0:0:
188,56,71471,1,0,0:0:0:0:
272,180,71625,1,2,0:0:0:0:
272,180,71702,1,0,0:0:0:0:
272,180,71779,1,0,0:0:0:0:
464,128,71933,1,8,1:2:0:0:
448,240,72087,38,0,L|436:328,1,88.000002685547,2|0,1:2|0:0,0:0:0:0:
232,264,72394,1,2,0:0:0:0:
380,172,72548,1,8,0:0:0:0:
204,64,72702,2,0,L|216:152,1,88.000002685547,2|0,0:0|0:0,0:0:0:0:
232,264,73010,1,0,1:0:0:0:
408,156,73164,2,0,L|396:244,1,88.000002685547,8|0,1:2|1:0,0:0:0:0:
260,340,73471,38,0,P|217:346|178:326,1,88.000002685547,12|0,0:0|0:0,0:0:0:0:
100,200,73779,1,0,0:0:0:0:
273,170,73933,2,0,L|360:156,1,88.000002685547,8|0,0:0|0:0,0:0:0:0:
178,326,74241,1,0,0:0:0:0:
351,296,74395,2,0,L|437:281,1,88.000002685547,2|0,0:0|0:0,0:0:0:0:
257,90,74702,38,0,P|195:146|216:228,1,176.000005371094,12|0,0:0|0:0,0:0:0:0:
396,168,75164,2,0,L|381:82,1,88.000002685547,12|0,0:0|0:0,0:0:0:0:
273,170,75471,1,0,0:0:0:0:
460,256,75625,2,0,L|445:342,1,88.000002685547,2|0,0:0|0:0,0:0:0:0:
272,352,75933,38,0,P|185:338|97:332,1,176.000005371094,12|0,0:0|0:0,0:0:0:0:
32,192,76394,2,0,P|84:188|136:176,1,88.000002685547,12|0,0:0|0:0,0:0:0:0:
236,152,76702,1,0,0:0:0:0:
287,266,76856,2,0,L|272:352,1,88.000002685547,8|8,0:0|0:0,0:0:0:0:
120,212,77164,37,2,0:0:0:0:
120,212,77318,1,12,0:0:0:0:
236,152,77471,1,8,0:3:0:0:
236,152,77625,1,8,0:3:0:0:
76,92,77779,1,8,0:0:0:0:
76,92,77933,1,4,0:3:0:0:
69,267,78087,38,0,P|107:286|150:280,1,88.000002685547,8|8,0:0|0:0,0:0:0:0:
328,148,78394,38,0,P|249:130|170:122,1,160,6|8,0:0|0:0,0:0:0:0:
69,267,78856,1,0,0:0:0:0:
69,267,78933,1,2,0:0:0:0:
69,267,79010,1,2,0:0:0:0:
228,344,79164,2,0,P|266:333|305:325,1,80,0|2,0:0|0:0,0:0:0:0:
472,225,79471,38,0,P|428:162|352:168,1,160,8|2,0:0|0:0,0:0:0:0:
228,232,79933,1,8,0:0:0:0:
108,168,80087,1,0,0:0:0:0:
108,168,80164,1,2,0:0:0:0:
108,167,80241,2,0,P|100:128|96:88,1,80,2|0,0:0|0:0,0:0:0:0:
288,32,80548,2,0,P|283:71|276:111,1,80,8|0,0:0|0:0,0:0:0:0:
168,316,80856,38,0,B|237:326|237:326|276:314|276:314|325:322,1,160,2|8,0:0|0:0,0:0:0:0:
416,172,81318,1,0,0:0:0:0:
416,172,81394,1,2,0:0:0:0:
416,172,81471,1,2,0:0:0:0:
325,322,81625,1,0,0:0:0:0:
480,268,81779,1,2,0:0:0:0:
312,204,81933,38,0,P|272:196|232:197,1,80,8|0,0:0|0:0,0:0:0:0:
72,216,82241,1,2,0:0:0:0:
192,112,82394,1,8,0:0:0:0:
44,48,82548,1,0,0:0:0:0:
44,48,82625,1,2,0:0:0:0:
44,48,82702,2,0,L|52:132,1,80,2|0,0:0|0:0,0:0:0:0:
156,232,83010,1,8,0:0:0:0:
40,312,83164,1,0,0:0:0:0:
172,359,83318,38,0,P|211:352|251:351,1,80,6|0,0:0|0:0,0:0:0:0:
360,304,83625,1,8,0:0:0:0:
279,104,83779,2,0,P|259:181|248:260,1,160,0|0,0:0|0:0,0:0:0:0:
120,176,84241,1,2,0:0:0:0:
31,352,84394,38,0,P|88:300|162:321,1,160,8|2,0:0|0:0,0:0:0:0:
360,304,84856,1,8,0:0:0:0:
256,200,85010,1,0,0:0:0:0:
162,321,85164,2,0,L|149:372,2,53.3333333333333,2|0|0,0:0|0:0|0:0,0:0:0:0:
73,323,85472,2,0,L|64:270,2,53.3333333333333,8|0|0,0:0|0:0|0:0,0:0:0:0:
152,232,85779,38,0,L|132:104,1,120,6|0,0:0|0:0,0:0:0:0:
176,40,86087,1,8,0:0:0:0:
324,100,86241,1,0,0:0:0:0:
324,100,86318,1,2,0:0:0:0:
324,100,86394,2,0,P|376:92|416:92,1,80,2|2,0:0|0:0,0:0:0:0:
500,148,86702,1,2,0:0:0:0:
432,288,86856,38,0,B|380:312|380:312|278:295,1,160,8|2,0:0|0:0,0:0:0:0:
94,282,87318,2,0,P|132:293|168:312,1,80,8|0,0:0|0:0,0:0:0:0:
244,112,87625,1,0,0:0:0:0:
216,240,87779,1,0,0:0:0:0:
132,144,87933,1,8,0:0:0:0:
320,184,88087,1,0,3:0:0:0:
320,184,88164,1,0,3:0:0:0:
320,184,88241,54,0,L|399:176,1,80,2|0,3:2|0:0,0:0:0:0:
496,168,88548,1,0,0:0:0:0:
392,276,88702,2,0,L|471:283,1,80,2|0,3:2|0:0,0:0:0:0:
316,344,89010,2,0,L|236:336,1,80,2|0,3:2|0:0,0:0:0:0:
76,263,89318,38,0,P|128:207|204:220,1,160,2|0,0:0|0:0,0:0:0:0:
304,200,89779,1,0,3:0:0:0:
248,120,89933,1,0,0:0:0:0:
360,76,90087,2,0,P|398:67|437:75,1,80,0|0,3:0|0:0,0:0:0:0:
488,184,90394,2,0,L|468:344,1,160,10|6,3:0|0:0,0:0:0:0:
200,280,91010,5,8,0:0:0:0:
368,172,91318,1,2,0:0:0:0:
428,271,91471,2,0,P|391:286|351:287,1,80,2|2,0:0|0:0,0:0:0:0:
224,196,91779,38,0,L|244:356,1,160,8|2,0:0|0:0,0:0:0:0:
368,172,92241,1,8,0:0:0:0:
136,100,92548,1,2,0:0:0:0:
224,196,92702,1,2,0:0:0:0:
108,232,92856,2,0,L|28:221,1,80,8|0,0:0|0:0,0:0:0:0:
168,336,93164,38,0,P|247:324|327:320,1,160,2|8,0:0|0:0,0:0:0:0:
460,260,93625,1,0,3:0:0:0:
460,260,93702,1,0,3:0:0:0:
460,260,93779,2,0,P|472:212|456:160,1,80,2|2,0:0|0:0,0:0:0:0:
384,88,94087,1,2,0:0:0:0:
232,196,94241,38,0,B|300:232|300:232|380:211,1,160,8|2,0:0|0:0,0:0:0:0:
264,84,94702,2,0,P|220:80|168:88,1,80,8|0,0:0|3:0,0:0:0:0:
40,108,95010,1,2,0:0:0:0:
152,184,95164,1,2,0:0:0:0:
60,240,95318,2,0,L|76:328,1,80,8|0,0:0|0:0,0:0:0:0:
256,355,95625,38,0,P|272:277|269:198,1,160,2|8,0:0|0:0,0:0:0:0:
160,52,96087,1,0,3:0:0:0:
160,52,96164,1,0,3:0:0:0:
160,52,96241,2,0,P|140:100|144:152,2,80,2|2|0,0:0|0:0|0:0,0:0:0:0:
320,96,96702,1,8,0:0:0:0:
248,224,96856,38,0,P|204:216|152:212,1,80,0|2,0:0|0:0,0:0:0:0:
320,320,97164,2,0,P|364:312|416:308,1,80,8|0,0:0|3:0,0:0:0:0:
472,184,97471,1,2,0:0:0:0:
348,116,97625,2,0,P|340:160|336:212,2,80,2|8|0,0:0|0:0|0:0,0:0:0:0:
402,245,98087,38,0,P|331:276|265:238,1,160,2|8,0:0|0:0,0:0:0:0:
164,160,98548,1,0,3:0:0:0:
164,160,98625,1,0,3:0:0:0:
164,160,98702,2,0,P|124:156|76:160,1,80,2|2,0:0|0:0,0:0:0:0:
36,308,99010,1,2,0:0:0:0:
172,352,99164,38,0,P|238:308|310:272,1,160,8|2,0:0|0:0,0:0:0:0:
444,312,99625,2,0,L|432:228,1,80,8|0,0:0|0:0,0:0:0:0:
300,176,99933,2,0,L|312:92,1,80,2|2,0:0|0:0,0:0:0:0:
444,204,100241,1,8,0:0:0:0:
310,272,100394,1,0,3:0:0:0:
310,272,100471,1,0,3:0:0:0:
310,272,100548,38,0,P|234:246|155:230,1,160,6|8,0:0|0:0,0:0:0:0:
32,160,101010,2,0,P|80:152|132:136,1,80,2|0,0:0|0:0,0:0:0:0:
264,48,101318,2,0,P|253:86|247:126,1,80,2|8,0:0|0:0,0:0:0:0:
444,204,101625,38,0,B|460:148|460:148|440:48,1,160,0|2,0:0|0:0,0:0:0:0:
247,126,102087,1,8,0:0:0:0:
360,212,102241,1,2,0:0:0:0:
232,292,102394,2,0,L|140:280,1,80,0|2,0:0|0:0,0:0:0:0:
48,152,102702,2,0,L|127:141,1,80,8|0,0:0|0:0,0:0:0:0:
247,126,103010,37,2,0:0:0:0:
247,126,103164,1,0,0:0:0:0:
119,276,103318,2,0,P|107:313|102:353,1,80,8|2,0:0|0:0,0:0:0:0:
127,141,103625,1,0,0:0:0:0:
127,141,103779,1,2,0:0:0:0:
277,268,103933,2,0,P|314:280|354:285,1,80,8|0,0:0|0:0,0:0:0:0:
456,132,104241,38,0,P|419:120|379:115,1,80,0|2,0:0|0:0,0:0:0:0:
220,196,104548,2,0,L|242:354,1,160,8|2,0:0|0:0,0:0:0:0:
312,192,105010,1,8,0:0:0:0:
144,300,105164,1,2,0:0:0:0:
144,300,105318,1,8,0:0:0:0:
40,224,105471,38,0,B|32:188|32:188|44:124,1,80,6|0,0:0|0:0,0:0:0:0:
140,52,105779,1,8,0:0:0:0:
272,172,105933,2,0,P|207:214|134:189,1,160,2|2,0:0|0:0,0:0:0:0:
20,248,106394,2,0,L|32:328,1,80,8|2,0:0|0:0,0:0:0:0:
148,368,106702,38,0,P|196:356|232:356,1,80,0|2,0:0|0:0,0:0:0:0:
344,368,107010,1,8,0:0:0:0:
344,368,107164,1,2,0:0:0:0:
468,296,107318,2,0,L|456:216,1,80,0|2,0:0|0:0,0:0:0:0:
252,200,107625,2,0,L|264:120,1,80,8|2,0:0|0:0,0:0:0:0:
396,36,107933,38,0,P|416:76|408:128,1,80,2|0,0:0|0:0,0:0:0:0:
348,200,108241,1,8,0:0:0:0:
231,224,108394,2,0,P|204:298|192:377,1,160,2|0,0:0|0:0,0:0:0:0:
76,316,108856,2,0,P|68:268|48:216,1,80,8|0,0:0|0:0,0:0:0:0:
208,120,109164,53,8,0:0:0:0:
144,212,109318,1,0,3:0:0:0:
24,128,109471,2,0,L|108:108,1,80,0|8,3:0|0:0,0:0:0:0:
244,216,109779,2,0,L|166:234,1,80,0|0,3:0|3:0,0:0:0:0:
40,100,110087,2,0,L|124:80,1,80,8|0,0:0|0:0,0:0:0:0:
280,120,110394,22,0,L|342:105,1,64,6|0,0:0|0:0,0:0:0:0:
448,80,110702,1,8,0:0:0:0:
452,216,110856,1,8,3:0:0:0:
452,216,110933,1,0,3:0:0:0:
451,216,111010,2,0,P|409:235|363:224,1,96,0|0,3:0|0:0,0:0:0:0:
320,240,111318,2,0,L|334:302,1,64,8|0,0:0|0:0,0:0:0:0:
184,356,111625,38,0,L|169:293,1,64,2|0,0:0|0:0,0:0:0:0:
144,184,111933,1,8,0:0:0:0:
252,80,112087,1,8,3:0:0:0:
252,80,112164,1,0,3:0:0:0:
252,80,112241,1,0,3:0:0:0:
340,136,112394,1,2,0:0:0:0:
440,104,112548,1,8,0:0:0:0:
440,104,112856,38,0,P|460:128|469:158,1,64,2|0,0:0|0:0,0:0:0:0:
420,248,113164,1,8,0:0:0:0:
316,288,113318,1,8,3:0:0:0:
316,288,113394,1,0,3:0:0:0:
316,288,113471,2,0,L|208:280,1,96,0|0,3:0|0:0,0:0:0:0:
176,292,113779,2,0,P|156:328|152:364,1,64,8|0,0:0|0:0,0:0:0:0:
40,220,114087,38,0,P|32:188|15:161,1,64,2|0,0:0|0:0,0:0:0:0:
180,76,114394,1,8,0:0:0:0:
132,184,114548,1,8,3:0:0:0:
132,184,114625,1,0,3:0:0:0:
132,184,114702,1,0,3:0:0:0:
236,200,114856,1,2,0:0:0:0:
340,212,115010,2,0,P|392:200|420:200,1,64,8|0,0:0|0:0,0:0:0:0:
472,312,115318,38,0,P|440:344|376:348,1,96,6|0,0:0|0:0,0:0:0:0:
296,364,115625,2,0,P|256:356|212:352,1,64,8|8,0:0|3:0,0:0:0:0:
144,360,115856,1,0,3:0:0:0:
144,360,115933,1,0,3:0:0:0:
48,264,116087,2,0,L|124:256,1,64,2|8,0:0|0:0,0:0:0:0:
224,232,116394,38,0,P|240:176|240:104,1,128
144,44,116856,1,8,0:0:0:0:
20,176,117010,1,8,3:0:0:0:
20,176,117087,1,0,3:0:0:0:
20,176,117164,2,0,L|147:161,1,128,0|8,3:0|0:0,0:0:0:0:
336,160,117625,1,0,0:0:0:0:
284,282,117779,70,0,L|268:219,1,64,8|2,0:0|0:0,0:0:0:0:
240,106,118087,1,2,0:0:0:0:
428,56,118241,2,0,L|412:118,1,64,8|2,0:0|3:2,0:0:0:0:
384,232,118549,1,2,3:2:0:0:
240,106,118702,2,0,L|192:64,1,64,8|0,3:2|3:0,0:0:0:0:
48,132,119010,37,0,3:0:0:0:
46,146,119087,1,0,3:0:0:0:
44,160,119164,1,0,3:0:0:0:
42,174,119241,1,0,3:0:0:0:
40,188,119318,2,0,P|92:243|168:228,1,160,8|8,0:3|0:0,0:0:0:0:
260,248,119702,1,8,0:0:0:0:
260,248,119779,2,0,L|256:288,1,40,8|8,0:0|0:0,0:0:0:0:
360,348,119933,1,8,0:0:0:0:
360,348,120010,1,8,0:0:0:0:
360,348,120086,22,0,P|382:272|426:206,1,160,6|2,0:0|0:0,0:0:0:0:
412,92,120548,1,8,0:0:0:0:
244,148,120702,2,0,P|296:164|328:164,1,80,2|0,0:0|0:0,0:0:0:0:
437,330,121010,2,0,P|397:333|360:347,1,80,2|8,0:0|0:0,0:0:0:0:
147,277,121318,38,0,B|195:267|195:267|234:278|234:278|303:264,1,160,2|2,0:0|0:0,0:0:0:0:
404,184,121779,1,8,0:0:0:0:
267,79,121933,2,0,P|193:94|173:167,1,160,2|0,0:0|0:0,0:0:0:0:
234,278,122394,1,8,0:0:0:0:
412,328,122548,1,0,0:0:0:0:
412,328,122625,1,0,0:0:0:0:
412,328,122702,38,0,P|429:250|433:170,1,160,2|8,0:0|0:0,0:0:0:0:
244,148,123164,2,0,L|264:232,1,80,2|0,0:0|0:0,0:0:0:0:
160,332,123471,2,0,P|120:324|64:324,1,80,2|8,0:0|0:0,0:0:0:0:
0,196,123779,38,0,P|79:188|157:170,1,160,2|2,0:0|0:0,0:0:0:0:
268,120,124241,1,8,0:0:0:0:
400,228,124394,2,0,L|418:150,1,80,2|0,0:0|0:0,0:0:0:0:
246,231,124702,1,2,0:0:0:0:
296,336,124856,2,0,P|334:345|372:335,1,80,8|0,0:0|0:0,0:0:0:0:
400,228,125087,1,0,0:0:0:0:
400,228,125164,38,0,B|352:208|352:208|246:231,1,160,2|8,1:2|0:0,0:0:0:0:
140,288,125625,2,0,P|92:272|64:268,1,80,2|0,1:2|0:0,0:0:0:0:
144,156,125933,1,2,0:0:0:0:
246,231,126087,1,8,0:0:0:0:
364,171,126241,38,0,P|375:133|373:93,1,80,2|0,1:2|0:0,0:0:0:0:
488,260,126548,2,0,P|476:298|478:337,1,80,2|8,0:0|0:0,0:0:0:0:
272,336,126856,1,2,0:0:0:0:
322,210,127010,1,0,0:0:0:0:
168,196,127164,1,2,0:0:0:0:
195,331,127318,2,0,P|232:342|271:335,1,80,8|0,0:0|0:0,0:0:0:0:
348,292,127548,1,0,0:0:0:0:
348,292,127625,37,2,0:0:0:0:
168,196,127779,1,0,0:0:0:0:
336,108,127933,2,0,P|343:147|344:187,1,80,8|2,0:0|0:0,0:0:0:0:
168,196,128241,2,0,B|124:184|124:184|88:192|88:192|11:176,1,160,0|8,0:0|0:0,0:0:0:0:
124,272,128702,38,0,L|136:352,1,80,2|0,0:0|0:0,0:0:0:0:
244,156,129010,1,2,0:0:0:0:
88,104,129164,2,0,L|100:24,1,80,8|2,0:0|0:0,0:0:0:0:
328,56,129471,1,8,0:0:0:0:
328,56,129548,1,0,0:0:0:0:
328,56,129625,1,0,0:0:0:0:
273,310,129779,1,8,0:0:0:0:
273,310,129856,1,0,0:0:0:0:
273,310,129933,38,0,B|267:238|267:238|248:203|248:203|244:156,1,160,6|2,1:2|0:0,0:0:0:0:
352,172,130394,1,8,0:0:0:0:
176,268,130548,2,0,P|136:259|97:255,1,80,2|0,0:0|0:0,0:0:0:0:
20,96,130856,2,0,P|59:92|98:83,1,80,2|8,0:0|0:0,0:0:0:0:
352,172,131164,38,0,B|304:165|304:165|256:177|256:177|194:169,1,160,2|2,1:2|0:0,0:0:0:0:
273,310,131625,1,8,0:0:0:0:
436,272,131779,2,0,P|447:192|451:113,1,160,2|2,0:0|0:0,0:0:0:0:
264,64,132241,1,8,0:0:0:0:
352,172,132394,1,0,0:0:0:0:
352,172,132471,1,0,0:0:0:0:
352,172,132548,37,2,1:2:0:0:
220,276,132702,2,0,L|128:264,1,80,0|8,0:0|0:0,0:0:0:0:
29,121,133010,2,0,P|68:111|108:108,1,80,2|0,0:0|0:0,0:0:0:0:
264,64,133318,2,0,P|260:103|250:142,1,80,2|8,0:0|0:0,0:0:0:0:
140,265,133625,38,0,P|124:213|108:105,1,160,2|2,1:2|0:0,0:0:0:0:
264,64,134087,1,8,0:0:0:0:
348,188,134241,2,0,P|400:184|436:168,1,80,2|0,0:0|0:0,0:0:0:0:
372,332,134548,1,2,0:0:0:0:
249,278,134702,2,0,P|211:265|172:264,1,80,8|0,0:0|0:0,0:0:0:0:
92,224,134933,1,0,0:0:0:0:
92,224,135010,38,0,B|72:148|72:148|80:104|113:80,1,160,2|8,1:2|0:0,0:0:0:0:
288,120,135471,2,0,L|204:136,1,80,2|0,0:0|0:0,0:0:0:0:
376,176,135779,1,2,0:0:0:0:
249,278,135933,1,8,0:0:0:0:
337,334,136087,38,0,L|421:318,1,80,2|0,1:2|0:0,0:0:0:0:
455,183,136394,2,0,P|415:177|376:176,1,80,2|8,0:0|0:0,0:0:0:0:
249,278,136702,2,0,P|231:199|208:123,1,160,2|2,0:0|0:0,0:0:0:0:
36,208,137164,2,0,P|72:223|112:221,1,80,8|0,0:0|0:0,0:0:0:0:
164,292,137394,1,0,0:0:0:0:
164,292,137471,38,0,L|153:371,1,80,2|0,1:2|0:0,0:0:0:0:
308,256,137779,1,8,0:0:0:0:
200,152,137933,1,0,0:0:0:0:
360,80,138087,2,0,L|372:164,1,80,2|0,0:0|0:0,0:0:0:0:
236,180,138394,1,8,0:0:0:0:
409,151,138548,38,0,L|398:235,1,80,2|0,1:2|0:0,0:0:0:0:
288,336,138856,1,2,0:0:0:0:
168,272,139010,2,0,P|120:268|80:268,1,80,8|2,0:0|0:0,0:0:0:0:
20,160,139318,2,0,L|68:152,3,40,8|8|8|0,0:0|0:0|0:0|0:0,0:0:0:0:
152,176,139625,2,0,L|200:168,3,40,8|0|8|0,0:0|0:0|0:0|0:0,0:0:0:0:
288,196,139933,38,0,P|348:152|320:56,1,160,12|0,1:2|0:0,0:0:0:0:
166,28,140394,2,0,B|134:68|134:68|152:176,1,160,8|0,1:2|0:0,0:0:0:0:
256,308,140856,1,2,0:0:0:0:
288,196,141010,1,0,0:0:0:0:
132,284,141164,38,0,L|53:268,1,80,12|0,1:2|0:0,0:0:0:0:
132,108,141471,1,0,0:0:0:0:
288,196,141625,2,0,L|366:180,1,80,12|0,1:2|0:0,0:0:0:0:
256,308,141933,1,0,0:0:0:0:
137,184,142087,2,0,P|125:147|132:108,1,80,2|0,0:0|0:0,0:0:0:0:
308,28,142394,38,0,B|320:64|320:64|308:124,1,80,12|0,1:2|0:0,0:0:0:0:
268,224,142702,1,0,0:0:0:0:
137,184,142856,2,0,L|60:161,1,80,12|0,1:2|0:0,0:0:0:0:
160,288,143164,1,0,0:0:0:0:
291,248,143318,2,0,L|368:225,1,80,8|8,0:0|0:0,0:0:0:0:
308,28,143625,37,2,0:0:0:0:
228,168,143779,1,8,0:0:0:0:
408,104,143933,1,8,0:0:0:0:
464,220,144087,1,8,0:0:0:0:
391,326,144241,1,2,0:0:0:0:
228,168,144394,1,2,0:0:0:0:
256,340,144548,1,8,0:0:0:0:
352,244,144702,1,8,0:0:0:0:
164,284,144856,22,0,B|124:276|124:276|83:284|83:284|6:271,1,160,6|8,1:2|0:0,0:0:0:0:
72,100,145318,1,0,0:0:0:0:
72,100,145394,1,8,0:0:0:0:
72,100,145471,2,0,P|96:144|96:180,1,80,2|2,0:0|0:0,0:0:0:0:
6,271,145779,1,0,0:0:0:0:
164,316,145933,38,0,P|243:304|323:303,1,160,8|2,0:0|0:0,0:0:0:0:
452,244,146394,1,8,0:0:0:0:
332,188,146548,1,0,0:0:0:0:
332,188,146625,1,8,0:0:0:0:
332,188,146702,2,0,L|348:96,1,80,2|2,0:0|0:0,0:0:0:0:
489,33,147010,2,0,L|476:112,1,80,8|0,0:0|0:0,0:0:0:0:
383,244,147318,38,0,P|308:261|256:205,1,160,2|8,0:0|0:0,0:0:0:0:
88,152,147779,1,0,0:0:0:0:
88,152,147856,1,8,0:0:0:0:
88,151,147933,2,0,P|122:132|161:122,1,80,2|2,0:0|0:0,0:0:0:0:
332,188,148241,1,0,0:0:0:0:
228,300,148394,1,8,0:0:0:0:
228,300,148471,1,0,0:0:0:0:
228,300,148548,38,0,L|144:292,1,80,0|2,0:0|0:0,0:0:0:0:
88,152,148856,1,8,0:0:0:0:
272,68,149010,1,0,0:0:0:0:
272,68,149087,1,8,0:0:0:0:
272,68,149164,2,0,L|261:147,1,80,2|0,0:0|0:0,0:0:0:0:
328,272,149471,1,8,0:0:0:0:
348,276,149548,1,0,0:0:0:0:
368,280,149625,1,0,0:0:0:0:
388,284,149702,1,0,0:0:0:0:
408,287,149779,38,0,P|448:246|446:187,1,120,6|0,0:0|0:0,0:0:0:0:
400,128,150087,1,8,0:0:0:0:
257,187,150241,1,0,0:0:0:0:
257,187,150318,1,8,0:0:0:0:
257,187,150394,2,0,L|169:179,1,80,2|2,0:0|0:0,0:0:0:0:
64,220,150702,1,0,0:0:0:0:
152,344,150856,38,0,P|172:304|164:256,1,80,8|0,0:0|0:0,0:0:0:0:
88,116,151164,1,0,0:0:0:0:
88,116,151318,2,0,L|96:28,1,80,8|0,0:0|0:0,0:0:0:0:
192,16,151548,1,8,0:0:0:0:
192,16,151625,2,0,P|212:56|204:104,1,80,2|2,0:0|0:0,0:0:0:0:
257,187,151933,2,0,L|345:179,1,80,8|0,0:0|0:0,0:0:0:0:
428,312,152241,38,0,B|364:344|364:344|260:324,1,160,2|8,0:0|0:0,0:0:0:0:
76,272,152702,1,0,0:0:0:0:
76,272,152779,1,8,0:0:0:0:
76,272,152856,2,0,L|164:256,1,80,2|2,0:0|0:0,0:0:0:0:
257,187,153164,1,0,0:0:0:0:
148,60,153318,38,0,P|78:91|77:167,1,160,8|2,0:0|0:0,0:0:0:0:
250,266,153779,2,0,L|257:187,1,80,8|0,0:0|0:0,0:0:0:0:
324,128,154010,1,8,0:0:0:0:
324,128,154087,2,0,L|330:48,1,80,2|2,0:0|0:0,0:0:0:0:
460,200,154394,2,0,L|453:279,1,80,8|8,0:0|0:0,0:0:0:0:
400,356,154625,1,8,0:0:0:0:
400,356,154702,38,0,P|344:380|264:312,1,160,6|8,0:0|0:0,0:0:0:0:
312,208,155164,2,0,L|324:128,1,80,2|0,0:0|0:0,0:0:0:0:
156,156,155471,2,0,L|168:236,1,80,2|0,0:0|0:0,0:0:0:0:
344,299,155779,38,0,P|359:221|361:141,1,160,8|2,0:0|0:0,0:0:0:0:
156,156,156241,1,8,0:0:0:0:
264,306,156394,2,0,P|304:306|344:299,1,80,0|2,0:0|0:0,0:0:0:0:
460,184,156702,1,2,0:0:0:0:
332,128,156856,2,0,L|292:135,3,40,8|0|0|0,0:0|0:0|0:0|0:0,0:0:0:0:
224,204,157164,38,0,P|146:186|66:183,1,160,2|8,0:0|0:0,0:0:0:0:
16,328,157625,1,0,0:0:0:0:
16,328,157702,1,8,0:0:0:0:
16,328,157779,2,0,P|56:344|104:340,1,80,2|2,0:0|0:0,0:0:0:0:
204,296,158087,1,0,0:0:0:0:
320,352,158241,38,0,L|344:180,1,160,8|2,0:0|0:0,0:0:0:0:
200,72,158702,2,0,P|144:64|88:72,1,80,8|0,0:0|0:0,0:0:0:0:
44,128,158933,1,8,0:0:0:0:
44,128,159010,2,0,L|56:228,1,80,2|2,0:0|0:0,0:0:0:0:
204,296,159318,2,0,L|216:196,1,80,8|0,0:0|0:0,0:0:0:0:
310,65,159625,38,0,P|362:117|334:201,1,160,6|8,0:0|0:0,0:0:0:0:
192,240,160087,1,0,0:0:0:0:
192,240,160164,1,8,0:0:0:0:
192,240,160241,1,2,0:0:0:0:
332,308,160394,2,0,P|371:300|411:296,1,80,2|0,0:0|0:0,0:0:0:0:
289,139,160702,38,0,L|129:127,1,160,8|2,0:0|0:0,0:0:0:0:
44,240,161164,2,0,P|80:264|128:264,1,80,8|0,0:0|0:0,0:0:0:0:
192,240,161394,1,8,0:0:0:0:
192,240,161471,1,2,0:0:0:0:
129,127,161625,1,2,0:0:0:0:
236,113,161779,2,0,L|316:104,1,80,8|0,0:0|0:0,0:0:0:0:
464,192,162087,38,0,B|476:236|476:236|444:288|376:272,1,160,2|8,0:0|0:0,0:0:0:0:
252,208,162548,1,0,0:0:0:0:
252,208,162625,1,8,0:0:0:0:
252,208,162702,2,0,L|244:288,1,80,2|2,0:0|0:0,0:0:0:0:
368,168,163010,1,0,0:0:0:0:
268,88,163164,38,0,B|220:72|220:72|108:88,1,160,8|2,0:0|0:0,0:0:0:0:
24,184,163625,2,0,P|64:212|112:208,1,80,8|0,0:0|0:0,0:0:0:0:
180,196,163856,1,8,0:0:0:0:
180,196,163933,2,0,L|172:276,1,80,2|2,0:0|0:0,0:0:0:0:
312,340,164241,2,0,L|320:260,1,80,8|8,0:0|0:0,0:0:0:0:
360,176,164471,1,8,0:0:0:0:
360,176,164548,38,0,P|435:166|482:227,1,160,6|8,0:0|0:0,0:0:0:0:
391,347,165010,2,0,P|351:347|312:340,1,80,0|2,3:0|0:0,0:0:0:0:
172,275,165318,2,0,P|132:274|92:282,1,80,2|0,0:0|0:0,0:0:0:0:
24,140,165625,38,0,L|196:156,1,160,8|2,0:0|0:0,0:0:0:0:
332,144,166087,2,0,P|348:104|340:64,1,80,8|0,0:0|0:0,0:0:0:0:
272,24,166317,1,8,0:0:0:0:
272,24,166394,2,0,L|192:17,1,80,2|2,0:0|0:0,0:0:0:0:
40,112,166702,2,0,L|119:118,1,80,8|0,0:0|0:0,0:0:0:0:
212,279,167010,38,0,P|227:201|228:121,1,160,2|8,0:0|0:0,0:0:0:0:
28,208,167471,1,0,0:0:0:0:
28,208,167625,2,0,P|32:260|48:308,1,80,2|0,0:0|0:0,0:0:0:0:
148,344,167933,1,0,0:0:0:0:
276,324,168087,38,0,L|356:312,1,80,8|0,0:0|0:0,0:0:0:0:
444,184,168394,1,2,0:0:0:0:
316,164,168548,2,0,L|236:152,1,80,8|0,0:0|0:0,0:0:0:0:
156,140,168779,1,8,0:0:0:0:
156,140,168856,1,2,0:0:0:0:
228,244,169010,1,2,0:0:0:0:
100,264,169164,2,0,L|20:276,1,80,8|0,0:0|0:0,0:0:0:0:
286,300,169471,38,0,P|306:226|256:167,1,160,6|8,0:0|0:0,0:0:0:0:
66,113,169933,1,0,0:0:0:0:
66,113,170010,1,8,0:0:0:0:
66,113,170087,2,0,P|108:136|158:131,1,80,2|2,0:0|0:0,0:0:0:0:
287,70,170394,1,0,0:0:0:0:
408,148,170548,38,0,L|396:231,1,80,8|0,0:0|0:0,0:0:0:0:
215,200,170856,1,2,0:0:0:0:
286,343,171010,2,0,L|383:332,1,80,8|0,0:0|0:0,0:0:0:0:
215,200,171318,1,2,0:0:0:0:
104,272,171471,1,2,0:0:0:0:
104,272,171548,1,0,0:0:0:0:
104,272,171625,2,0,P|100:332|116:368,1,80,8|0,0:0|0:0,0:0:0:0:
215,200,171933,38,0,L|48:176,1,160,2|8,0:0|0:0,0:0:0:0:
192,312,172394,1,0,0:0:0:0:
192,312,172471,1,8,0:0:0:0:
192,312,172548,2,0,L|289:301,1,80,2|2,0:0|0:0,0:0:0:0:
448,212,172856,1,0,0:0:0:0:
380,336,173010,1,8,0:0:0:0:
328,220,173164,38,0,P|320:176|324:124,1,80,0|2,0:0|0:0,0:0:0:0:
456,40,173471,2,0,P|456:79|449:119,1,80,0|8,0:0|0:0,0:0:0:0:
328,220,173779,70,0,P|280:184|192:216,1,132.00000402832,2|0,3:0|0:0,0:0:0:0:
215,331,174087,2,0,B|246:353|246:353|258:261,1,132.00000402832,2|8,0:3|0:0,0:0:0:0:
152,264,174394,2,8,B|120:287|120:287|101:151,1,176.000005371094,6|8,0:0|0:0,0:0:0:0:
196,40,174856,37,0,3:0:0:0:
196,40,174933,1,8,0:0:0:0:
196,40,175010,2,0,P|234:29|273:35,1,80,2|2,0:0|0:0,0:0:0:0:
404,112,175318,1,0,0:0:0:0:
328,220,175471,2,0,P|289:230|250:224,1,80,8|0,0:0|0:0,0:0:0:0:
101,151,175779,1,2,0:0:0:0:
112,262,175933,2,0,L|122:342,1,80,8|0,0:0|0:0,0:0:0:0:
280,368,176241,38,0,B|320:356|320:356|360:364|360:364|408:352,1,132.00000402832,2|0,3:0|0:0,0:0:0:0:
463,267,176548,2,0,P|424:218|361:225,1,132.00000402832,2|8,3:0|0:0,0:0:0:0:
256,264,176856,2,0,B|224:276|224:276|184:212|228:141,1,176.000005371094,6|8,0:0|0:0,0:0:0:0:
400,48,177318,37,0,3:0:0:0:
400,48,177394,1,8,0:0:0:0:
400,48,177471,2,0,P|409:86|415:126,1,80,2|2,0:0|0:0,0:0:0:0:
400,276,177779,1,0,0:0:0:0:
280,336,177933,2,0,P|240:330|201:320,1,80,8|0,0:0|0:0,0:0:0:0:
88,224,178241,1,2,0:0:0:0:
141,127,178395,2,0,P|180:117|220:112,1,80,8|0,0:0|0:0,0:0:0:0:
376,156,178702,38,0,B|396:212|368:260|368:260|348:245,1,132.00000402832,2|0,3:0|0:0,0:0:0:0:
192,236,179010,2,0,P|220:200|316:188,1,132.00000402832,2|8,3:0|0:0,0:0:0:0:
312,332,179318,2,0,B|248:316|248:316|140:339,1,176.000005371094,6|8,0:0|0:0,0:0:0:0:
9,240,179779,37,0,0:0:0:0:
9,240,179856,1,8,0:0:0:0:
9,240,179933,2,0,L|88:224,1,80
256,140,180241,1,0,0:0:0:0:
108,52,180394,2,0,P|96:104|112:152,1,80,8|0,0:0|0:0,0:0:0:0:
216,244,180702,1,2,0:0:0:0:
352,224,180856,2,0,L|431:212,1,80,8|0,0:0|0:0,0:0:0:0:
258,55,181164,38,0,B|214:99|238:155|238:155|255:140,1,132.00000402832,2|0,3:0|0:0,0:0:0:0:
352,224,181471,2,0,B|364:180|364:180|339:98,1,132.00000402832,2|0,3:0|0:0,0:0:0:0:
132,204,181779,2,0,B|146:247|192:265|192:265|237:248|237:248|268:270,1,176.000005371094,6|8,0:0|0:0,0:0:0:0:
408,180,182241,37,0,0:0:0:0:
408,180,182318,1,8,0:0:0:0:
408,180,182394,2,0,L|416:268,1,88.000002685547,2|2,0:0|0:0,0:0:0:0:
160,208,182702,1,0,0:0:0:0:
244,344,182856,2,0,P|287:343|323:319,1,88.000002685547,8|0,0:0|0:0,0:0:0:0:
296,120,183164,21,10,1:2:0:0:
264,272,183318,1,10,1:2:0:0:
416,160,183471,1,10,1:2:0:0:
480,312,183625,1,10,1:2:0:0:
264,272,183779,1,10,1:2:0:0:
384,56,183933,1,10,1:2:0:0:
380,256,184087,1,10,1:2:0:0:
87,132,195625,22,0,P|63:189|82:249,2,128,2|0|2,0:0|0:0|0:0,0:0:0:0:
200,68,196394,1,2,0:0:0:0:
255,178,196548,70,0,B|211:206|155:194|155:194|171:238|217:248,1,192,6|0,3:2|3:0,0:0:0:0:
316,252,197164,2,0,L|379:242,1,64,2|2,3:0|3:0,0:0:0:0:
376,328,197471,2,0,L|439:318,1,64,2|10,3:0|3:0,0:0:0:0:
476,228,197779,1,0,0:0:0:0:
340,32,198087,2,0,B|324:80|324:80|341:155,2,128,10|0|8,3:0|3:0|3:0,0:0:0:0:
480,88,198856,1,0,3:0:0:0:
391,219,199010,38,0,P|330:235|276:204,1,128,0|8,3:0|3:0,0:0:0:0:
196,136,199471,1,0,3:0:0:0:
107,192,199625,2,0,P|100:222|103:254,1,64,2|2,3:0|3:0,0:0:0:0:
60,332,199933,2,0,P|82:354|111:367,1,64,2|2,3:0|3:0,0:0:0:0:
240,352,200241,2,0,L|367:336,1,128,0|2,0:0|3:0,0:0:0:0:
448,152,200856,1,0,3:0:0:0:
272,240,201164,1,8,3:0:0:0:
460,335,201471,6,0,B|464:295|464:295|435:241|435:241|448:152,1,192,2|0,0:0|0:0,0:0:0:0:
143,44,202394,2,0,P|109:127|174:190,1,192,0|0,0:0|0:0,0:0:0:0:
396,240,203318,2,0,L|411:145,2,96
232,336,203933,38,0,B|153:315|161:233|161:233|229:203|246:140|246:140|280:191|244:251,1,383.99998828125,2|0,0:0|0:0,0:0:0:0:
193,241,206702,70,0,P|227:232|263:234,1,71.9999978027344
360,264,207010,2,0,L|412:256,1,35.9999989013672,0|0,0:0|0:0,0:0:0:0:
480,172,207164,1,0,0:0:0:0:
480,172,207241,1,0,0:0:0:0:
480,172,207318,2,0,L|428:164,1,35.9999989013672,0|0,0:0|0:0,0:0:0:0:
339,143,207471,22,0,P|332:100|332:56,1,88.000002685547,6|0,0:0|0:0,0:0:0:0:
184,200,207779,1,2,0:0:0:0:
332,260,207933,1,8,0:0:0:0:
220,348,208087,2,0,L|120:336,1,88.000002685547,2|0,0:0|0:0,0:0:0:0:
28,176,208394,2,0,L|128:164,1,88.000002685547,2|8,0:0|0:0,0:0:0:0:
264,76,208702,38,0,P|260:152|244:256,1,176.000005371094,2|2,0:0|0:0,0:0:0:0:
115,165,209164,1,8,0:0:0:0:
288,188,209318,2,0,B|336:176|336:176|384:180|384:180|460:162,1,176.000005371094,2|2,0:0|0:0,0:0:0:0:
440,308,209779,1,8,0:0:0:0:
320,344,209933,1,0,0:0:0:0:
320,344,210010,1,0,0:0:0:0:
320,344,210087,38,0,P|276:343|232:336,1,88.000002685547,2|2,0:0|0:0,0:0:0:0:
80,232,210394,1,8,0:0:0:0:
228,228,210548,2,0,L|216:140,1,88.000002685547,2|0,0:0|0:0,0:0:0:0:
64,52,210856,2,0,L|52:140,1,88.000002685547,2|8,0:0|0:0,0:0:0:0:
72,312,211164,38,0,P|134:367|212:338,1,176.000005371094,2|2,0:0|0:0,0:0:0:0:
80,232,211625,1,8,0:0:0:0:
192,122,211779,2,0,B|180:205|180:205|157:243|157:243|149:290,1,176.000005371094,2|2,0:0|0:0,0:0:0:0:
24,152,212241,2,0,L|12:64,1,88.000002685547,8|0,0:0|0:0,0:0:0:0:
116,96,212471,1,0,0:0:0:0:
116,96,212548,38,0,P|159:100|203:93,1,88.000002685547,2|2,1:2|0:0,0:0:0:0:
332,64,212856,1,8,0:0:0:0:
400,164,213010,2,0,L|384:256,1,88.000002685547,0|0,1:2|0:0,0:0:0:0:
203,93,213318,1,2,0:0:0:0:
252,240,213471,1,8,0:0:0:0:
80,192,213625,38,0,P|120:175|164:176,1,88.000002685547,2|0,1:2|0:0,0:0:0:0:
272,340,213933,2,0,P|228:340|187:324,1,88.000002685547,2|8,0:0|0:0,0:0:0:0:
280,132,214241,2,0,B|320:116|320:116|380:120|380:120|447:92,1,176.000005371094,2|2,1:2|0:0,0:0:0:0:
440,272,214702,2,0,P|392:288|344:276,1,88.000002685547,8|0,0:0|0:0,0:0:0:0:
272,240,214933,1,0,0:0:0:0:
272,240,215010,38,0,L|256:153,1,88.000002685547,2|0,0:0|0:0,0:0:0:0:
344,40,215318,1,8,0:0:0:0:
360,180,215471,1,2,0:0:0:0:
224,148,215625,2,0,L|138:128,1,88.000002685547,0|2,0:0|0:0,0:0:0:0:
50,291,215933,1,8,0:0:0:0:
186,259,216087,38,0,L|272:240,1,88.000002685547,2|0,0:0|0:0,0:0:0:0:
428,276,216394,1,2,0:0:0:0:
328,352,216548,1,8,0:0:0:0:
368,192,216702,1,2,0:0:0:0:
368,192,216779,1,0,0:0:0:0:
368,192,216856,2,0,L|378:149,3,44.0000013427735,8|0|8|8,0:0|0:0|0:0|0:0,0:0:0:0:
284,64,217164,2,0,L|273:106,1,44.0000013427735,8|8,0:0|0:0,0:0:0:0:
228,192,217318,38,0,B|176:208|176:208|48:192,1,176.000005371094,14|2,0:0|0:0,0:0:0:0:
168,112,217779,1,8,0:0:0:0:
293,149,217933,2,0,P|305:190|294:232,1,88.000002685547,2|0,0:0|0:0,0:0:0:0:
184,304,218241,2,0,L|95:293,1,88.000002685547,2|8,0:0|0:0,0:0:0:0:
168,112,218548,38,0,L|208:284,1,176.000005371094,2|2,1:2|0:0,0:0:0:0:
360,336,219010,1,8,0:0:0:0:
436,272,219164,2,0,P|444:224|432:180,1,88.000002685547,2|0,0:0|0:0,0:0:0:0:
300,88,219471,1,2,0:0:0:0:
228,224,219625,2,0,L|316:232,1,88.000002685547,8|0,0:0|0:0,0:0:0:0:
360,336,219856,1,0,0:0:0:0:
360,336,219933,38,0,B|312:356|312:356|264:344|264:344|180:356,1,176.000005371094,2|8,1:2|0:0,0:0:0:0:
40,292,220394,2,0,P|79:272|123:269,1,88.000002685547,2|0,0:0|0:0,0:0:0:0:
228,224,220702,2,0,P|247:184|250:140,1,88.000002685547,2|8,0:0|0:0,0:0:0:0:
112,28,221010,38,0,B|84:84|84:84|76:144|115:189,1,176.000005371094,2|2,1:2|0:0,0:0:0:0:
228,224,221471,1,8,0:0:0:0:
344,204,221625,2,0,L|430:189,1,88.000002685547,2|0,0:0|0:0,0:0:0:0:
304,320,221933,1,2,0:0:0:0:
228,224,222087,1,8,0:0:0:0:
128,296,222241,1,0,0:0:0:0:
128,296,222318,1,0,0:0:0:0:
128,296,222394,38,0,P|80:304|40:296,1,88.000002685547,2|0,1:2|0:0,0:0:0:0:
4,152,222702,1,8,0:0:0:0:
135,92,222856,2,0,L|124:180,1,88.000002685547,2|0,0:0|0:0,0:0:0:0:
324,228,223164,2,0,L|312:140,1,88.000002685547,2|8,0:0|0:0,0:0:0:0:
256,287,223471,38,0,P|335:317|404:268,1,176.000005371094,2|2,0:0|0:0,0:0:0:0:
416,124,223933,1,8,0:0:0:0:
240,204,224087,2,0,P|196:196|152:194,1,88.000002685547,2|0,0:0|0:0,0:0:0:0:
304,112,224394,1,2,0:0:0:0:
352,240,224548,2,0,P|359:283|361:327,1,88.000002685547,8|0,0:0|0:0,0:0:0:0:
268,368,224779,1,0,0:0:0:0:
268,368,224856,38,0,L|172:360,1,88.000002685547,2|2,0:0|0:0,0:0:0:0:
56,232,225164,2,0,L|143:224,1,88.000002685547,8|2,0:0|0:0,0:0:0:0:
304,112,225471,1,0,0:0:0:0:
248,244,225625,1,2,0:0:0:0:
172,120,225779,1,8,0:0:0:0:
328,200,225933,38,0,P|376:188|428:184,1,88.000002685547,2|0,0:0|0:0,0:0:0:0:
500,60,226241,2,0,P|456:55|413:44,1,88.000002685547,8|8,0:0|0:0,0:0:0:0:
172,120,226548,1,8,0:0:0:0:
328,200,226702,2,0,L|336:100,1,88.000002685547,8|8,0:0|0:0,0:0:0:0:
196,232,227010,1,8,0:0:0:0:
196,232,227164,1,8,0:0:0:0:
308,324,227318,38,0,B|352:312|352:312|400:320|400:320|478:298,1,176.000005371094,12|0,1:2|0:0,0:0:0:0:
400,96,227779,2,0,P|331:143|348:224,1,176.000005371094,8|0,1:2|0:0,0:0:0:0:
492,180,228241,2,0,L|404:171,1,88.000002685547,0|0,0:0|0:0,0:0:0:0:
196,232,228548,38,0,L|108:223,1,88.000002685547,12|0,1:2|0:0,0:0:0:0:
300,136,228856,1,0,0:0:0:0:
312,292,229010,2,0,B|252:332|252:332|132:324,1,176.000005371094,12|0,1:2|0:0,0:0:0:0:
33,235,229471,2,0,P|39:192|68:160,1,88.000002685547,0|0,0:0|0:0,0:0:0:0:
248,72,229779,38,0,B|256:124|256:124|232:164|232:164|225:240,1,176.000005371094,12|0,1:2|0:0,0:0:0:0:
156,104,230241,1,12,1:2:0:0:
324,196,230394,2,0,L|416:184,1,88.000002685547,0|0,0:0|0:0,0:0:0:0:
316,316,230702,2,0,L|408:304,1,88.000002685547,8|8,0:0|0:0,0:0:0:0:
225,240,231010,38,0,L|181:233,3,44.0000013427735,2|0|8|8,0:0|0:0|0:0|3:0,0:0:0:0:
108,276,231318,2,0,L|64:269,3,44.0000013427735,8|8|8|8,3:0|3:0|3:0|3:0,0:0:0:0:
60,176,231625,2,0,L|103:182,3,44.0000013427735,8|4|4|4,0:0|3:0|3:0|3:0,0:0:0:0:
177,140,231933,1,8,0:0:0:0:
198,143,232009,1,8,0:0:0:0:
220,147,232086,1,8,0:0:0:0:
242,150,232163,1,8,0:0:0:0:
263,154,232241,38,0,L|388:144,1,120,6|0,0:0|0:0,0:0:0:0:
472,168,232548,2,0,P|487:204|480:242,1,80,8|0,0:0|0:0,0:0:0:0:
360,336,232856,1,2,0:0:0:0:
220,256,233010,2,0,L|299:250,1,80,0|2,0:0|0:0,0:0:0:0:
176,187,233318,38,0,P|136:252|170:321,1,160,8|2,0:0|0:0,0:0:0:0:
324,228,233779,2,0,L|318:148,1,80,8|0,0:0|0:0,0:0:0:0:
308,68,234010,1,8,0:0:0:0:
308,68,234087,1,2,0:0:0:0:
440,160,234241,1,2,0:0:0:0:
370,287,234394,2,0,P|333:302|294:297,1,80,8|0,0:0|0:0,0:0:0:0:
132,168,234702,38,0,B|180:144|180:144|285:159,1,160,2|8,0:0|0:0,0:0:0:0:
370,287,235164,1,0,0:0:0:0:
370,287,235241,1,8,0:0:0:0:
370,287,235318,1,2,0:0:0:0:
212,316,235471,2,0,L|196:228,1,80,0|2,0:0|0:0,0:0:0:0:
402,109,235779,38,0,L|388:188,1,80,8|0,0:0|0:0,0:0:0:0:
176,112,236087,1,2,0:0:0:0:
292,216,236241,1,8,0:0:0:0:
180,312,236394,1,0,0:0:0:0:
180,312,236471,1,8,0:0:0:0:
180,312,236548,2,0,L|96:300,1,80,2|0,0:0|0:0,0:0:0:0:
28,188,236856,1,8,0:0:0:0:
228,144,237010,1,0,0:0:0:0:
108,63,237164,38,0,B|92:112|92:112|110:218,1,160,6|8,0:0|0:0,0:0:0:0:
256,280,237625,1,0,0:0:0:0:
256,280,237702,1,8,0:0:0:0:
256,280,237779,2,0,P|300:272|352:272,1,80,2|0,0:0|0:0,0:0:0:0:
444,168,238087,1,2,0:0:0:0:
308,52,238241,38,0,P|260:111|288:182,1,160,8|2,0:0|0:0,0:0:0:0:
420,279,238702,2,0,P|409:317|381:344,1,80,8|0,0:0|0:0,0:0:0:0:
284,368,239010,2,0,L|233:355,2,53.3333333333333,2|0|0,0:0|0:0|0:0,0:0:0:0:
282,279,239318,2,0,L|335:270,2,53.3333333333333,8|0|0,0:0|0:0|0:0,0:0:0:0:
156,248,239625,38,0,B|144:208|144:208|152:160|152:160|130:93,1,160,6|8,0:0|0:0,0:0:0:0:
12,288,240087,1,0,0:0:0:0:
12,288,240164,1,8,0:0:0:0:
12,288,240241,2,0,P|46:307|85:307,1,80,2|2,0:0|0:0,0:0:0:0:
252,272,240548,1,0,0:0:0:0:
207,111,240702,38,0,P|134:92|81:147,1,160,8|2,0:0|0:0,0:0:0:0:
113,286,241164,2,0,L|132:364,1,80,8|0,0:0|0:0,0:0:0:0:
300,355,241471,1,2,0:0:0:0:
318,332,241547,1,0,0:0:0:0:
328,304,241624,1,2,0:0:0:0:
330,274,241701,1,0,0:0:0:0:
323,245,241779,2,0,L|308:196,1,40,8|0,0:0|0:0,0:0:0:0:
232,132,241933,2,0,L|247:82,1,40,0|0,3:0|0:0,0:0:0:0:
