osu file format v14

[General]
AudioFilename: Fuuka.mp3
AudioLeadIn: 2000
PreviewTime: 58556
Countdown: 0
SampleSet: Normal
StackLeniency: 0.5
Mode: 0
LetterboxInBreaks: 0
WidescreenStoryboard: 1

[Editor]
DistanceSpacing: 0.95
BeatDivisor: 4
GridSize: 4
TimelineZoom: 1.9

[Metadata]
Title:Climber's High!
TitleUnicode:Climber's High!
Artist:Manami Numakura
ArtistUnicode:沼倉愛美
Creator:Zero__wind
Version:Normal
Source:風夏
Tags:秋月風夏 ふうか Akitsuki Fuuka full version Frey
BeatmapID:1232069
BeatmapSetID:574214

[Difficulty]
HPDrainRate:4
CircleSize:3.5
OverallDifficulty:4
ApproachRate:5.2
SliderMultiplier:1
SliderTickRate:1

[Events]
//Background and Video events
0,0,"bg.jpg",0,0
//Break Periods
2,81130,90486
2,204650,208475
//Storyboard Layer 0 (Background)
//Storyboard Layer 1 (Fail)
//Storyboard Layer 2 (Pass)
//Storyboard Layer 3 (Foreground)
//Storyboard Sound Samples

[TimingPoints]
651.237860202028,335.195530726257,4,2,1,60,1,0
4841,-100,4,1,1,60,0,0
5846,-100,4,1,1,70,0,0
16573,-100,4,1,1,60,0,0
37690,-100,4,1,1,70,0,0
48919,-100,4,1,1,60,0,0
53779,-100,4,1,1,70,0,0
56964,-100,4,2,1,60,0,0
59478,-100,4,1,1,70,0,1
70371,-100,4,1,1,80,0,0
70707,-100,4,1,1,70,0,1
80930,-100,4,1,1,70,0,0
91656,-100,4,1,1,60,0,0
113276,-100,4,1,1,50,0,0
124003,-100,4,1,1,60,0,0
129366,-100,4,1,1,70,0,0
132047,-100,4,2,1,50,0,0
132550,-100,4,2,1,60,0,0
133556,-100,4,1,1,60,0,0
134561,-100,4,1,1,70,0,1
145455,-100,4,1,1,80,0,0
145790,-100,4,1,1,70,0,1
156181,-100,4,1,1,60,0,0
177634,-100,4,1,1,70,0,0
188360,-100,4,1,1,60,0,0
193388,-100,4,1,1,70,0,0
201768,-100,4,1,1,60,0,0
202271,-100,4,1,1,55,0,0
202774,-100,4,1,1,50,0,0
203276,-100,4,1,1,45,0,0
203779,-100,4,1,1,40,0,0
204450,-100,4,2,1,40,0,0
209645,-100,4,1,1,50,0,0
213835,-100,4,1,1,60,0,0
215176,-100,4,1,1,80,0,0
215511,-100,4,1,1,70,0,1
225735,-100,4,1,1,70,0,0
236461,-100,4,1,1,50,0,0
237466,-100,4,1,1,40,0,0
238137,-100,4,1,1,30,0,0
238304,-100,4,1,1,20,0,0
238388,-100,4,1,1,10,0,0

[Colours]
Combo1 : 159,151,198
Combo2 : 254,41,57
Combo3 : 94,172,221
Combo4 : 226,118,18

[HitObjects]
200,308,651,6,0,L|300:312,1,100,2|2,0:0|0:0,0:0:0:0:
312,216,1321,2,0,L|212:212,1,100,2|2,0:0|2:0,0:0:0:0:
124,248,1992,2,0,L|108:296,2,50,8|0|0,1:0|1:0|1:0,0:0:0:0:
128,200,2494,1,8,3:0:0:0:
108,108,2830,2,0,L|92:60,2,50,4|8|4,3:0|3:0|3:0,0:0:0:0:
156,120,3332,6,0,L|256:124,1,100,2|2,0:0|0:0,0:0:0:0:
268,28,4002,2,0,L|168:24,1,100,2|2,0:0|0:0,0:0:0:0:
120,24,4505,1,0,1:0:0:0:
48,92,4841,2,0,L|0:120,2,50,0|8|0,0:0|0:0|0:0,0:0:0:0:
96,100,5343,2,2,P|142:124|151:169,1,100,8|8,3:0|0:0,0:0:0:0:
144,216,5846,6,2,B|100:232|100:232|32:224,1,100,4|2,0:0|0:0,0:0:0:0:
0,216,6349,1,8,0:0:0:0:
24,308,6684,2,0,L|84:316,1,50,0|2,0:0|0:0,0:0:0:0:
122,312,7019,1,8,0:0:0:0:
168,300,7187,2,2,L|272:264,1,100,6|0,0:0|0:0,0:0:0:0:
308,252,7690,1,10,0:0:0:0:
404,252,8025,2,0,L|452:272,2,50,2|0|8,0:0|0:0|0:0,0:0:0:0:
376,212,8528,6,2,P|368:168|408:128,1,100,4|0,0:0|0:0,0:0:0:0:
440,100,9031,1,10,0:0:0:0:
352,64,9366,2,0,L|240:64,1,100,0|8,0:0|0:0,0:0:0:0:
207,80,9869,2,2,B|183:108|183:108|176:180,1,100,6|0,0:0|0:0,0:0:0:0:
176,220,10371,1,10,0:0:0:0:
204,312,10707,2,0,P|229:332|256:336,2,50,0|0|8,0:0|0:0|0:0,0:0:0:0:
156,304,11209,6,2,L|48:312,1,100,4|0,0:0|0:0,0:0:0:0:
8,312,11712,1,10,0:0:0:0:
44,224,12047,2,0,L|48:164,1,50,0|2,0:0|0:0,0:0:0:0:
52,128,12383,1,8,0:0:0:0:
68,84,12550,2,2,B|92:64|92:64|164:68,1,100,6|2,0:0|0:0,0:0:0:0:
208,80,13053,2,0,P|232:128|212:176,1,100,8|0,0:0|0:0,0:0:0:0:
156,244,13723,1,10,0:0:0:0:
156,244,13891,6,2,L|272:248,1,100,6|0,0:0|0:0,0:0:0:0:
304,248,14394,1,10,0:0:0:0:
392,212,14729,1,10,0:0:0:0:
480,176,15064,2,0,L|532:152,1,50,10|0,0:0|0:0,0:0:0:0:
480,340,16573,6,0,P|436:368|380:360,1,100,4|0,0:0|0:0,0:0:0:0:
352,336,17075,1,8,0:0:0:0:
216,300,17578,2,0,L|116:316,2,100,0|0|0,0:0|0:0|0:0,0:0:0:0:
256,276,18416,2,0,B|268:228|268:228|252:176,1,100,8|0,0:0|0:0,0:0:0:0:
196,104,19086,1,8,0:0:0:0:
104,128,19422,6,0,L|54:136,1,50,0|0,0:0|0:0,0:0:0:0:
8,144,19757,1,8,0:0:0:0:
52,280,20260,2,0,L|40:380,2,100,0|0|0,0:0|0:0|0:0,0:0:0:0:
68,236,21098,2,0,B|116:224|116:224|172:236,1,100,8|0,0:0|0:0,0:0:0:0:
244,292,21768,1,8,0:0:0:0:
252,196,22103,6,0,L|256:136,1,50,0|0,0:0|0:0,0:0:0:0:
260,100,22438,1,8,0:0:0:0:
392,40,22941,2,0,L|500:56,2,100,0|0|0,0:0|0:0|0:0,0:0:0:0:
352,68,23779,2,0,B|336:116|336:116|352:176,1,100,8|0,0:0|0:0,0:0:0:0:
392,248,24450,1,8,0:0:0:0:
324,312,24785,6,0,L|264:300,1,50,0|0,0:0|0:0,0:0:0:0:
228,288,25120,1,8,0:0:0:0:
84,280,25623,2,0,L|44:372,2,100,0|0|0,0:0|0:0|0:0,0:0:0:0:
120,248,26461,2,0,B|124:200|124:200|96:152,1,100,8|0,0:0|0:0,0:0:0:0:
20,100,27131,1,8,0:0:0:0:
108,60,27466,6,0,L|208:68,1,100,0|10,0:0|0:0,0:0:0:0:
304,72,28137,2,0,L|404:64,1,100,0|0,0:0|0:0,0:0:0:0:
452,68,28640,2,0,P|484:108|476:160,1,100,10|2,0:0|0:0,0:0:0:0:
460,196,29142,1,8,0:0:0:0:
364,208,29478,2,0,L|314:212,2,50,0|0|8,0:0|0:0|0:0,0:0:0:0:
424,284,30148,6,0,P|436:331|418:377,1,100,2|8,0:0|0:0,0:0:0:0:
336,324,30818,2,0,L|236:332,1,100,0|0,0:0|0:0,0:0:0:0:
188,328,31321,2,0,L|88:320,1,100,10|2,0:0|0:0,0:0:0:0:
44,308,31824,1,8,0:0:0:0:
28,216,32159,2,0,L|32:164,2,50,0|0|8,0:0|0:0|0:0,0:0:0:0:
124,224,32830,6,0,L|173:219,1,50,2|2,0:0|0:0,0:0:0:0:
220,216,33165,2,0,L|269:211,1,50,10|2,0:0|0:0,0:0:0:0:
152,128,33835,2,0,L|201:123,1,50,2|10,0:0|0:0,0:0:0:0:
248,120,34170,2,0,L|297:115,1,50,2|2,0:0|0:0,0:0:0:0:
440,80,34841,2,0,L|435:129,1,50,8|8,0:0|3:0,0:0:0:0:
432,176,35176,2,0,L|427:225,1,50,4|4,3:0|3:0,0:0:0:0:
424,272,35511,6,0,P|380:293|332:280,1,100,4|0,0:0|0:0,0:0:0:0:
304,192,36181,2,0,P|232:160|172:196,1,150,8|8,0:0|0:0,0:0:0:0:
136,220,36852,2,0,L|129:271,2,50,0|8|0,0:0|0:0|0:0,0:0:0:0:
116,176,37355,1,4,0:2:0:0:
40,232,37690,2,0,L|33:283,1,50,8|8,0:0|0:0,0:0:0:0:
40,328,38025,1,8,0:0:0:0:
64,368,38193,6,0,P|113:382|156:364,1,100,6|8,0:0|0:0,0:0:0:0:
236,308,38863,2,0,L|288:328,2,50,0|0|8,0:0|0:0|0:0,0:0:0:0:
244,212,39533,2,0,L|348:251,1,100,2|8,0:0|0:0,0:0:0:0:
424,292,40204,2,0,P|432:324|428:340,2,50,0|0|8,0:0|0:0|0:0,0:0:0:0:
420,196,40874,6,0,P|432:144|472:116,1,100,2|8,0:0|0:0,0:0:0:0:
412,40,41545,2,0,P|360:55|316:34,1,100,0|8,0:0|0:0,0:0:0:0:
280,124,42215,1,2,0:0:0:0:
320,208,42550,1,8,0:0:0:0:
275,292,42885,2,0,P|253:302|228:304,2,50,0|0|8,0:0|0:0|0:0,0:0:0:0:
228,212,43556,6,0,L|124:200,1,100,2|8,0:0|0:0,0:0:0:0:
32,204,44226,2,0,L|32:260,2,50,0|0|8,0:0|0:0|0:0,0:0:0:0:
16,160,44729,2,0,P|24:116|64:80,1,100,2|0,0:0|0:0,0:0:0:0:
112,72,45232,1,8,0:0:0:0:
204,88,45567,2,0,L|252:100,2,50,0|0|8,0:0|0:0|0:0,0:0:0:0:
144,160,46237,6,0,L|132:224,1,50,2|0,0:0|0:0,0:0:0:0:
128,256,46573,1,10,0:0:0:0:
224,240,46908,1,0,0:0:0:0:
224,240,47075,2,0,L|328:256,1,100,0|8,0:0|0:0,0:0:0:0:
365,280,47578,1,2,0:0:0:0:
344,372,47913,1,10,0:0:0:0:
252,356,48249,2,0,L|136:364,1,100,0|8,0:0|3:0,0:0:0:0:
108,344,48751,1,4,3:0:0:0:
72,312,48919,6,0,P|50:269|57:220,2,100,4|0|0,0:0|0:0|0:0,0:0:0:0:
145,253,49924,2,0,L|197:237,1,50,0|8,0:0|0:0,0:0:0:0:
328,192,50595,2,0,L|432:208,1,100
504,264,51265,1,0,0:0:0:0:
480,356,51600,6,0,P|432:376|380:364,2,100,4|0|0,0:0|0:0|0:0,0:0:0:0:
504,264,52606,2,0,L|508:208,1,50,0|8,0:0|0:0,0:0:0:0:
476,76,53276,2,0,L|376:84,1,100,0|0,0:0|0:0,0:0:0:0:
332,72,53779,2,0,L|292:36,2,50,8|8|8,0:0|0:0|0:0,0:0:0:0:
344,116,54282,5,4,0:0:0:0:
320,208,54617,1,0,0:0:0:0:
236,252,54952,2,0,L|176:244,1,50,0|0,0:0|0:0,0:0:0:0:
140,236,55288,1,8,0:0:0:0:
48,220,55623,2,0,L|4:248,2,50,0|8|0,0:0|0:0|0:0,0:0:0:0:
72,180,56126,1,0,0:0:0:0:
96,140,56293,2,0,L|212:132,1,100,8|8,0:0|0:0,0:0:0:0:
280,176,56964,5,0,0:0:0:0:
280,176,59478,6,0,L|160:160,1,100,6|0,0:0|0:0,0:0:0:0:
136,156,59980,2,0,L|80:164,1,50,8|2,0:0|0:0,0:0:0:0:
48,252,60483,1,0,0:0:0:0:
93,259,60651,2,0,L|149:251,1,50,8|2,0:0|0:0,0:0:0:0:
180,162,61154,5,0,0:0:0:0:
136,156,61321,2,0,L|80:164,1,50,8|2,0:0|0:0,0:0:0:0:
80,68,61824,2,0,L|129:60,1,50,2|8,0:0|0:0,0:0:0:0:
172,66,62159,6,0,P|221:74|258:107,1,100,6|0,0:0|0:0,0:0:0:0:
272,200,62830,2,0,L|264:308,1,100,0|0,0:0|0:0,0:0:0:0:
280,344,63332,1,8,0:0:0:0:
320,372,63500,2,0,B|364:384|364:384|436:368,1,100,6|0,0:0|0:0,0:0:0:0:
456,344,64003,1,10,0:0:0:0:
472,252,64338,2,0,L|475:202,2,50,0|0|8,0:0|0:0|0:0,0:0:0:0:
428,264,64841,6,0,L|320:232,1,100,2|0,0:0|0:0,0:0:0:0:
292,208,65343,1,8,0:0:0:0:
252,124,65679,2,0,P|244:64|272:32,1,100,0|8,0:0|0:0,0:0:0:0:
308,16,66181,2,0,L|403:44,1,100,2|0,0:0|0:0,0:0:0:0:
444,68,66684,1,8,0:0:0:0:
452,164,67019,2,0,P|452:196|440:224,2,50,0|0|8,0:0|0:0|0:0,0:0:0:0:
412,140,67522,6,0,P|360:140|328:176,1,100,2|2,0:0|0:0,0:0:0:0:
304,213,68025,1,8,0:0:0:0:
284,308,68360,2,0,P|260:332|232:344,1,50,0|0,0:0|0:0,0:0:0:0:
200,344,68695,1,10,0:0:0:0:
152,340,68863,2,0,L|40:320,1,100,2|2,0:0|0:0,0:0:0:0:
8,304,69366,1,8,0:0:0:0:
0,208,69701,2,0,L|8:144,2,50,8|0|8,0:0|0:0|0:0,0:0:0:0:
92,224,70371,6,0,L|100:160,1,50,4|4,3:0|3:0,0:0:0:0:
116,128,70707,2,0,L|228:140,1,100,12|0,0:0|0:0,0:0:0:0:
260,152,71209,1,0,0:0:0:0:
296,184,71377,2,0,L|336:220,1,50,8|2,0:0|0:0,0:0:0:0:
412,164,71880,5,0,0:0:0:0:
376,132,72048,2,0,L|336:96,1,50,8|2,0:0|0:0,0:0:0:0:
420,48,72550,2,0,L|457:81,1,50,2|8,0:0|0:0,0:0:0:0:
492,112,72885,6,0,P|507:160|496:208,1,100,6|0,0:0|0:0,0:0:0:0:
452,292,73556,2,0,P|404:307|356:296,1,100,4|0,0:2|0:0,0:0:0:0:
320,268,74059,1,8,0:0:0:0:
272,264,74226,2,0,L|156:280,1,100,4|0,0:0|0:0,0:0:0:0:
124,284,74729,1,10,0:0:0:0:
32,304,75064,2,0,L|12:352,2,50,8|0|8,0:0|0:0|3:0,0:0:0:0:
76,220,75735,6,0,P|80:164|48:124,1,100,6|0,0:0|0:0,0:0:0:0:
27,91,76237,1,10,0:0:0:0:
76,84,76405,2,0,P|132:87|171:56,1,100,0|10,0:0|0:0,0:0:0:0:
256,36,77075,2,0,P|306:60|325:108,1,100,0|0,0:0|0:0,0:0:0:0:
343,142,77577,1,0,0:0:0:0:
373,103,77745,2,0,P|392:58|435:35,1,100,14|14,0:0|0:0,0:0:0:0:
467,127,78416,1,14,0:0:0:0:
400,304,79086,6,0,L|344:296,1,50,8|8,0:0|0:0,0:0:0:0:
304,288,79422,2,0,L|248:280,1,50,8|8,0:0|0:0,0:0:0:0:
160,280,79924,2,0,P|108:288|64:268,1,100,0|0,0:0|0:0,0:0:0:0:
64,220,80427,2,0,P|109:201|158:209,1,100,8|8,3:0|0:0,0:0:0:0:
192,244,80930,1,4,0:0:0:0:
324,324,91656,6,2,P|376:332|420:312,1,100,6|2,0:0|0:0,0:0:0:0:
436,268,92159,1,8,0:0:0:0:
436,172,92494,2,0,L|432:116,2,50,2|0|8,0:0|0:0|0:0,0:0:0:0:
340,176,93165,2,0,L|336:120,2,50,2|0|8,0:0|0:0|0:0,0:0:0:0:
324,220,93667,2,0,B|288:228|288:228|220:204,1,100,2|0,0:0|0:0,0:0:0:0:
144,160,94338,6,2,L|44:172,1,100
0,188,94841,1,8,0:0:0:0:
24,280,95176,2,0,L|16:340,2,50,2|0|8,0:0|0:0|0:0,0:0:0:0:
64,256,95679,2,0,L|164:268,1,100,2|0,0:0|0:0,0:0:0:0:
208,278,96181,1,8,0:0:0:0:
305,296,96517,2,0,L|345:328,2,50,0|0|8,0:0|0:0|0:0,0:0:0:0:
286,253,97019,6,2,P|282:205|318:165,1,100,6|2,0:0|0:0,0:0:0:0:
352,140,97522,1,8,0:0:0:0:
448,132,97857,2,0,L|504:148,2,50,2|0|8,0:0|0:0|0:0,0:0:0:0:
460,36,98528,2,0,L|516:52,2,50,2|0|8,0:0|0:0|0:0,0:0:0:0:
412,24,99031,2,0,L|312:36,1,100,2|0,0:0|0:0,0:0:0:0:
220,48,99701,6,2,P|188:96|204:148,1,100,6|0,0:0|0:0,0:0:0:0:
220,176,100204,1,8,0:0:0:0:
316,180,100539,2,0,L|416:168,1,100,8|8,0:0|0:0,0:0:0:0:
416,120,101042,2,0,L|316:108,1,100,2|0,0:0|0:0,0:0:0:0:
284,144,101545,1,8,0:0:0:0:
236,228,101880,2,0,L|228:292,1,50,8|0,0:0|0:0,0:0:0:0:
184,296,102215,2,0,L|176:360,1,50,10|8,0:0|0:0,0:0:0:0:
132,364,102550,5,6,0:0:0:0:
40,344,102885,1,8,0:0:0:0:
92,264,103221,1,2,0:0:0:0:
0,244,103556,1,0,0:0:0:0:
0,244,103723,2,0,P|-16:192|8:148,2,100,10|10|0,0:0|0:0|0:0,0:0:0:0:
36,272,104561,2,0,P|84:280|128:256,1,100,10|0,0:0|0:0,0:0:0:0:
160,168,105232,5,6,0:0:0:0:
172,72,105567,1,0,0:0:0:0:
260,112,105902,1,2,0:0:0:0:
272,16,106237,1,0,0:0:0:0:
272,16,106405,2,0,L|376:28,2,100,2|2|8,0:0|0:0|0:0,0:0:0:0:
224,12,107243,2,0,L|124:23,1,100,0|0,0:0|0:0,0:0:0:0:
32,48,107913,5,6,0:0:0:0:
0,140,108249,1,8,0:0:0:0:
88,176,108584,1,2,0:0:0:0:
56,268,108920,1,0,0:0:0:0:
56,268,109086,2,0,P|108:288|164:264,2,100,2|2|8,0:0|0:0|0:0,0:0:0:0:
35,224,109924,2,0,P|27:172|55:132,1,100,0|8,0:0|0:0,0:0:0:0:
140,92,110595,5,6,0:0:0:0:
228,128,110930,1,8,0:0:0:0:
316,92,111265,1,0,0:0:0:0:
404,128,111600,1,8,0:0:0:0:
404,128,111768,2,0,P|424:188|412:224,1,100,6|0,0:0|0:0,0:0:0:0:
388,260,112271,1,8,0:0:0:0:
296,276,112606,2,0,L|228:260,2,50,0|8|8,0:0|0:0|0:0,0:0:0:0:
276,368,113276,6,0,L|167:342,1,100,4|0,0:0|0:0,0:0:0:0:
136,260,113947,2,0,L|212:178,1,100,0|0,0:0|0:0,0:0:0:0:
299,192,114617,2,0,L|331:299,2,100,0|0|0,0:0|0:0|0:0,0:0:0:0:
276,100,115623,1,0,0:0:0:0:
328,20,115958,6,0,P|376:0|428:12,1,100,0|0,0:0|0:0,0:0:0:0:
501,61,116628,2,0,P|521:109|509:161,1,100,0|0,0:0|0:0,0:0:0:0:
460,234,117298,2,0,P|412:254|360:242,1,100,0|0,0:0|0:0,0:0:0:0:
287,193,117969,2,0,P|267:145|279:93,1,100,0|0,0:0|0:0,0:0:0:0:
328,20,118640,6,0,L|432:36,2,100,4|0|0,0:0|0:0|0:0,0:0:0:0:
232,12,119645,1,0,0:0:0:0:
136,20,119980,2,0,L|32:36,2,100,0|0|0,0:0|0:0|0:0,0:0:0:0:
232,12,120986,2,0,L|232:68,1,50,0|0,0:0|2:0,0:0:0:0:
232,108,121321,5,0,0:0:0:0:
216,200,121656,2,0,P|172:236|124:236,1,100,0|0,0:0|0:0,0:0:0:0:
44,204,122327,1,0,0:0:0:0:
60,112,122662,2,0,P|104:76|152:76,1,100,0|0,0:0|0:0,0:0:0:0:
232,108,123332,1,0,0:0:0:0:
320,148,123667,2,0,L|372:176,1,50,4|4,3:0|3:0,0:0:0:0:
400,204,124003,6,0,P|412:260|388:308,2,100,4|0|8,0:0|0:0|0:0,0:0:0:0:
320,148,125008,2,0,L|264:156,1,50,0|8,0:0|0:0,0:0:0:0:
180,180,125511,2,0,L|161:226,2,50,8|0|0,0:0|0:0|2:0,0:0:0:0:
192,132,126014,2,0,L|130:53,1,100,8|0,0:0|0:0,0:0:0:0:
40,20,126684,6,0,P|0:52|0:112,2,100,4|0|0,0:0|0:0|0:0,0:0:0:0:
136,16,127690,2,0,L|188:24,1,50,0|2,0:0|0:2,0:0:0:0:
276,52,128193,2,0,L|295:101,2,50,0|0|8,0:0|0:0|0:0,0:0:0:0:
292,8,128695,1,0,0:0:0:0:
388,12,129031,2,0,L|437:18,1,50,0|8,0:0|0:0,0:0:0:0:
480,40,129366,6,0,P|504:88|484:136,1,100,4|0,0:0|0:0,0:0:0:0:
463,168,129869,1,8,0:0:0:0:
420,188,130036,2,0,L|316:168,1,100,0|8,0:0|0:0,0:0:0:0:
228,152,130707,2,0,L|168:160,2,50,0|8|0,0:0|0:0|0:0,0:0:0:0:
260,240,131377,2,0,L|248:344,1,100,8|8,0:0|0:0,0:0:0:0:
208,364,131880,1,8,0:0:0:0:
162,375,132047,6,0,P|58:363|24:284,1,200,4|8,1:0|1:0,0:0:0:0:
36,192,133053,1,0,1:0:0:0:
36,192,133221,2,0,L|188:208,1,150,8|8,1:0|0:0,0:0:0:0:
280,220,134059,1,8,0:0:0:0:
376,232,134394,1,8,0:0:0:0:
375,232,134561,6,0,P|395:186|384:139,1,100,6|0,0:0|0:0,0:0:0:0:
348,108,135064,2,0,L|288:96,1,50,8|2,0:0|0:0,0:0:0:0:
213,138,135567,1,0,0:0:0:0:
249,169,135735,2,0,L|309:181,1,50,8|2,0:0|0:0,0:0:0:0:
384,139,136237,5,0,0:0:0:0:
348,108,136405,2,0,L|288:96,1,50,8|2,0:0|0:0,0:0:0:0:
208,72,136908,2,0,L|148:84,1,50,2|8,0:0|0:0,0:0:0:0:
116,100,137243,6,0,P|80:148|88:192,1,100,6|0,0:0|0:0,0:0:0:0:
16,248,137913,2,0,P|52:280|101:277,1,100,2|2,0:0|0:0,0:0:0:0:
145,257,138416,1,8,0:0:0:0:
184,229,138584,2,0,P|232:227|268:260,1,100,6|0,0:0|0:0,0:0:0:0:
285,305,139086,1,10,0:0:0:0:
201,353,139422,2,0,P|173:352|145:369,2,50,0|0|8,0:0|0:0|0:0,0:0:0:0:
245,373,139924,6,0,P|293:383|338:364,1,100,2|0,0:0|0:0,0:0:0:0:
365,324,140427,1,8,0:0:0:0:
376,228,140762,2,0,L|360:108,1,100,0|8,0:0|0:0,0:0:0:0:
348,84,141265,2,0,B|320:68|320:68|248:68,1,100,2|0,0:0|0:0,0:0:0:0:
204,72,141768,1,8,0:0:0:0:
108,84,142103,2,0,P|84:76|64:56,2,50,2|0|8,0:0|0:0|0:0,0:0:0:0:
140,120,142606,6,0,P|164:164|152:212,1,100,2|2,0:0|0:0,0:0:0:0:
124,248,143109,1,8,0:0:0:0:
59,315,143444,2,0,P|32:275|32:225,1,100,0|10,0:0|0:0,0:0:0:0:
41,177,143947,2,0,L|152:164,1,100,2|2,0:0|0:0,0:0:0:0:
188,160,144450,1,8,0:0:0:0:
284,172,144785,2,0,L|332:184,2,50,8|0|8,0:0|0:0|0:0,0:0:0:0:
312,80,145455,6,0,L|360:92,1,50,4|4,3:0|3:0,0:0:0:0:
404,107,145790,2,0,P|431:149|434:198,1,100,12|0,0:0|0:0,0:0:0:0:
416,244,146293,1,0,0:0:0:0:
380,275,146461,2,0,P|358:286|333:288,1,50,8|2,0:0|0:0,0:0:0:0:
256,236,146964,5,0,0:0:0:0:
291,204,147132,2,0,P|313:192|338:190,1,50,8|2,0:0|0:0,0:0:0:0:
432,184,147634,2,0,P|452:169|466:149,1,50,2|8,0:0|0:0,0:0:0:0:
480,104,147969,6,0,L|392:40,1,100,6|0,0:0|0:0,0:0:0:0:
303,45,148640,2,0,L|222:103,1,100,4|0,0:2|0:0,0:0:0:0:
192,140,149142,1,8,0:0:0:0:
176,184,149310,2,0,P|192:228|236:252,1,100,4|0,0:0|0:0,0:0:0:0:
284,248,149813,1,10,0:0:0:0:
376,232,150148,2,0,L|440:240,2,50,0|0|8,0:0|0:0|0:0,0:0:0:0:
328,316,150818,6,0,L|443:330,1,100,14|0,0:0|0:0,0:0:0:0:
476,320,151321,1,10,0:0:0:0:
512,287,151489,2,0,P|524:240|512:191,1,100,0|10,0:0|0:0,0:0:0:0:
456,116,152159,2,0,L|340:101,1,100,0|0,0:0|0:0,0:0:0:0:
308,112,152662,1,0,0:0:0:0:
271,144,152830,2,0,P|258:191|270:240,1,100,14|14,0:0|0:0,0:0:0:0:
328,316,153500,1,14,0:0:0:0:
144,360,154170,6,0,L|76:348,1,50,8|8,0:0|0:0,0:0:0:0:
56,324,154505,2,0,L|-12:312,1,50,8|8,0:0|0:0,0:0:0:0:
6,220,155008,2,0,L|104:202,1,100
152,200,155511,1,8,0:0:0:0:
244,216,155846,1,8,0:0:0:0:
336,244,156181,6,0,P|400:228|368:164,1,150,4|0,0:0|0:0,0:0:0:0:
240,116,157187,2,0,P|176:132|208:196,1,150,0|8,0:0|0:0,0:0:0:0:
272,316,158193,2,0,P|316:344|376:348,1,100,8|0,0:0|0:0,0:0:0:0:
456,344,158863,6,0,P|512:284|512:216,1,150,4|0,0:0|0:0,0:0:0:0:
404,128,159869,2,0,P|348:188|348:256,1,150,0|8,0:0|0:0,0:0:0:0:
288,380,160874,2,0,L|172:360,1,100,8|0,0:0|0:0,0:0:0:0:
96,356,161545,6,0,B|40:312|40:312|24:224,1,150,4|0,0:0|0:0,0:0:0:0:
100,112,162550,2,0,B|156:156|156:156|170:233,1,150,0|8,0:0|0:0,0:0:0:0:
312,224,163556,2,0,L|292:116,1,100,8|0,0:0|0:0,0:0:0:0:
308,32,164226,6,0,P|404:16|464:100,1,200,4|8,0:0|0:0,0:0:0:0:
444,232,165399,2,0,L|416:328,2,100,0|8|0,0:0|0:0|0:0,0:0:0:0:
460,188,166237,2,0,B|496:184|496:184|528:162,2,75,8|8|8,3:0|3:0|0:0,0:0:0:0:
414,197,166908,6,0,L|304:184,1,100,4|8,0:0|0:0,0:0:0:0:
272,164,167411,2,0,P|248:112|264:60,1,100,0|0,0:0|0:0,0:0:0:0:
280,32,167913,2,0,L|390:45,1,100,8|0,0:0|0:0,0:0:0:0:
422,65,168416,2,0,P|442:94|442:125,1,50,0|8,0:0|0:0,0:0:0:0:
428,200,168919,2,0,L|408:256,2,50,0|0|8,0:0|0:0|0:0,0:0:0:0:
348,152,169589,6,0,L|308:264,1,100,0|8,0:0|0:0,0:0:0:0:
288,288,170092,2,0,P|228:308|180:288,1,100,0|0,0:0|0:0,0:0:0:0:
160,264,170595,2,0,L|200:152,1,100,8|0,0:0|0:0,0:0:0:0:
220,128,171098,2,0,P|249:112|272:110,1,50,0|8,0:0|0:0,0:0:0:0:
360,100,171600,2,0,L|412:112,2,50,0|0|8,0:0|0:0|0:0,0:0:0:0:
308,20,172271,6,0,P|254:11|196:36,1,100,12|0,0:0|0:0,0:0:0:0:
184,64,172774,2,0,L|150:158,1,100,8|0,0:0|0:0,0:0:0:0:
176,200,173276,2,0,P|230:209|288:184,1,100,12|8,0:0|0:0,0:0:0:0:
300,156,173779,2,0,L|333:61,1,100,0|8,0:0|0:0,0:0:0:0:
352,16,174282,1,0,0:0:0:0:
448,8,174617,1,8,0:0:0:0:
504,84,174952,6,0,L|471:179,2,100,8|0|8,0:0|0:0|0:0,0:0:0:0:
408,80,175958,1,8,0:0:0:0:
408,80,176126,2,0,L|375:175,1,100,8|0,0:0|0:0,0:0:0:0:
360,220,176628,1,8,0:0:0:0:
344,312,176964,1,8,3:0:0:0:
416,372,177299,2,0,P|444:380|464:376,1,50,8|8,0:0|0:0,0:0:0:0:
504,352,177634,6,0,P|536:284|500:220,1,150,6|8,0:0|0:0,0:0:0:0:
459,209,178304,2,0,L|347:221,1,100,0|0,0:0|0:0,0:0:0:0:
312,224,178807,1,10,0:0:0:0:
216,220,179142,2,0,P|164:240|144:292,1,100,10|8,0:0|0:0,0:0:0:0:
144,324,179645,2,0,L|148:380,2,50,0|8|0,0:0|0:0|0:0,0:0:0:0:
64,376,180316,6,0,L|53:226,1,150,2|8,0:0|0:0,0:0:0:0:
56,180,180986,2,0,P|88:132|128:128,1,100,0|0,0:0|0:0,0:0:0:0:
172,136,181489,1,10,0:0:0:0:
259,175,181824,2,0,P|307:188|355:175,1,100,10|8,0:0|0:0,0:0:0:0:
388,143,182327,2,0,P|399:122|400:97,2,50,0|8|0,0:0|0:0|0:0,0:0:0:0:
307,96,182997,6,0,P|329:27|398:3,1,150,2|8,0:0|0:0,0:0:0:0:
444,16,183667,2,0,P|481:47|491:96,1,100
483,141,184170,1,10,0:0:0:0:
420,212,184505,2,0,L|316:192,1,100,10|8,0:0|0:0,0:0:0:0:
276,188,185008,2,0,L|220:196,2,50,0|8|0,0:0|0:0|0:0,0:0:0:0:
304,280,185679,6,0,L|192:296,2,100,2|0|2,0:0|0:0|0:0,0:0:0:0:
396,256,186684,1,0,0:0:0:0:
396,256,186852,2,0,P|428:204|416:160,1,100,10|8,0:0|0:0,0:0:0:0:
396,128,187355,1,8,3:0:0:0:
304,100,187690,2,0,L|248:108,1,50,0|0,0:0|0:0,0:0:0:0:
212,88,188025,2,0,L|156:96,1,50,8|8,0:0|0:0,0:0:0:0:
120,76,188360,6,0,L|108:184,1,100,6|0,0:0|0:0,0:0:0:0:
24,220,189031,2,0,L|12:328,1,100,10|0,0:0|2:0,0:0:0:0:
12,368,189533,1,2,0:0:0:0:
108,376,189869,2,0,P|160:382|204:356,1,100,8|0,0:0|0:0,0:0:0:0:
216,316,190371,2,0,L|221:266,2,50,8|8|0,0:0|0:0|0:0,0:0:0:0:
303,347,191042,6,0,P|347:370|396:363,2,100,6|0|10,0:0|0:0|0:0,0:0:0:0:
364,276,192047,1,8,0:0:0:0:
364,276,192215,2,0,L|468:296,2,100,2|10|0,0:0|0:0|0:0,0:0:0:0:
324,252,193053,1,8,0:0:0:0:
296,160,193388,1,8,0:0:0:0:
320,68,193723,6,0,P|384:40|428:48,1,100,6|0,0:0|0:0,0:0:0:0:
476,112,194394,2,0,P|468:181|439:215,1,100,0|0,0:0|0:0,0:0:0:0:
408,224,194897,1,10,0:0:0:0:
312,220,195232,2,0,L|192:192,1,100,10|8,0:0|0:0,0:0:0:0:
120,192,195902,2,0,L|64:200,1,50,8|0,0:0|0:0,0:0:0:0:
32,228,196237,1,8,0:0:0:0:
24,276,196405,6,0,P|68:304|120:288,1,100,2|0,0:0|0:0,0:0:0:0:
200,255,197075,2,0,P|227:215|218:167,1,100,0|0,0:0|0:0,0:0:0:0:
196,124,197578,2,0,L|27:148,1,150,8|8,0:0|3:0,0:0:0:0:
32,240,198416,1,8,0:0:0:0:
16,334,198751,1,8,0:0:0:0:
104,372,199086,6,0,L|216:360,1,100,4|8,0:0|0:0,0:0:0:0:
248,352,199589,2,0,L|360:364,1,100,4|8,0:0|0:0,0:0:0:0:
396,356,200092,2,0,P|432:320|436:268,1,100,4|8,0:0|0:0,0:0:0:0:
420,228,200595,2,0,P|370:214|323:237,1,100,4|8,0:0|0:0,0:0:0:0:
297,271,201098,1,4,0:0:0:0:
212,312,201433,1,8,0:0:0:0:
128,268,201768,1,4,0:0:0:0:
256,192,201936,12,2,204450,0:0:0:0:
360,156,209645,6,0,L|350:259,1,100,4|0,0:0|0:0,0:0:0:0:
346,302,210148,1,0,0:0:0:0:
260,340,210483,1,8,0:0:0:0:
144,256,210986,2,0,L|153:152,1,100,0|8,0:0|0:0,0:0:0:0:
158,110,211489,1,0,0:0:0:0:
244,72,211824,1,8,0:0:0:0:
336,100,212159,1,8,0:0:0:0:
428,128,212494,6,0,B|440:192|440:192|428:220|428:220|440:276,2,150,0|0|0,0:0|0:0|0:0,0:0:0:0:
336,100,213835,1,8,3:0:0:0:
279,177,214170,1,4,3:0:0:0:
189,147,214505,1,8,0:0:0:0:
189,52,214840,1,8,0:0:0:0:
279,22,215176,6,0,L|332:16,1,50,4|4,3:0|3:0,0:0:0:0:
376,3,215511,2,0,P|424:0|466:25,1,100,12|0,0:0|0:0,0:0:0:0:
488,68,216014,1,0,0:0:0:0:
492,116,216181,2,0,L|488:180,1,50,8|2,0:0|0:0,0:0:0:0:
400,204,216684,5,0,0:0:0:0:
396,156,216851,2,0,L|400:92,1,50,8|2,0:0|0:0,0:0:0:0:
304,120,217355,2,0,L|300:169,1,50,2|8,0:0|0:0,0:0:0:0:
304,217,217690,6,0,P|321:259|362:292,1,100,6|0,0:0|0:0,0:0:0:0:
304,368,218360,2,0,P|259:361|209:380,1,100,4|0,0:2|0:0,0:0:0:0:
164,368,218863,1,8,0:0:0:0:
120,352,219031,2,0,L|24:308,1,100,4|0,0:0|0:0,0:0:0:0:
0,273,219533,1,10,0:0:0:0:
0,176,219869,2,0,L|8:112,2,50,0|0|8,0:0|0:0|0:0,0:0:0:0:
84,224,220539,6,0,L|188:212,1,100,14|0,0:0|0:0,0:0:0:0:
228,196,221042,1,10,0:0:0:0:
272,212,221209,2,0,L|372:224,1,100,0|10,0:0|0:0,0:0:0:0:
372,128,221880,2,0,L|268:116,1,100,0|0,0:0|0:0,0:0:0:0:
228,100,222383,1,0,0:0:0:0:
183,116,222550,2,0,L|83:127,1,100,14|14,0:0|0:0,0:0:0:0:
0,176,223221,1,14,0:0:0:0:
160,292,223891,6,0,L|208:308,1,50,8|8,0:0|0:0,0:0:0:0:
252,296,224226,2,0,L|300:312,1,50,8|8,0:0|0:0,0:0:0:0:
396,304,224729,2,0,P|428:264|412:208,1,100,0|8,0:0|0:0,0:0:0:0:
403,174,225232,2,0,L|299:186,1,100,8|8,3:0|0:0,0:0:0:0:
256,192,225735,6,2,L|152:180,1,100,4|2,0:0|0:0,0:0:0:0:
112,160,226237,1,8,0:0:0:0:
108,64,226573,2,0,L|112:8,2,50,0|2|8,0:0|0:0|0:0,0:0:0:0:
156,72,227075,2,2,L|255:60,1,100,6|0,0:0|0:0,0:0:0:0:
304,56,227578,1,8,0:0:0:0:
396,80,227913,2,0,P|424:88|440:100,2,50,2|0|8,0:0|0:0|0:0,0:0:0:0:
360,112,228416,6,2,P|336:176|352:212,1,100,4|0,0:0|0:0,0:0:0:0:
372,244,228919,1,10,0:0:0:0:
316,320,229254,2,0,P|272:300|220:308,1,100,0|8,0:0|0:0,0:0:0:0:
188,340,229757,2,2,P|144:360|92:352,1,100,6|0,0:0|0:0,0:0:0:0:
60,320,230260,1,10,0:0:0:0:
68,224,230595,2,0,P|87:211|104:184,2,50,0|0|8,0:0|0:0|0:0,0:0:0:0:
20,224,231098,6,2,P|0:176|24:116,1,100,4|0,0:0|0:0,0:0:0:0:
36,92,231600,1,10,0:0:0:0:
132,88,231936,2,0,L|184:96,1,50,0|2,0:0|0:0,0:0:0:0:
228,104,232271,1,8,0:0:0:0:
272,120,232438,2,2,P|304:164|300:212,1,100,6|2,0:0|0:0,0:0:0:0:
284,252,232941,2,0,P|233:271|187:255,1,100,8|0,0:0|0:0,0:0:0:0:
104,224,233612,1,8,0:0:0:0:
104,224,233779,6,2,L|91:327,1,100,6|2,0:0|0:0,0:0:0:0:
85,370,234282,1,10,0:0:0:0:
180,354,234617,2,0,L|186:298,1,50,10|2,0:0|0:0,0:0:0:0:
191,258,234952,2,0,L|198:194,1,50,10|10,0:0|0:0,0:0:0:0:
203,163,235288,5,4,0:0:0:0:
269,94,235623,1,10,0:0:0:0:
269,94,235790,1,4,0:0:0:0:
294,185,236126,1,10,0:0:0:0:
294,185,236293,1,4,0:0:0:0:
256,192,236461,12,0,238388,2:0:0:0:
