osu file format v14

[General]
AudioFilename: Fuuka.mp3
AudioLeadIn: 2000
PreviewTime: 58556
Countdown: 0
SampleSet: Soft
StackLeniency: 0.5
Mode: 0
LetterboxInBreaks: 0
WidescreenStoryboard: 1

[Editor]
DistanceSpacing: 1.3
BeatDivisor: 4
GridSize: 4
TimelineZoom: 1.9

[Metadata]
Title:Climber's High!
TitleUnicode:Climber's High!
Artist:Manami Numakura
ArtistUnicode:沼倉愛美
Creator:Zero__wind
Version:Hard
Source:風夏
Tags:秋月風夏 ふうか Akitsuki Fuuka full version Frey
BeatmapID:1230232
BeatmapSetID:574214

[Difficulty]
HPDrainRate:5
CircleSize:4
OverallDifficulty:6
ApproachRate:7.8
SliderMultiplier:1.3
SliderTickRate:2

[Events]
//Background and Video events
0,0,"bg.jpg",0,0
//Break Periods
2,81130,90877
2,204650,208866
//Storyboard Layer 0 (Background)
//Storyboard Layer 1 (Fail)
//Storyboard Layer 2 (Pass)
//Storyboard Layer 3 (Foreground)
//Storyboard Sound Samples

[TimingPoints]
651.237860202028,335.195530726257,4,1,1,60,1,0
652,-125,4,2,1,60,0,0
4841,-100,4,1,1,60,0,0
5846,-100,4,1,1,70,0,0
15399,-200,4,2,1,60,0,0
15483,-200,4,2,1,10,0,0
16573,-125,4,1,1,60,0,0
27466,-100,4,1,1,60,0,0
35511,-125,4,1,1,60,0,0
37690,-100,4,1,1,70,0,0
48919,-125,4,1,1,60,0,0
53779,-100,4,1,1,70,0,0
56964,-200,4,2,1,60,0,0
57047,-200,4,2,1,10,0,0
57634,-200,4,2,1,30,0,0
57969,-200,4,2,1,35,0,0
58304,-200,4,2,1,40,0,0
58640,-200,4,2,1,45,0,0
58975,-200,4,2,1,50,0,0
59310,-200,4,2,1,55,0,0
59478,-100,4,1,1,70,0,1
70371,-125,4,1,1,80,0,0
70707,-83.3333333333333,4,1,1,70,0,1
71042,-100,4,1,1,70,0,1
80930,-100,4,1,1,70,0,0
91656,-100,4,1,1,60,0,0
113276,-125,4,1,1,50,0,0
118472,-125,4,1,1,60,0,0
118640,-125,4,1,1,50,0,0
124003,-125,4,1,1,60,0,0
129366,-100,4,1,1,70,0,0
132047,-125,4,2,1,50,0,0
132550,-125,4,2,1,60,0,0
133556,-100,4,1,1,60,0,0
134561,-100,4,1,1,70,0,1
145455,-125,4,1,1,80,0,0
145790,-83.3333333333333,4,1,1,70,0,1
146126,-100,4,1,1,70,0,1
156181,-125,4,1,1,60,0,0
166908,-100,4,1,1,60,0,0
177634,-100,4,1,1,70,0,0
188360,-125,4,1,1,60,0,0
193053,-100,4,1,1,60,0,0
193388,-100,4,1,1,70,0,0
201768,-100,4,1,1,60,0,0
202271,-100,4,1,1,55,0,0
202774,-100,4,1,1,50,0,0
203276,-100,4,1,1,45,0,0
203779,-100,4,1,1,40,0,0
204450,-125,4,2,1,40,0,0
209645,-125,4,1,1,50,0,0
213835,-100,4,1,1,60,0,0
215176,-125,4,1,1,80,0,0
215511,-83.3333333333333,4,1,1,70,0,1
215846,-100,4,1,1,70,0,1
225735,-100,4,1,1,70,0,0
236377,-100,4,1,1,50,0,0
237466,-100,4,1,1,40,0,0
238137,-100,4,1,1,30,0,0
238304,-100,4,1,1,20,0,0
238388,-100,4,1,1,10,0,0

[Colours]
Combo1 : 159,151,198
Combo2 : 254,41,57
Combo3 : 94,172,221
Combo4 : 226,118,18

[HitObjects]
268,348,652,6,0,L|320:352,1,52,2|2,0:0|0:0,0:0:0:0:
188,384,986,2,0,L|136:380,2,52,2|2|2,0:0|0:0|0:0,0:0:0:0:
224,280,1489,2,0,L|228:228,2,52,2|2|0,2:0|2:0|1:0,0:0:0:0:
233,289,1908,1,0,1:0:0:0:
242,298,1992,5,8,1:0:0:0:
316,344,2159,2,0,L|372:372,2,52,0|0|8,1:0|1:0|3:0,0:0:0:0:
320,256,2662,1,4,3:0:0:0:
394,210,2829,2,0,L|450:182,2,52,4|8|4,3:0|3:0|3:0,0:0:0:0:
332,144,3332,6,0,L|280:140,1,52,2|2,0:0|0:0,0:0:0:0:
412,108,3667,2,0,L|464:112,2,52,2|2|2,0:0|0:0|0:0,0:0:0:0:
324,52,4170,2,0,L|328:0,1,52,2|2,0:0|0:0,0:0:0:0:
327,0,4505,1,0,1:0:0:0:
463,111,4841,5,0,0:0:0:0:
472,196,5008,2,0,L|467:259,1,65,8|0,0:0|0:0,0:0:0:0:
364,284,5343,1,8,3:0:0:0:
352,296,5427,1,8,3:0:0:0:
340,308,5511,2,0,L|344:348,2,32.5,4|4|8,3:0|3:0|0:0,0:0:0:0:
268,228,5846,6,2,B|230:228|230:228|198:255|141:251,1,130,4|2,0:0|0:0,0:0:0:0:
68,208,6349,2,0,L|72:124,1,65,8|0,0:0|2:0,0:0:0:0:
124,72,6684,1,0,0:0:0:0:
124,72,6852,1,2,0:0:0:0:
164,148,7019,1,8,0:0:0:0:
232,92,7187,6,2,B|256:84|256:84|284:92|284:92|316:72|368:84,1,130,6|0,0:0|0:0,0:0:0:0:
436,120,7690,2,0,L|420:188,1,65,10|0,0:0|2:0,0:0:0:0:
316,224,8025,2,0,L|330:160,1,65,2|0,0:0|0:0,0:0:0:0:
396,264,8360,1,8,0:0:0:0:
359,344,8528,6,2,P|296:360|241:325,1,130,4|0,0:0|0:0,0:0:0:0:
172,276,9031,2,0,L|148:368,1,65,10|0,0:0|2:0,0:0:0:0:
112,208,9366,1,0,0:0:0:0:
188,172,9533,2,0,L|264:184,1,65,2|8,0:0|0:0,0:0:0:0:
344,236,9869,6,2,P|408:224|408:168,1,130,6|0,0:0|0:0,0:0:0:0:
416,84,10371,2,0,L|351:73,1,65,10|0,0:0|2:0,0:0:0:0:
266,59,10707,1,0,0:0:0:0:
266,59,10874,1,0,0:0:0:0:
296,140,11042,1,8,0:0:0:0:
211,126,11209,6,2,B|176:128|176:128|128:116|128:116|80:128,1,130,4|0,0:0|0:0,0:0:0:0:
128,204,11712,2,0,B|160:212|160:212|204:208,1,65,10|2,0:0|2:1,0:0:0:0:
276,184,12047,1,0,0:0:0:0:
248,268,12215,2,0,L|248:352,1,65,2|8,0:0|0:0,0:0:0:0:
352,312,12550,6,2,L|508:324,1,130,6|2,0:0|0:0,0:0:0:0:
480,232,13053,1,8,0:0:0:0:
440,156,13221,2,0,L|447:91,1,65,2|0,2:1|0:0,0:0:0:0:
356,168,13556,2,0,L|348:232,1,65,2|10,0:0|0:0,0:0:0:0:
244,232,13891,6,2,B|252:164|252:164|220:108,1,130,6|0,0:0|0:0,0:0:0:0:
148,64,14394,2,0,L|80:48,1,65,10|0,0:0|0:0,0:0:0:0:
108,152,14729,2,0,L|40:136,1,65,10|0,0:0|0:0,0:0:0:0:
68,240,15064,2,0,L|0:224,1,65,10|0,0:0|0:0,0:0:0:0:
4,225,15399,6,0,P|60:293|135:242,1,195
203,186,16573,6,0,P|162:157|111:157,1,104,4|0,0:0|0:0,0:0:0:0:
214,269,17075,1,8,0:0:0:0:
214,269,17578,6,0,L|320:255,2,104,0|0|0,0:0|0:0|0:0,0:0:0:0:
134,243,18416,2,0,P|120:195|132:159,1,78,8|8,0:0|2:1,0:0:0:0:
146,151,18751,2,0,L|199:144,1,52
276,112,19086,2,0,L|282:163,1,52,8|0,0:0|0:0,0:0:0:0:
288,248,19422,6,0,L|281:299,1,52,0|0,0:0|0:0,0:0:0:0:
364,196,19757,1,8,0:0:0:0:
364,196,20260,6,0,P|412:180|444:128,2,104
296,144,21098,2,0,L|304:44,1,78,8|8,0:0|2:1,0:0:0:0:
300,40,21433,1,0,0:0:0:0:
222,12,21600,1,0,0:0:0:0:
152,56,21768,2,0,L|147:118,1,52,8|0,0:0|0:0,0:0:0:0:
148,192,22103,6,0,L|96:187,1,52
232,204,22438,1,8,0:0:0:0:
232,204,22941,6,0,L|240:308,2,104,0|0|0,0:0|0:0|0:0,0:0:0:0:
284,136,23779,2,0,P|340:116|364:120,1,78,8|8,0:0|2:1,0:0:0:0:
380,128,24114,2,0,L|432:156,1,52,0|0,0:0|0:0,0:0:0:0:
340,212,24450,2,0,L|418:254,1,78,8|8,0:0|2:1,0:0:0:0:
432,256,24785,6,0,L|496:240,1,52,0|0,0:0|0:0,0:0:0:0:
388,328,25120,1,8,0:0:0:0:
387,328,25623,6,0,P|342:351|293:339,2,104,0|0|0,0:0|0:0|0:0,0:0:0:0:
332,264,26461,2,0,L|236:272,1,78,8|8,0:0|2:1,0:0:0:0:
228,272,26796,1,0,0:0:0:0:
148,244,26964,1,0,0:0:0:0:
164,328,27131,2,0,L|156:392,1,52,8|0,0:0|0:0,0:0:0:0:
78,340,27466,5,0,0:0:0:0:
78,340,27634,1,2,0:0:0:0:
22,272,27802,2,0,L|150:244,1,130,10|0,0:0|0:0,0:0:0:0:
212,192,28304,2,0,P|228:152|224:124,1,65
304,104,28640,6,0,P|308:176|280:240,1,130,10|2,0:0|0:0,0:0:0:0:
292,316,29142,2,0,L|192:292,1,97.5,8|8,0:0|2:1,0:0:0:0:
172,284,29478,1,0,0:0:0:0:
92,312,29645,1,0,0:0:0:0:
116,212,29813,2,0,L|124:140,1,65,8|0,0:0|0:0,0:0:0:0:
108,44,30148,6,0,P|164:72|204:64,1,97.5,2|0,0:0|0:0,0:0:0:0:
208,44,30483,2,0,L|340:60,1,130,8|0,0:0|0:0,0:0:0:0:
424,68,30986,2,0,L|440:4,1,65,2|0,0:0|0:0,0:0:0:0:
496,120,31321,6,0,L|464:248,1,130,10|2,0:0|0:0,0:0:0:0:
436,328,31824,2,0,P|388:344|340:328,1,97.5,8|8,0:0|2:1,0:0:0:0:
328,312,32159,1,0,0:0:0:0:
244,332,32327,1,0,0:0:0:0:
272,232,32494,2,0,L|380:236,1,97.5,8|8,0:0|2:1,0:0:0:0:
380,212,32830,6,0,L|396:148,1,65,2|2,0:0|0:0,0:0:0:0:
420,68,33165,1,10,0:0:0:0:
336,64,33332,2,0,L|208:32,1,130,2|0,0:0|0:0,0:0:0:0:
124,40,33835,6,0,L|108:104,1,65,2|10,0:0|0:0,0:0:0:0:
84,184,34170,1,2,0:0:0:0:
168,188,34337,2,0,L|296:220,1,130,2|0,0:0|0:0,0:0:0:0:
380,212,34841,5,8,0:0:0:0:
380,212,35008,1,8,3:0:0:0:
360,292,35176,1,4,3:0:0:0:
360,292,35343,1,4,3:0:0:0:
320,364,35511,6,0,P|248:380|204:308,1,156,4|0,0:0|2:0,0:0:0:0:
260,232,36181,2,0,P|200:244|148:224,1,104,8|0,0:0|2:0,0:0:0:0:
96,172,36684,2,0,L|102:120,1,52,8|0,2:1|0:0,0:0:0:0:
160,231,37019,2,0,L|153:282,1,52,8|0,0:0|0:0,0:0:0:0:
208,144,37355,1,4,0:2:0:0:
208,144,37690,5,8,0:0:0:0:
290,166,37857,1,8,0:0:0:0:
349,103,38025,1,8,0:0:0:0:
267,81,38193,6,0,L|128:92,1,130,6|8,0:0|0:0,0:0:0:0:
52,100,38695,1,0,2:0:0:0:
23,184,38863,2,0,P|13:214|11:247,2,65,0|0|8,0:0|0:0|0:0,0:0:0:0:
96,232,39366,1,0,2:0:0:0:
172,192,39533,6,0,L|236:186,1,65,2|0,0:0|0:0,0:0:0:0:
168,280,39869,2,0,L|232:274,1,65,8|0,0:0|2:0,0:0:0:0:
316,252,40204,1,0,0:0:0:0:
364,184,40371,1,0,0:0:0:0:
368,100,40539,2,0,L|364:24,1,65,8|0,0:0|2:0,0:0:0:0:
464,88,40874,6,0,L|460:164,1,65,2|0,0:0|0:0,0:0:0:0:
452,240,41209,1,8,0:0:0:0:
452,240,41377,1,0,2:0:0:0:
380,288,41545,2,0,L|316:280,2,65,0|0|8,0:0|0:0|0:0,0:0:0:0:
456,328,42047,1,0,2:0:0:0:
384,376,42215,6,0,L|243:358,2,130,2|8|0,0:0|0:0|0:0,0:0:0:0:
456,327,43053,2,0,P|467:297|462:262,1,65,0|8,0:0|0:0,0:0:0:0:
444,160,43388,1,8,0:0:0:0:
444,160,43472,1,8,0:0:0:0:
444,160,43556,6,0,L|380:168,1,65,2|0,0:0|0:0,0:0:0:0:
316,228,43891,2,0,L|252:236,1,65,8|0,0:0|2:0,0:0:0:0:
171,271,44226,2,0,P|164:240|168:208,1,65,0|0,0:0|0:0,0:0:0:0:
244,320,44561,1,8,0:0:0:0:
176,372,44729,6,0,P|116:340|48:360,1,130,2|0,0:0|0:0,0:0:0:0:
4,288,45232,2,0,P|28:256|32:232,1,65,8|0,0:0|2:0,0:0:0:0:
0,152,45567,1,0,0:0:0:0:
0,152,45735,1,0,0:0:0:0:
84,164,45902,2,0,L|148:168,1,65,8|0,0:0|0:0,0:0:0:0:
232,164,46237,5,2,0:0:0:0:
280,96,46405,1,0,0:0:0:0:
220,36,46573,2,0,L|79:27,1,130,10|0,0:0|0:0,0:0:0:0:
12,64,47075,1,0,0:0:0:0:
28,148,47243,2,0,L|20:212,1,65,0|8,2:0|0:0,0:0:0:0:
104,192,47578,6,0,L|233:200,1,130,2|10,0:0|0:0,0:0:0:0:
308,152,48081,1,0,0:0:0:0:
308,152,48165,1,8,2:1:0:0:
308,152,48249,2,0,P|352:148|372:156,1,65,0|8,0:0|3:0,0:0:0:0:
436,208,48584,1,8,3:0:0:0:
448,292,48751,1,4,3:0:0:0:
404,364,48919,6,0,P|352:380|304:360,2,104,4|0|0,0:0|0:0|0:0,0:0:0:0:
488,212,49924,2,0,L|480:148,1,52,0|8,0:0|0:0,0:0:0:0:
332,76,50427,1,8,0:0:0:0:
332,76,50595,2,0,L|324:140,1,52,0|0,0:0|2:0,0:0:0:0:
312,212,50930,2,0,P|355:238|408:228,1,104,0|0,0:0|0:0,0:0:0:0:
312,212,51433,1,0,2:0:0:0:
228,256,51600,6,0,P|201:299|212:352,2,104,4|0|0,0:0|0:0|0:0,0:0:0:0:
400,288,52606,2,0,L|468:300,1,52,0|8,0:0|0:0,0:0:0:0:
400,128,53109,1,8,0:0:0:0:
400,128,53276,2,0,L|348:137,2,52,0|0|0,0:0|2:0|0:0,0:0:0:0:
476,88,53779,5,8,0:0:0:0:
456,4,53947,1,8,0:0:0:0:
380,44,54114,1,8,0:0:0:0:
380,44,54282,6,0,L|244:20,1,130,4|0,0:0|0:0,0:0:0:0:
164,16,54785,1,8,0:0:0:0:
88,52,54952,2,0,L|80:128,1,65,0|0,0:0|0:0,0:0:0:0:
80,204,55288,1,8,0:0:0:0:
164,188,55455,2,0,L|200:180,2,32.5,0|0|0,0:0|0:0|0:0,0:0:0:0:
112,284,55790,6,0,L|184:268,1,65,8|0,0:0|0:0,0:0:0:0:
256,244,56126,1,0,0:0:0:0:
340,240,56293,2,0,L|344:304,1,65,8|0,0:0|0:0,0:0:0:0:
432,200,56628,2,0,L|436:264,1,65,8|0,0:0|0:0,0:0:0:0:
400,358,56964,6,0,B|368:402|252:402|308:314|192:314|160:358,1,260,0|0,0:0|0:0,0:0:0:0:
164,353,58640,6,0,L|168:309,2,32.5,0|2|0,0:0|0:0|0:0,0:0:0:0:
80,356,59142,2,0,L|84:312,1,32.5,2|0,0:0|0:0,0:0:0:0:
132,232,59478,6,0,B|178:229|178:229|211:241|211:241|268:232,1,130,6|0,0:0|0:0,0:0:0:0:
344,252,59980,1,8,0:0:0:0:
412,196,60148,2,0,P|432:136|396:80,1,130,2|0,0:0|0:0,0:0:0:0:
324,36,60651,1,8,0:0:0:0:
248,80,60818,6,0,B|196:92|196:92|116:72,1,130,2|0,0:0|0:0,0:0:0:0:
36,64,61321,1,8,0:0:0:0:
96,152,61489,2,0,L|84:224,1,65,2|0,0:0|0:0,0:0:0:0:
12,324,61824,2,0,L|0:252,1,65,2|8,0:0|0:0,0:0:0:0:
144,272,62159,6,0,B|188:264|188:264|228:280|300:252,1,130,6|0,0:0|0:0,0:0:0:0:
312,184,62662,1,8,0:0:0:0:
251,121,62830,2,0,P|233:148|223:179,1,65,0|0,0:0|0:0,0:0:0:0:
200,268,63165,2,0,P|207:299|221:328,1,65,0|8,0:0|0:0,0:0:0:0:
312,352,63500,6,0,L|460:344,1,130,6|0,0:0|0:0,0:0:0:0:
504,256,64003,1,10,0:0:0:0:
420,260,64170,2,0,B|352:244,1,65,2|0,0:0|0:0,0:0:0:0:
276,272,64505,2,0,B|255:205,1,65,0|8,0:0|0:0,0:0:0:0:
192,132,64841,1,8,0:0:0:0:
192,132,64924,1,8,0:0:0:0:
192,132,65008,6,0,B|171:198,1,65,6|0,0:0|0:0,0:0:0:0:
106,117,65343,2,0,B|88:180,1,65,8|0,0:0|0:0,0:0:0:0:
20,102,65679,2,0,B|1:164,2,65,0|0|8,0:0|0:0|0:0,0:0:0:0:
80,20,66181,6,0,B|160:8|144:48|216:40,1,130,2|0,0:0|0:0,0:0:0:0:
292,24,66684,1,8,0:0:0:0:
376,0,66852,2,0,P|412:4|440:20,2,65,2|0|0,0:0|0:0|0:0,0:0:0:0:
304,48,67355,1,8,0:0:0:0:
300,132,67522,6,0,L|312:200,1,65,2|0,0:0|0:0,0:0:0:0:
400,192,67857,2,0,L|388:127,2,65,2|8|0,0:0|0:0|0:0,0:0:0:0:
376,275,68360,2,0,P|351:296|320:304,1,65,0|0,0:0|0:0,0:0:0:0:
244,264,68695,1,10,0:0:0:0:
160,248,68863,6,0,L|24:264,1,130,2|2,0:0|0:0,0:0:0:0:
48,348,69366,2,0,L|151:335,1,97.5,8|8,0:0|0:0,0:0:0:0:
172,336,69701,2,0,L|168:376,4,32.5,8|8|0|0|8,0:0|0:0|0:0|0:0|0:0,0:0:0:0:
272,304,70204,1,8,0:0:0:0:
272,304,70288,1,8,0:0:0:0:
272,304,70371,6,0,L|266:356,1,52,4|4,3:0|3:0,0:0:0:0:
392,348,70707,6,0,L|374:172,1,155.999995239258,12|0,0:0|0:0,0:0:0:0:
368,104,71209,1,0,0:0:0:0:
368,104,71377,1,8,0:0:0:0:
280,104,71545,2,0,L|212:76,1,65,2|0,0:0|0:0,0:0:0:0:
312,20,71880,5,0,0:0:0:0:
312,20,72048,1,8,0:0:0:0:
400,20,72216,2,0,L|468:48,1,65,2|0,0:0|0:0,0:0:0:0:
428,128,72550,2,0,L|367:103,1,65,2|8,0:0|0:0,0:0:0:0:
512,168,72885,6,0,P|528:236|480:280,1,130,6|0,0:0|0:0,0:0:0:0:
432,336,73388,1,8,0:0:0:0:
356,264,73556,2,0,B|336:260|336:260|308:264|308:264|280:256|280:256|216:260,1,130,4|0,0:2|0:0,0:0:0:0:
144,244,74059,1,8,0:0:0:0:
60,326,74226,6,0,B|56:302|56:302|68:286|68:286|44:249|73:196,1,130,4|0,0:0|0:0,0:0:0:0:
128,140,74729,2,0,L|216:152,1,65,10|2,0:0|0:0,0:0:0:0:
276,172,75064,2,0,L|280:208,2,32.5,8|8|0,0:0|0:0|0:0,0:0:0:0:
328,100,75399,2,0,L|332:64,2,32.5,8|8|4,3:0|3:0|3:0,0:0:0:0:
396,156,75735,6,0,L|484:144,2,65,6|0|0,0:0|0:0|0:0,0:0:0:0:
312,216,76237,2,0,L|224:204,2,65,10|0|0,0:0|0:0|0:0,0:0:0:0:
396,276,76740,2,0,L|484:264,2,65,10|0|0,0:0|0:0|0:0,0:0:0:0:
312,336,77243,2,0,L|224:324,2,65,14|0|0,0:0|0:0|0:0,0:0:0:0:
396,276,77746,6,0,L|408:204,1,65,14|0,0:0|0:0,0:0:0:0:
322,151,78081,2,0,L|311:215,1,65,14|0,0:0|0:0,0:0:0:0:
420,112,78416,1,14,0:0:0:0:
420,112,78751,6,0,L|488:108,1,65,0|0,0:0|0:0,0:0:0:0:
488,20,79086,1,8,0:0:0:0:
404,0,79254,1,8,0:0:0:0:
320,16,79422,1,8,0:0:0:0:
264,80,79589,2,0,L|256:152,1,65,8|8,0:0|0:0,0:0:0:0:
208,236,79924,6,0,P|238:247|270:247,1,65,0|8,0:0|0:0,0:0:0:0:
356,228,80260,1,0,0:0:0:0:
356,228,80343,1,0,0:0:0:0:
356,228,80427,2,0,L|428:236,1,65,8|4,3:0|3:0,0:0:0:0:
504,212,80762,1,8,0:0:0:0:
460,312,80930,1,4,0:0:0:0:
208,296,91656,6,2,L|64:280,1,130,6|2,0:0|0:0,0:0:0:0:
32,208,92159,2,0,P|28:172|44:136,1,65,8|2,0:0|2:1,0:0:0:0:
80,72,92494,1,2,0:0:0:0:
80,72,92662,1,0,0:0:0:0:
168,80,92830,2,0,L|232:87,1,65,8|0,0:0|2:0,0:0:0:0:
312,124,93165,6,0,P|316:160|300:196,1,65,2|0,0:0|0:0,0:0:0:0:
272,264,93500,1,8,0:0:0:0:
376,256,93667,2,0,P|404:180|408:128,1,130,2|0,0:0|0:0,0:0:0:0:
396,44,94170,1,8,0:0:0:0:
308,32,94338,6,2,P|240:48|188:24,1,130
188,112,94841,2,0,L|200:184,1,65,8|2,0:0|2:1,0:0:0:0:
208,264,95176,1,2,0:0:0:0:
208,264,95343,2,0,L|140:260,1,65,0|8,0:0|0:0,0:0:0:0:
164,364,95679,6,0,L|300:356,1,130,2|0,0:0|0:0,0:0:0:0:
300,272,96181,2,0,L|376:244,1,65,8|2,0:0|2:1,0:0:0:0:
436,204,96517,2,0,P|476:220|496:244,1,65,0|0,0:0|0:0,0:0:0:0:
504,320,96852,1,8,0:0:0:0:
412,367,97019,6,2,P|344:383|292:355,1,130,6|2,0:0|0:0,0:0:0:0:
224,304,97522,2,0,L|232:228,1,65,8|2,0:0|2:1,0:0:0:0:
248,152,97857,1,2,0:0:0:0:
248,152,98025,1,0,0:0:0:0:
316,208,98193,2,0,L|396:204,1,65,8|0,0:0|2:0,0:0:0:0:
464,176,98528,6,0,P|476:144|464:104,1,65,2|0,0:0|0:0,0:0:0:0:
440,36,98863,1,8,0:0:0:0:
356,40,99031,2,0,L|224:64,1,130,2|0,0:0|0:0,0:0:0:0:
144,80,99533,1,8,0:0:0:0:
160,180,99701,6,2,P|215:210|280:184,1,130,6|0,0:0|0:0,0:0:0:0:
160,180,100204,2,0,L|136:272,1,65,8|0,0:0|0:0,0:0:0:0:
144,332,100539,2,0,P|188:350|248:348,1,97.5,8|0,0:0|0:0,0:0:0:0:
256,332,100874,1,8,0:0:0:0:
356,360,101042,6,0,P|392:308|354:227,1,130,2|0,0:0|0:0,0:0:0:0:
348,168,101545,1,8,0:0:0:0:
268,204,101712,1,0,0:0:0:0:
204,144,101880,2,0,L|156:144,3,32.5,8|8|0|0,0:0|0:0|0:0|0:0,0:0:0:0:
144,144,102215,2,0,L|152:80,1,65,10|8,0:0|0:0,0:0:0:0:
248,11,102550,6,0,P|311:15|357:63,1,130,6|8,0:0|0:0,0:0:0:0:
276,92,103053,1,0,0:0:0:0:
367,143,103221,2,0,P|376:175|367:206,1,65,2|0,0:0|2:0,0:0:0:0:
288,176,103556,1,0,0:0:0:0:
204,168,103723,6,0,L|132:172,1,65,10|0,0:0|0:0,0:0:0:0:
132,260,104059,2,0,L|196:256,1,65,10|0,0:0|0:0,0:0:0:0:
280,264,104394,1,0,0:0:0:0:
355,299,104561,2,0,P|359:332|355:364,1,65,10|0,0:0|0:0,0:0:0:0:
436,260,104897,2,0,P|432:228|436:196,1,65,0|8,0:0|0:0,0:0:0:0:
500,108,105232,6,0,P|432:124|376:88,1,130,6|0,0:0|0:0,0:0:0:0:
312,48,105735,1,0,0:0:0:0:
332,152,105902,2,0,P|336:192|316:224,1,65,2|8,0:0|0:0,0:0:0:0:
272,280,106237,1,0,0:0:0:0:
380,268,106405,6,0,L|460:280,1,65,2|8,0:0|0:0,0:0:0:0:
444,366,106740,2,0,L|380:376,1,65,2|0,0:0|0:0,0:0:0:0:
296,360,107075,1,8,0:0:0:0:
212,344,107243,2,0,P|180:356|152:376,1,65,0|8,0:0|0:0,0:0:0:0:
88,296,107578,2,0,P|93:262|90:228,1,65,0|8,0:0|0:0,0:0:0:0:
190,211,107913,6,0,P|243:247|308:233,1,130,6|8,0:0|0:0,0:0:0:0:
260,159,108416,1,0,0:0:0:0:
310,86,108584,2,0,P|280:72|249:72,1,65,2|8,0:0|0:0,0:0:0:0:
260,159,108919,1,0,0:0:0:0:
384,132,109086,6,0,L|392:68,1,65,2|8,0:0|0:0,0:0:0:0:
444,196,109422,2,0,L|436:260,1,65,2|0,0:0|0:0,0:0:0:0:
394,337,109757,1,8,0:0:0:0:
312,364,109924,2,0,P|281:368|248:361,1,65,0|8,0:0|0:0,0:0:0:0:
168,328,110260,2,0,L|120:332,3,32.5,0|8|8|8,0:0|0:0|0:0|0:0,0:0:0:0:
108,334,110595,6,0,P|52:306|56:234,2,130,6|8|0,0:0|0:0|0:0,0:0:0:0:
184,374,111433,2,0,L|252:360,1,65,0|8,0:0|0:0,0:0:0:0:
332,331,111768,2,0,L|468:359,1,130,6|0,0:0|0:0,0:0:0:0:
452,271,112271,2,0,L|384:257,1,65,8|2,0:0|0:0,0:0:0:0:
300,243,112606,2,0,L|260:259,4,32.5,0|8|8|8|8,0:0|0:0|0:0|0:0|0:0,0:0:0:0:
356,175,113109,1,8,0:0:0:0:
356,175,113193,1,8,0:0:0:0:
356,175,113276,6,0,P|376:128|356:79,2,104,4|0|0,0:0|0:0|0:0,0:0:0:0:
192,124,114282,1,0,0:0:0:0:
192,124,114450,2,0,P|124:108|72:92,2,104,0|0|0,0:0|0:0|2:0,0:0:0:0:
240,56,115288,1,0,0:0:0:0:
240,56,115455,1,0,2:0:0:0:
308,12,115623,2,0,P|340:12|364:20,1,52,0|0,0:0|0:0,0:0:0:0:
420,76,115958,6,0,L|400:188,2,104
288,172,116964,2,0,L|298:228,1,52,0|0,0:0|2:0,0:0:0:0:
328,300,117299,2,0,P|377:316|428:316,2,104
246,288,118137,2,0,P|206:296|190:308,1,52,0|0,2:0|0:0,0:0:0:0:
124,340,118472,1,4,0:2:0:0:
48,308,118640,6,0,P|24:260|36:192,2,104,4|0|0,0:0|0:0|0:0,0:0:0:0:
148,172,119645,2,0,L|200:180,1,52,0|8,0:0|0:0,0:0:0:0:
276,216,119980,2,0,L|328:224,1,52,0|8,0:0|0:0,0:0:0:0:
408,196,120316,2,0,L|460:204,2,52,0|0|0,0:0|2:0|0:0,0:0:0:0:
356,132,120818,1,0,2:0:0:0:
343,47,120986,2,0,P|347:22|364:3,1,52,0|0,0:0|2:0,0:0:0:0:
356,132,121321,6,0,P|305:126|269:90,2,104
440,136,122159,1,8,0:0:0:0:
488,204,122327,2,0,L|504:276,1,52,0|0,0:0|2:0,0:0:0:0:
496,336,122662,2,0,P|456:360|396:352,1,104,0|0,0:0|0:0,0:0:0:0:
344,292,123165,1,0,0:0:0:0:
279,239,123332,2,0,P|233:214|182:223,1,104,0|4,0:0|3:0,0:0:0:0:
116,272,123835,1,4,3:0:0:0:
152,348,124003,6,0,P|197:372|248:363,2,104,4|0|8,0:0|0:0|0:0,0:0:0:0:
76,200,125008,2,0,L|84:140,1,52,0|8,0:0|0:0,0:0:0:0:
208,40,125511,1,8,0:0:0:0:
208,40,125679,2,0,L|216:100,1,52,0|0,0:0|2:0,0:0:0:0:
224,176,126014,2,0,P|188:192|140:192,1,78,8|8,0:0|2:1,0:0:0:0:
132,180,126349,2,0,P|138:214|134:246,1,52,0|8,0:0|0:0,0:0:0:0:
104,312,126684,6,0,P|48:312|8:284,2,104,4|0|0,0:0|0:0|0:0,0:0:0:0:
268,272,127690,1,0,0:0:0:0:
268,272,127857,2,0,L|340:280,2,52,2|8|0,0:2|0:0|0:0,0:0:0:0:
204,216,128360,2,0,L|230:148,1,52,0|8,0:0|0:0,0:0:0:0:
288,112,128695,2,0,L|324:116,4,26,0|8|8|8|0,0:0|0:0|0:0|0:0|0:0,0:0:0:0:
208,84,129198,1,8,0:0:0:0:
208,84,129282,1,8,0:0:0:0:
208,84,129366,6,0,L|132:76,2,65,4|0|0,0:0|0:0|0:0,0:0:0:0:
140,168,129869,2,0,L|64:160,2,65,8|0|0,0:0|0:0|0:0,0:0:0:0:
72,252,130371,2,0,L|-4:244,1,65,8|0,0:0|0:0,0:0:0:0:
56,340,130707,1,0,0:0:0:0:
136,308,130874,6,0,L|212:300,1,65,8|0,0:0|0:0,0:0:0:0:
284,292,131209,1,0,0:0:0:0:
368,284,131377,2,0,L|436:304,1,65,8|0,0:0|0:0,0:0:0:0:
420,192,131712,2,0,L|454:202,3,32.5,8|8|8|8,0:0|0:0|0:0|0:0,0:0:0:0:
476,208,132047,6,0,P|534:289|498:382,1,208,4|8,1:0|1:0,0:0:0:0:
344,180,133053,1,0,1:0:0:0:
359,284,133221,2,0,P|325:321|272:322,1,104,8|8,1:0|0:0,0:0:0:0:
188,320,133723,2,0,L|96:324,1,65,8|0,0:0|0:0,0:0:0:0:
44,284,134059,2,0,L|12:272,2,32.5,8|8|0,0:0|0:0|0:0,0:0:0:0:
163,234,134394,1,8,0:0:0:0:
163,234,134478,1,8,0:0:0:0:
163,234,134561,6,0,B|197:231|197:231|249:247|249:247|312:247,1,130,6|0,0:0|0:0,0:0:0:0:
368,204,135064,1,8,0:0:0:0:
456,192,135232,2,0,P|504:220|508:292,1,130,2|0,0:0|0:0,0:0:0:0:
468,364,135735,1,8,0:0:0:0:
392,328,135902,6,0,B|352:316|352:316|304:336|304:336|248:336,1,130,2|0,0:0|0:0,0:0:0:0:
184,312,136405,1,8,0:0:0:0:
119,372,136573,2,0,P|86:374|58:359,1,65,2|0,0:0|0:0,0:0:0:0:
48,243,136908,2,0,P|80:240|108:255,1,65,2|8,0:0|0:0,0:0:0:0:
0,168,137243,6,0,P|-12:108|32:60,1,130,6|0,0:0|0:0,0:0:0:0:
112,28,137746,1,8,0:0:0:0:
195,44,137913,2,0,P|186:74|163:97,1,65,2|0,0:0|0:0,0:0:0:0:
264,128,138249,2,0,P|273:158|296:180,1,65,2|8,0:0|0:0,0:0:0:0:
195,208,138584,6,0,P|129:216|82:179,1,130,6|0,0:0|0:0,0:0:0:0:
28,272,139086,1,10,0:0:0:0:
100,320,139254,2,0,L|188:304,1,65,2|0,0:0|0:0,0:0:0:0:
248,336,139589,2,0,L|336:320,1,65,0|8,0:0|0:0,0:0:0:0:
396,296,139924,1,8,0:0:0:0:
396,296,140008,1,8,0:0:0:0:
396,296,140092,6,0,P|404:256|392:224,1,65,6|0,0:0|0:0,0:0:0:0:
464,180,140427,2,0,P|450:141|424:119,1,65,8|0,0:0|0:0,0:0:0:0:
464,45,140762,2,0,P|433:18|399:12,2,65,0|0|8,0:0|0:0|0:0,0:0:0:0:
368,96,141265,6,0,P|304:112|252:80,1,130,2|0,0:0|0:0,0:0:0:0:
176,36,141768,2,0,L|108:48,1,65,8|0,0:0|0:0,0:0:0:0:
104,136,142103,2,0,L|168:124,1,65,2|0,0:0|0:0,0:0:0:0:
244,168,142438,1,8,0:0:0:0:
276,248,142606,6,0,P|280:288|268:316,1,65,2|0,0:0|0:0,0:0:0:0:
184,308,142941,2,0,P|180:268|192:240,2,65,2|8|0,0:0|0:0|0:0,0:0:0:0:
88,348,143444,2,0,P|76:276|96:208,1,130,0|10,0:0|0:0,0:0:0:0:
168,152,143947,6,0,P|95:144|34:108,1,130,2|2,0:0|0:0,0:0:0:0:
56,32,144450,2,0,L|160:16,1,97.5,8|8,0:0|0:0,0:0:0:0:
180,16,144785,2,0,L|220:24,4,32.5,8|8|0|0|8,0:0|0:0|0:0|0:0|0:0,0:0:0:0:
144,112,145288,1,8,0:0:0:0:
144,112,145371,1,8,0:0:0:0:
144,112,145455,6,0,L|196:122,1,52,4|4,3:0|3:0,0:0:0:0:
300,52,145790,6,0,P|364:12|440:32,1,155.999995239258,12|0,0:0|0:0,0:0:0:0:
496,96,146293,1,0,0:0:0:0:
496,96,146461,1,8,0:0:0:0:
500,184,146628,2,0,L|480:252,1,65,2|0,0:0|0:0,0:0:0:0:
364,256,146964,5,0,0:0:0:0:
364,256,147132,1,8,0:0:0:0:
360,168,147299,2,0,L|380:100,1,65,2|0,0:0|0:0,0:0:0:0:
438,30,147634,2,0,P|478:22|510:30,1,65,2|8,0:0|0:0,0:0:0:0:
344,16,147969,6,0,P|284:0|224:36,1,130,6|0,0:0|0:0,0:0:0:0:
176,100,148472,1,8,0:0:0:0:
216,200,148640,2,0,B|248:220|248:220|296:188|352:212,1,130,4|0,0:2|0:0,0:0:0:0:
408,256,149142,1,8,0:0:0:0:
360,352,149310,6,0,B|328:360|328:360|296:348|296:348|256:356|208:344,1,130,4|0,0:0|0:0,0:0:0:0:
128,356,149813,1,10,0:0:0:0:
164,276,149980,2,0,L|172:204,1,65,2|0,0:0|0:0,0:0:0:0:
196,128,150316,1,0,0:0:0:0:
124,80,150483,2,0,L|76:88,3,32.5,8|8|0|0,0:0|0:0|0:0|0:0,0:0:0:0:
68,88,150818,6,0,L|44:164,2,65,14|0|0,0:0|0:0|0:0,0:0:0:0:
148,12,151321,2,0,L|212:20,2,65,10|0|0,0:0|0:0|0:0,0:0:0:0:
68,88,151824,2,0,L|4:96,2,65,10|0|0,0:0|0:0|0:0,0:0:0:0:
148,164,152327,2,0,L|167:225,2,65,14|0|0,0:0|0:0|0:0,0:0:0:0:
68,88,152830,6,0,L|87:25,1,65,14|0,0:0|0:0,0:0:0:0:
212,20,153165,2,0,L|192:82,1,65,14|0,0:0|0:0,0:0:0:0:
156,184,153500,1,14,0:0:0:0:
156,184,153835,6,0,L|88:176,1,65,0|0,0:0|0:0,0:0:0:0:
112,264,154170,1,8,0:0:0:0:
196,292,154338,1,8,0:0:0:0:
280,260,154505,1,8,0:0:0:0:
328,184,154673,2,0,P|336:144|324:112,1,65,8|0,0:0|0:0,0:0:0:0:
284,28,155008,6,0,L|216:20,1,65,0|8,0:0|0:0,0:0:0:0:
136,36,155343,1,0,0:0:0:0:
136,36,155427,1,8,0:0:0:0:
136,36,155511,2,0,L|124:72,3,32.5,0|8|0|0,0:0|0:0|0:0|0:0,0:0:0:0:
128,92,155846,2,0,L|140:128,3,32.5,0|8|8|8,0:0|0:0|0:0|0:0,0:0:0:0:
136,148,156181,6,0,P|60:176|0:136,1,156,4|0,0:0|0:0,0:0:0:0:
20,56,156852,1,8,0:0:0:0:
68,256,157355,2,0,L|44:357,1,104,0|8,0:0|0:0,0:0:0:0:
140,304,157857,2,0,L|128:356,2,52,0|0|8,0:0|0:0|0:0,0:0:0:0:
220,272,158360,1,0,0:0:0:0:
412,356,158863,6,0,P|468:304|444:232,1,156,4|0,0:0|0:0,0:0:0:0:
376,188,159533,1,8,0:0:0:0:
172,212,160036,2,0,L|48:200,2,104,0|8|0,0:0|0:0|0:0,0:0:0:0:
240,160,160874,2,0,L|248:108,1,52,8|8,0:0|0:0,0:0:0:0:
328,180,161209,2,0,L|336:128,1,52,0|8,0:0|0:0,0:0:0:0:
321,39,161545,6,0,P|252:8|180:31,1,156,4|0,0:0|0:0,0:0:0:0:
128,100,162215,1,8,0:0:0:0:
204,292,162718,2,0,L|312:280,2,104,0|8|0,0:0|0:0|0:0,0:0:0:0:
120,284,163556,1,8,0:0:0:0:
44,324,163723,2,0,L|60:196,1,104,0|8,0:0|0:0,0:0:0:0:
128,168,164226,6,0,P|200:188|264:140,1,156,4|0,0:0|0:0,0:0:0:0:
276,60,164897,1,8,0:0:0:0:
80,12,165399,2,0,L|-24:28,2,104,0|8|0,0:0|0:0|0:0,0:0:0:0:
144,72,166237,2,0,B|152:112|152:112|144:148,2,78,8|8|8,3:0|3:0|0:0,0:0:0:0:
244,32,166908,6,0,L|377:11,1,130,4|8,0:0|0:0,0:0:0:0:
300,104,167411,2,0,L|433:83,1,130,0|0,0:0|0:0,0:0:0:0:
484,156,167913,2,0,L|356:176,1,130,8|0,0:0|0:0,0:0:0:0:
268,184,168416,1,0,0:0:0:0:
184,216,168584,2,0,L|172:288,1,65,8|0,0:0|2:0,0:0:0:0:
256,320,168919,2,0,L|266:255,2,65,0|0|8,0:0|0:0|0:0,0:0:0:0:
56,376,169589,6,0,P|21:322|33:260,1,130,0|8,0:0|0:0,0:0:0:0:
173,208,170092,2,0,P|121:243|108:306,1,130,0|0,0:0|0:0,0:0:0:0:
193,292,170595,2,0,P|257:256|321:279,1,130,8|0,0:0|0:0,0:0:0:0:
392,260,171098,1,0,0:0:0:0:
472,296,171265,2,0,L|528:328,1,65,8|0,0:0|2:0,0:0:0:0:
468,208,171600,2,0,L|412:176,2,65,0|0|8,0:0|0:0|0:0,0:0:0:0:
488,104,172103,1,0,0:0:0:0:
488,104,172187,1,0,0:0:0:0:
488,104,172271,6,0,L|496:24,2,65,12|0|0,0:0|0:0|0:0,0:0:0:0:
411,175,172774,2,0,L|419:255,2,65,8|0|0,0:0|0:0|0:0,0:0:0:0:
334,104,173276,2,0,L|342:24,2,65,12|0|8,0:0|0:0|0:0,0:0:0:0:
257,175,173779,2,0,L|265:255,2,65,0|0|8,0:0|0:0|0:0,0:0:0:0:
180,104,174282,2,0,L|88:80,1,65
92,192,174617,2,0,L|154:208,1,65,8|0,0:0|0:0,0:0:0:0:
257,175,174952,1,8,0:0:0:0:
257,175,175288,6,0,L|349:151,1,65,0|8,0:0|0:0,0:0:0:0:
408,152,175623,1,8,0:0:0:0:
480,204,175790,1,8,0:0:0:0:
500,288,175958,1,8,0:0:0:0:
468,368,176126,2,0,P|400:384|348:352,1,130,8|0,0:0|0:0,0:0:0:0:
292,292,176628,2,0,L|260:300,3,32.5,8|8|0|0,0:0|0:0|0:0|0:0,0:0:0:0:
240,316,176964,2,0,L|208:324,3,32.5,8|8|4|4,3:0|3:0|3:0|3:0,0:0:0:0:
184,340,177299,1,8,0:0:0:0:
104,308,177466,1,8,0:0:0:0:
24,276,177634,6,0,L|28:208,1,65,6|8,0:0|0:0,0:0:0:0:
172,60,178137,1,8,0:0:0:0:
172,148,178304,2,0,L|168:212,2,65,0|8|0,0:0|0:0|0:0,0:0:0:0:
248,104,178807,2,0,L|316:96,1,65,10|0,0:0|0:0,0:0:0:0:
244,188,179142,2,0,L|346:176,1,97.5,10|0,0:0|0:0,0:0:0:0:
367,173,179478,1,8,0:0:0:0:
452,188,179645,2,0,L|440:272,1,65,0|8,0:0|0:0,0:0:0:0:
452,340,179980,2,0,L|480:364,2,32.5,0|0|8,0:0|0:0|0:0,0:0:0:0:
372,304,180316,6,0,L|292:296,1,65,2|8,0:0|0:0,0:0:0:0:
100,272,180818,1,8,0:0:0:0:
176,228,180986,2,0,L|256:220,2,65,0|8|0,0:0|0:0|0:0,0:0:0:0:
100,184,181489,2,0,L|116:96,1,65,10|0,0:0|0:0,0:0:0:0:
16,188,181824,2,0,L|38:64,1,97.5,10|0,0:0|0:0,0:0:0:0:
38,67,182159,1,8,0:0:0:0:
120,32,182327,2,0,L|196:48,1,65,0|8,0:0|0:0,0:0:0:0:
252,100,182662,2,0,L|252:144,2,32.5,0|0|8,0:0|0:0|0:0,0:0:0:0:
308,32,182997,6,0,L|384:16,1,65,2|8,0:0|0:0,0:0:0:0:
292,212,183500,1,8,0:0:0:0:
372,180,183667,2,0,L|448:164,2,65,0|8|0,0:0|0:0|0:0,0:0:0:0:
360,268,184170,2,0,L|380:332,1,65,10|0,0:0|0:0,0:0:0:0:
272,280,184505,2,0,L|302:376,1,97.5,10|0,0:0|0:0,0:0:0:0:
324,384,184841,1,8,0:0:0:0:
428,384,185008,2,0,L|496:376,1,65,0|8,0:0|0:0,0:0:0:0:
492,287,185343,2,0,L|428:280,1,65,0|8,0:0|0:0,0:0:0:0:
340,276,185679,6,0,L|300:340,1,65,2|8,0:0|0:0,0:0:0:0:
220,344,186014,2,0,L|220:376,2,32.5,0|0|8,0:0|0:0|0:0,0:0:0:0:
216,240,186349,2,0,L|256:176,1,65,2|8,0:0|0:0,0:0:0:0:
336,172,186684,2,0,L|336:140,2,32.5,0|0|10,0:0|0:0|0:0,0:0:0:0:
340,276,187019,5,0,0:0:0:0:
424,248,187187,1,8,0:0:0:0:
424,248,187271,1,8,0:0:0:0:
424,248,187355,2,0,L|508:252,1,65,8|8,3:0|0:0,0:0:0:0:
432,344,187690,2,0,L|416:376,3,32.5,0|8|0|8,0:0|0:0|0:0|0:0,0:0:0:0:
380,352,188025,2,0,L|364:384,3,32.5,8|8|8|8,0:0|0:0|0:0|0:0,0:0:0:0:
328,360,188360,6,0,P|284:320|320:240,1,156,6|0,0:0|0:0,0:0:0:0:
368,220,189031,2,0,P|319:235|271:216,1,104,10|0,0:0|2:0,0:0:0:0:
323,147,189533,1,2,0:0:0:0:
323,147,189869,6,0,L|431:135,1,104,8|0,0:0|0:0,0:0:0:0:
507,139,190371,2,0,L|511:195,1,52,8|8,0:0|0:0,0:0:0:0:
471,67,190707,2,0,L|475:11,1,52,0|8,0:0|0:0,0:0:0:0:
368,24,191042,6,0,P|284:60|228:32,1,156,6|0,0:0|0:0,0:0:0:0:
148,40,191712,1,10,0:0:0:0:
148,40,192047,5,8,0:0:0:0:
196,108,192215,2,0,L|220:180,1,52,2|0,0:0|2:0,0:0:0:0:
268,56,192550,2,0,L|306:171,1,104,10|0,0:0|0:0,0:0:0:0:
300,240,193053,2,0,L|292:276,3,32.5,8|8|8|8,0:0|0:0|0:0|0:0,0:0:0:0:
284,296,193388,2,0,L|252:315,3,32.5,0|8|8|8,0:0|0:0|0:0|0:0,0:0:0:0:
233,324,193723,6,0,L|161:307,1,65,6|8,0:0|0:0,0:0:0:0:
80,316,194059,2,0,L|60:352,2,32.5,0|0|8,0:0|0:0|0:0,0:0:0:0:
120,236,194394,2,0,L|128:100,1,130
212,88,194897,2,0,L|268:125,1,65,10|0,0:0|0:0,0:0:0:0:
248,12,195232,2,0,L|333:68,1,97.5,10|0,0:0|0:0,0:0:0:0:
350,80,195567,1,8,0:0:0:0:
360,168,195735,2,0,L|348:236,1,65,0|8,0:0|0:0,0:0:0:0:
296,304,196070,2,0,L|260:316,2,32.5,0|0|8,0:0|0:0|0:0,0:0:0:0:
384,312,196405,6,0,L|452:308,1,65,2|8,0:0|0:0,0:0:0:0:
504,236,196740,2,0,L|516:192,2,32.5,0|0|8,0:0|0:0|0:0,0:0:0:0:
424,196,197075,2,0,L|356:200,1,65,0|8,0:0|0:0,0:0:0:0:
304,272,197410,2,0,L|292:316,2,32.5,0|0|8,0:0|0:0|0:0,0:0:0:0:
268,188,197746,5,0,0:0:0:0:
323,115,197913,2,0,L|356:108,2,32.5,8|8|8,0:0|0:0|3:0,0:0:0:0:
267,42,198249,1,0,0:0:0:0:
212,115,198416,2,0,L|179:107,2,32.5,0|8|8,0:0|0:0|0:0,0:0:0:0:
268,188,198751,1,0,0:0:0:0:
323,115,198919,1,8,0:0:0:0:
327,119,199003,1,8,0:0:0:0:
331,123,199086,6,0,P|400:144|456:112,1,130,4|8,0:0|0:0,0:0:0:0:
396,228,199589,2,0,P|375:297|407:353,1,130,4|8,0:0|0:0,0:0:0:0:
291,293,200092,2,0,P|222:272|166:304,1,130,4|8,0:0|0:0,0:0:0:0:
226,187,200595,2,0,P|247:128|222:69,1,130,4|8,0:0|0:0,0:0:0:0:
128,28,201098,6,0,L|60:40,1,65,4|8,0:0|0:0,0:0:0:0:
6,108,201433,1,8,0:0:0:0:
76,164,201600,1,8,0:0:0:0:
160,130,201768,1,4,0:0:0:0:
256,192,201852,12,2,204450,0:0:0:0:
144,252,209645,6,0,P|193:240|238:263,1,104,4|0,0:0|0:0,0:0:0:0:
246,347,210148,1,0,0:0:0:0:
314,151,210483,1,8,0:0:0:0:
314,151,210986,6,0,P|363:162|408:139,1,104,0|8,0:0|0:0,0:0:0:0:
416,55,211489,1,0,0:0:0:0:
484,251,211824,2,0,L|493:199,1,52,8|0,0:0|0:0,0:0:0:0:
444,324,212159,1,8,0:0:0:0:
364,304,212327,2,0,L|336:308,2,26,8|8|0,0:0|0:0|0:0,0:0:0:0:
412,228,212662,6,0,L|440:232,4,26,8|8|8|8|0,0:0|0:0|0:0|0:0|0:0,0:0:0:0:
424,148,213165,2,0,L|452:152,4,26,8|8|8|8|0,0:0|0:0|0:0|0:0|0:0,0:0:0:0:
376,72,213667,5,8,0:0:0:0:
376,72,213751,1,8,0:0:0:0:
376,72,213835,2,0,L|342:76,3,32.5,8|4|4|8,3:0|3:0|3:0|3:0,0:0:0:0:
316,72,214170,2,0,L|282:76,3,32.5,0|8|0|8,0:0|0:0|0:0|0:0,0:0:0:0:
256,72,214505,2,0,L|188:81,1,65,0|8,0:0|0:0,0:0:0:0:
104,92,214841,1,0,0:0:0:0:
132,192,215008,1,8,0:0:0:0:
132,192,215092,1,8,0:0:0:0:
132,192,215176,6,0,L|128:256,1,52,4|4,3:0|3:0,0:0:0:0:
60,352,215511,6,0,L|224:328,1,155.999995239258,12|0,0:0|0:0,0:0:0:0:
304,320,216014,1,0,0:0:0:0:
304,320,216181,1,8,0:0:0:0:
316,232,216349,2,0,L|320:164,1,65,2|0,0:0|0:0,0:0:0:0:
232,104,216684,5,0,0:0:0:0:
232,104,216851,1,8,0:0:0:0:
220,192,217019,2,0,L|215:259,1,65,2|0,0:0|0:0,0:0:0:0:
304,320,217355,2,0,P|336:321|364:307,1,65,2|8,0:0|0:0,0:0:0:0:
492,275,217690,6,0,P|471:215|415:186,1,130,6|0,0:0|0:0,0:0:0:0:
328,184,218193,1,8,0:0:0:0:
244,252,218360,2,0,B|212:260|212:260|176:224|212:164,1,130,4|0,0:2|0:0,0:0:0:0:
180,88,218863,1,8,0:0:0:0:
296,56,219031,6,0,B|328:56|328:56|368:64|368:64|440:56,1,130,4|0,0:0|0:0,0:0:0:0:
468,152,219533,1,10,0:0:0:0:
384,179,219701,2,0,L|320:168,1,65,2|0,0:0|0:0,0:0:0:0:
232,152,220036,1,0,0:0:0:0:
148,180,220204,2,0,L|125:240,1,65,8|0,0:0|0:0,0:0:0:0:
168,336,220539,6,0,L|232:347,2,65,14|0|0,0:0|0:0|0:0,0:0:0:0:
65,326,221042,2,0,L|23:375,2,65,10|0|0,0:0|0:0|0:0,0:0:0:0:
126,241,221545,2,0,L|103:180,2,65,10|0|0,0:0|0:0|0:0,0:0:0:0:
230,252,222047,2,0,L|294:263,2,65,14|0|0,0:0|0:0|0:0,0:0:0:0:
244,108,222550,2,0,L|202:157,1,65,14|0,0:0|0:0,0:0:0:0:
361,192,222885,2,0,L|338:131,1,65,14|0,0:0|0:0,0:0:0:0:
230,252,223221,1,14,0:0:0:0:
230,252,223556,6,0,L|166:263,1,65,0|0,0:0|0:0,0:0:0:0:
96,320,223891,1,8,0:0:0:0:
78,237,224059,1,8,0:0:0:0:
137,177,224226,1,8,0:0:0:0:
224,172,224394,2,0,L|288:183,1,65,8|8,0:0|0:0,0:0:0:0:
312,184,224645,6,0,L|408:167,1,97.5,8|8,0:0|3:0,0:0:0:0:
468,104,225064,1,8,0:0:0:0:
448,20,225232,2,0,P|416:4|383:5,1,65,8|4,3:0|3:0,0:0:0:0:
303,12,225567,1,8,0:0:0:0:
256,104,225735,6,2,B|252:136|252:136|264:176|264:176|256:240,1,130,4|2,0:0|0:0,0:0:0:0:
230,333,226237,2,0,P|185:342|157:334,1,65,8|0,0:0|2:0,0:0:0:0:
64,320,226573,1,0,0:0:0:0:
64,320,226740,1,2,0:0:0:0:
128,260,226908,1,8,0:0:0:0:
60,204,227075,6,2,B|52:140|52:140|88:84,1,130,6|0,0:0|0:0,0:0:0:0:
176,24,227578,2,0,L|252:36,1,65,10|0,0:0|2:0,0:0:0:0:
236,140,227913,2,0,L|171:129,1,65,2|0,0:0|0:0,0:0:0:0:
312,92,228249,1,8,0:0:0:0:
400,120,228416,6,2,P|428:192|400:240,1,130,4|0,0:0|0:0,0:0:0:0:
419,340,228919,2,0,P|387:339|356:329,1,65,10|0,0:0|2:0,0:0:0:0:
292,268,229254,1,0,0:0:0:0:
220,320,229422,2,0,P|219:352|209:383,1,65,2|8,0:0|0:0,0:0:0:0:
116,335,229757,6,2,B|84:339|84:339|52:331|52:331|-12:340,1,130,6|0,0:0|0:0,0:0:0:0:
24,244,230260,2,0,L|88:234,1,65,10|0,0:0|2:0,0:0:0:0:
192,232,230595,1,0,0:0:0:0:
192,232,230762,1,0,0:0:0:0:
260,288,230930,1,8,0:0:0:0:
328,232,231098,6,2,B|372:240|372:240|472:224,1,130,4|0,0:0|0:0,0:0:0:0:
508,140,231600,2,0,L|504:64,1,65,10|0,0:0|2:0,0:0:0:0:
440,16,231936,1,0,0:0:0:0:
368,68,232103,2,0,L|371:132,1,65,2|8,0:0|0:0,0:0:0:0:
356,236,232438,6,2,B|388:240|388:240|416:228|416:228|488:240,1,130,6|2,0:0|0:0,0:0:0:0:
428,328,232941,1,8,0:0:0:0:
348,360,233109,2,0,L|284:372,1,65,2|0,2:1|0:0,0:0:0:0:
220,288,233444,2,0,L|156:276,1,65,2|8,0:0|0:0,0:0:0:0:
71,343,233779,6,2,P|48:284|62:221,1,130,6|2,0:0|0:0,0:0:0:0:
152,160,234282,2,0,L|216:172,1,65,10|2,0:0|0:0,0:0:0:0:
288,280,234617,2,0,L|224:268,1,65,10|2,0:0|0:0,0:0:0:0:
336,200,234952,2,0,L|400:212,1,65,10|10,0:0|0:0,0:0:0:0:
496,252,235288,6,0,L|488:388,1,130,4|10,0:0|0:0,0:0:0:0:
399,211,235790,2,0,L|391:347,1,130,4|10,0:0|0:0,0:0:0:0:
302,170,236293,1,4,0:0:0:0:
256,192,236377,12,0,238388,2:0:0:0:
