osu file format v14

[General]
AudioFilename: Fuuka.mp3
AudioLeadIn: 2000
PreviewTime: 58556
Countdown: 0
SampleSet: Normal
StackLeniency: 0.5
Mode: 0
LetterboxInBreaks: 0
WidescreenStoryboard: 1

[Editor]
DistanceSpacing: 1.3
BeatDivisor: 4
GridSize: 4
TimelineZoom: 1.9

[Metadata]
Title:Climber's High!
TitleUnicode:Climber's High!
Artist:Manami Numakura
ArtistUnicode:沼倉愛美
Creator:Zero__wind
Version:Easy
Source:風夏
Tags:秋月風夏 ふうか Akitsuki Fuuka full version Frey
BeatmapID:1236917
BeatmapSetID:574214

[Difficulty]
HPDrainRate:2
CircleSize:3
OverallDifficulty:2
ApproachRate:3
SliderMultiplier:0.7
SliderTickRate:1

[Events]
//Background and Video events
0,0,"bg.jpg",0,0
//Break Periods
2,81130,90216
2,204650,208205
//Storyboard Layer 0 (Background)
//Storyboard Layer 1 (Fail)
//Storyboard Layer 2 (Pass)
//Storyboard Layer 3 (Foreground)
//Storyboard Sound Samples

[TimingPoints]
651.237860202028,335.195530726257,4,2,1,60,1,0
4841,-100,4,1,1,60,0,0
5846,-100,4,1,1,70,0,0
16573,-100,4,1,1,60,0,0
37690,-100,4,1,1,70,0,0
48919,-100,4,1,1,60,0,0
53779,-100,4,1,1,70,0,0
56964,-100,4,2,1,60,0,0
59478,-100,4,1,1,70,0,1
70371,-100,4,1,1,80,0,0
70707,-100,4,1,1,70,0,1
80930,-100,4,1,1,70,0,0
91656,-100,4,1,1,60,0,0
113276,-100,4,1,1,50,0,0
124003,-100,4,1,1,60,0,0
129366,-100,4,1,1,70,0,0
132047,-100,4,2,1,50,0,0
132550,-100,4,2,1,60,0,0
133556,-100,4,1,1,60,0,0
134561,-100,4,1,1,70,0,1
145455,-100,4,1,1,80,0,0
145790,-100,4,1,1,70,0,1
156181,-100,4,1,1,60,0,0
177634,-100,4,1,1,70,0,0
188360,-100,4,1,1,60,0,0
193388,-100,4,1,1,70,0,0
201768,-100,4,1,1,60,0,0
202271,-100,4,1,1,55,0,0
202774,-100,4,1,1,50,0,0
203276,-100,4,1,1,45,0,0
203779,-100,4,1,1,40,0,0
204450,-100,4,2,1,40,0,0
209645,-100,4,1,1,50,0,0
213835,-100,4,1,1,60,0,0
213919,-100,4,1,1,10,0,0
215176,-100,4,1,1,80,0,0
215511,-100,4,1,1,70,0,1
225735,-100,4,1,1,70,0,0
236461,-100,4,1,1,50,0,0
237466,-100,4,1,1,40,0,0
238137,-100,4,1,1,30,0,0
238304,-100,4,1,1,20,0,0
238388,-100,4,1,1,10,0,0

[Colours]
Combo1 : 159,151,198
Combo2 : 254,41,57
Combo3 : 94,172,221
Combo4 : 226,118,18

[HitObjects]
136,320,651,6,0,L|352:336,1,210,2|2,0:0|2:0,0:0:0:0:
416,275,1992,2,0,P|435:227|422:177,2,105,8|8|8,1:0|3:0|3:0,0:0:0:0:
340,224,3332,6,0,L|130:208,1,210,2|2,0:0|0:0,0:0:0:0:
16,68,5008,1,8,0:0:0:0:
96,24,5343,1,8,3:0:0:0:
232,16,5846,6,2,L|336:28,1,105,4|8,0:0|0:0,0:0:0:0:
372,112,6684,1,0,0:0:0:0:
236,120,7187,2,2,L|132:108,1,105,6|10,0:0|0:0,0:0:0:0:
52,156,8025,1,2,0:0:0:0:
36,292,8528,6,2,P|82:321|140:312,1,105,4|10,0:0|0:0,0:0:0:0:
200,260,9366,1,0,0:0:0:0:
304,172,9869,2,2,P|355:155|409:179,1,105,6|10,0:0|0:0,0:0:0:0:
454,245,10707,1,0,0:0:0:0:
384,364,11209,6,2,B|332:376|332:376|272:364,1,105,4|10,0:0|0:0,0:0:0:0:
224,296,12047,1,0,0:0:0:0:
351,243,12550,2,2,B|403:255|403:255|463:243,1,105,4|8,0:0|0:0,0:0:0:0:
511,175,13388,1,0,0:0:0:0:
388,116,13891,6,2,L|276:92,1,105,6|10,0:0|0:0,0:0:0:0:
284,184,14729,2,0,L|355:199,1,70,10|10,0:0|0:0,0:0:0:0:
353,199,16573,6,0,L|344:320,1,105,4|8,0:0|0:0,0:0:0:0:
224,364,17578,2,0,L|144:352,1,70,0|0,0:0|0:0,0:0:0:0:
152,264,18249,2,0,L|255:279,1,105,0|0,0:0|0:0,0:0:0:0:
345,303,19086,1,8,0:0:0:0:
436,300,19422,6,0,L|516:288,1,70,0|8,0:0|0:0,0:0:0:0:
488,156,20260,2,0,L|496:84,1,70,0|0,0:0|0:0,0:0:0:0:
408,56,20930,2,0,L|396:160,1,105,0|0,0:0|0:0,0:0:0:0:
388,252,21768,1,8,0:0:0:0:
344,332,22103,6,0,L|268:320,1,70,0|8,0:0|0:0,0:0:0:0:
140,312,22941,2,0,L|116:388,1,70,0|0,0:0|0:0,0:0:0:0:
28,368,23612,2,0,L|59:267,1,105,0|0,0:0|0:0,0:0:0:0:
140,220,24450,1,8,0:0:0:0:
232,232,24785,6,0,L|312:228,1,70,0|8,0:0|0:0,0:0:0:0:
436,216,25623,2,0,L|504:240,1,70,0|0,0:0|0:0,0:0:0:0:
488,328,26293,2,0,L|388:293,1,105,0|0,0:0|0:0,0:0:0:0:
332,220,27131,1,8,0:0:0:0:
300,136,27466,6,0,P|304:88|324:64,1,70,0|10,0:0|0:0,0:0:0:0:
388,12,28137,2,0,P|444:10|489:40,2,105,0|10|8,0:0|0:0|0:0,0:0:0:0:
296,20,29478,1,0,0:0:0:0:
212,60,29813,1,8,0:0:0:0:
172,144,30148,6,0,P|176:192|196:216,1,70,2|8,0:0|0:0,0:0:0:0:
252,272,30818,2,0,P|308:276|360:248,2,105,0|10|8,0:0|0:0|0:0,0:0:0:0:
172,224,32159,1,0,0:0:0:0:
84,204,32494,1,8,0:0:0:0:
24,272,32830,6,0,L|8:376,1,105,2|2,0:0|0:0,0:0:0:0:
144,372,33835,2,0,L|160:268,1,105,2|2,0:0|0:0,0:0:0:0:
294,264,34841,2,0,L|282:336,1,70,8|4,0:0|3:0,0:0:0:0:
368,368,35511,6,0,P|436:372|464:312,1,140,4|8,0:0|0:0,0:0:0:0:
444,132,36852,2,0,L|328:144,1,105,0|4,0:0|0:2,0:0:0:0:
248,132,37690,2,0,B|208:124|208:124|176:132,1,70,8|8,0:0|0:0,0:0:0:0:
160,172,38193,6,0,L|148:320,1,140,6|0,0:0|0:0,0:0:0:0:
224,364,39198,1,8,0:0:0:0:
308,332,39533,2,0,P|342:347|388:340,2,70,2|8|0,0:0|0:0|0:0,0:0:0:0:
298,242,40539,1,8,0:0:0:0:
336,160,40874,6,0,L|404:144,2,70,2|8|0,0:0|0:0|0:0,0:0:0:0:
248,180,41880,1,8,0:0:0:0:
160,160,42215,2,0,L|92:144,2,70,2|8|0,0:0|0:0|0:0,0:0:0:0:
188,248,43221,1,8,0:0:0:0:
160,336,43556,6,0,L|92:352,1,70,2|8,0:0|0:0,0:0:0:0:
14,300,44226,2,0,P|0:251|18:202,2,105,0|2|8,0:0|0:0|0:0,0:0:0:0:
92,254,45567,2,0,L|160:238,1,70,0|8,0:0|0:0,0:0:0:0:
252,224,46237,5,2,0:0:0:0:
344,224,46573,2,0,P|400:244|424:292,2,105,10|0|2,0:0|0:0|0:0,0:0:0:0:
252,224,47913,1,10,0:0:0:0:
208,304,48249,2,0,L|208:376,1,70,8|4,3:0|3:0,0:0:0:0:
300,372,48919,6,0,B|508:376|508:376|492:336,1,245,4|8,0:0|0:0,0:0:0:0:
432,220,50595,1,0,0:0:0:0:
420,128,50930,2,0,L|428:44,1,70
344,20,51600,6,0,B|319:226|319:226|281:205,1,245,4|8,0:0|0:0,0:0:0:0:
168,140,53276,1,0,0:0:0:0:
76,140,53612,2,0,L|-8:132,1,70,0|8,0:0|0:0,0:0:0:0:
0,41,54282,6,0,L|139:54,1,140,4|0,0:0|0:0,0:0:0:0:
228,72,55288,1,8,0:0:0:0:
284,144,55623,2,0,L|276:216,1,70
272,304,56293,2,0,L|280:376,2,70,8|8|0,0:0|0:0|0:0,0:0:0:0:
444,280,59478,6,0,P|484:240|480:160,1,140,6|2,0:0|0:0,0:0:0:0:
440,80,60483,1,0,0:0:0:0:
352,104,60818,2,0,P|272:124|220:96,1,140,2|2,0:0|0:0,0:0:0:0:
148,48,61824,1,2,0:0:0:0:
56,48,62159,6,0,L|36:196,1,140,6|0,0:0|0:0,0:0:0:0:
56,276,63165,1,0,0:0:0:0:
120,340,63500,2,0,P|172:348|224:316,1,105,6|10,0:0|0:0,0:0:0:0:
252,240,64338,1,0,0:0:0:0:
308,116,64841,6,0,P|360:96|416:112,1,105,2|8,0:0|0:0,0:0:0:0:
476,164,65679,1,0,0:0:0:0:
420,288,66181,2,0,P|368:308|312:292,1,105,2|8,0:0|0:0,0:0:0:0:
252,240,67019,2,0,L|176:248,1,70,0|8,0:0|0:0,0:0:0:0:
92,260,67690,6,0,P|75:300|80:336,1,70,0|8,0:0|0:0,0:0:0:0:
152,376,68360,2,0,L|256:365,2,105,0|2|8,0:0|0:0|0:0,0:0:0:0:
66,340,69701,1,8,0:0:0:0:
12,264,70036,2,0,L|20:188,1,70,8|4,0:0|3:0,0:0:0:0:
60,112,70707,6,0,L|164:119,1,105,12|0,0:0|0:0,0:0:0:0:
248,76,71545,2,0,P|320:48|376:84,1,140,2|2,0:0|0:0,0:0:0:0:
436,140,72550,1,2,0:0:0:0:
436,232,72885,6,0,L|428:376,2,140,6|4|4,0:0|0:2|0:0,0:0:0:0:
432,96,74729,1,10,0:0:0:0:
340,100,75064,2,0,L|268:104,1,70,8|8,0:0|3:0,0:0:0:0:
180,116,75735,6,0,L|64:152,1,105,6|10,0:0|0:0,0:0:0:0:
192,224,76740,2,0,L|76:260,1,105,10|10,0:0|0:0,0:0:0:0:
204,332,77746,2,0,L|122:357,1,70,14|14,0:0|0:0,0:0:0:0:
48,336,78416,1,14,0:0:0:0:
0,160,79086,6,0,P|-4:100|32:60,1,105,8|8,0:0|0:0,0:0:0:0:
113,66,79924,2,0,P|141:108|134:159,1,105,0|8,0:0|3:0,0:0:0:0:
68,280,80930,1,4,0:0:0:0:
92,300,91656,6,2,L|196:292,1,105,6|8,0:0|0:0,0:0:0:0:
288,292,92494,2,0,L|360:297,1,70,2|8,0:0|0:0,0:0:0:0:
440,339,93165,2,0,P|452:289|432:241,1,105,2|2,0:0|0:0,0:0:0:0:
364,184,94003,1,0,0:0:0:0:
272,176,94338,6,2,L|168:184,1,105,2|8,0:0|0:0,0:0:0:0:
76,188,95176,2,0,P|56:235|68:286,2,105,2|2|8,0:0|0:0|0:0,0:0:0:0:
120,108,96517,1,0,0:0:0:0:
252,76,97019,6,2,L|356:84,1,105,6|8,0:0|0:0,0:0:0:0:
448,100,97857,2,0,L|508:140,1,70,2|8,0:0|0:0,0:0:0:0:
512,232,98528,2,0,P|472:256|408:240,1,105,2|2,0:0|0:0,0:0:0:0:
348,184,99366,1,0,0:0:0:0:
264,216,99701,6,2,L|160:208,1,105,6|8,0:0|0:0,0:0:0:0:
76,172,100539,2,0,P|52:132|68:68,2,105,8|2|8,0:0|0:0|0:0,0:0:0:0:
87,263,101880,2,0,L|72:348,1,70,8|10,0:0|0:0,0:0:0:0:
160,368,102550,6,0,L|184:230,1,140,6|2,0:0|0:0,0:0:0:0:
100,124,103723,2,0,L|28:132,1,70,10|10,0:0|0:0,0:0:0:0:
108,20,104561,2,0,L|180:28,1,70,10|0,0:0|0:0,0:0:0:0:
268,36,105232,6,0,L|412:20,1,140,6|2,0:0|0:0,0:0:0:0:
492,128,106405,2,0,L|484:212,1,70,2|2,0:0|0:0,0:0:0:0:
408,312,107243,2,0,L|400:228,1,70,10|0,0:0|0:0,0:0:0:0:
324,192,107913,6,0,L|309:343,1,140,6|2,0:0|0:0,0:0:0:0:
176,364,109086,2,0,L|96:348,1,70,2|2,0:0|0:0,0:0:0:0:
128,216,109924,2,0,L|196:229,1,70,0|8,0:0|0:0,0:0:0:0:
287,229,110595,6,0,P|303:226|355:215,2,70,6|8|0,0:0|0:0|0:0,0:0:0:0:
204,120,111768,2,0,P|212:52|252:24,1,105,6|8,0:0|0:0,0:0:0:0:
328,12,112606,2,0,L|396:25,1,70,0|8,0:0|0:0,0:0:0:0:
480,64,113276,6,0,P|500:140|480:200,1,140,4|0,0:0|0:0,0:0:0:0:
408,252,114282,1,0,0:0:0:0:
316,252,114617,2,0,L|247:238,2,70,0|0|0,0:0|0:0|0:0,0:0:0:0:
362,332,115623,1,0,0:0:0:0:
284,380,115958,6,0,L|146:352,1,140,0|0,0:0|0:0,0:0:0:0:
100,276,116964,1,0,0:0:0:0:
71,187,117299,2,0,P|64:154|73:120,2,70
156,156,118304,1,0,0:0:0:0:
228,104,118640,6,0,P|300:80|356:108,1,140,4|0,0:0|0:0,0:0:0:0:
404,180,119645,1,0,0:0:0:0:
400,272,119980,2,0,P|376:292|328:296,2,70,0|0|0,0:0|0:0|0:0,0:0:0:0:
476,220,120986,1,0,0:0:0:0:
492,132,121321,6,0,L|488:48,1,70,0|0,0:0|0:0,0:0:0:0:
308,64,122327,2,0,L|311:133,1,70,0|0,0:0|0:0,0:0:0:0:
304,224,122997,1,0,0:0:0:0:
220,260,123332,2,0,P|184:248|140:252,1,70,0|4,0:0|3:0,0:0:0:0:
84,308,124003,6,0,B|132:408|264:376|264:376|272:352|252:332,1,245,4|8,0:0|0:0,0:0:0:0:
196,224,125679,1,0,0:0:0:0:
160,140,126014,2,0,P|160:92|176:64,1,70,8|0,0:0|0:0,0:0:0:0:
248,28,126684,6,0,B|339:-34|437:59|437:59|432:83|405:91,1,245,4|8,0:0|0:0,0:0:0:0:
348,204,128360,1,0,0:0:0:0:
263,232,128695,2,0,P|228:235|195:223,1,70,0|0,0:0|0:0,0:0:0:0:
128,160,129366,6,0,L|56:168,2,70,4|0|0,0:0|0:0|0:0,0:0:0:0:
173,79,130371,1,8,0:0:0:0:
256,40,130707,2,0,L|328:48,1,70,0|0,0:0|0:0,0:0:0:0:
414,72,131377,1,8,0:0:0:0:
452,156,131712,1,8,0:0:0:0:
448,248,132047,6,0,P|402:302|342:286,1,140,4|8,1:0|1:0,0:0:0:0:
264,172,133221,2,0,P|216:156|156:184,1,105,8|8,1:0|0:0,0:0:0:0:
100,236,134059,2,0,B|88:272|88:272|96:304,1,70,8|8,0:0|0:0,0:0:0:0:
124,340,134561,6,0,L|268:332,1,140,6|2,0:0|0:0,0:0:0:0:
356,320,135567,1,0,0:0:0:0:
440,288,135902,2,0,P|477:229|445:163,1,140,2|2,0:0|0:0,0:0:0:0:
384,108,136908,1,2,0:0:0:0:
292,104,137243,6,0,L|260:240,1,140,6|2,0:0|0:0,0:0:0:0:
263,332,138249,1,2,0:0:0:0:
344,372,138584,2,0,P|400:380|448:344,1,105,6|10,0:0|0:0,0:0:0:0:
468,268,139422,1,0,0:0:0:0:
384,160,139924,6,0,L|264:172,1,105,2|8,0:0|0:0,0:0:0:0:
188,168,140762,1,0,0:0:0:0:
204,32,141265,2,0,L|324:20,1,105,2|8,0:0|0:0,0:0:0:0:
400,24,142103,2,0,L|468:48,1,70,2|8,0:0|0:0,0:0:0:0:
512,128,142774,6,0,L|504:200,1,70,0|8,0:0|0:0,0:0:0:0:
448,268,143444,2,0,P|392:280|348:252,2,105,0|2|8,0:0|0:0|0:0,0:0:0:0:
476,180,144785,1,8,0:0:0:0:
424,104,145120,2,0,L|348:112,1,70,8|4,0:0|3:0,0:0:0:0:
284,172,145790,6,0,L|268:280,1,105,12|0,0:0|0:0,0:0:0:0:
176,276,146628,2,0,L|197:130,1,140,2|2,0:0|0:0,0:0:0:0:
240,56,147634,1,2,0:0:0:0:
324,24,147969,6,0,P|400:20|444:76,2,140,6|4|4,0:0|0:2|0:0,0:0:0:0:
244,136,149813,1,10,0:0:0:0:
224,224,150148,2,0,L|220:300,1,70,0|8,0:0|0:0,0:0:0:0:
284,360,150818,6,0,L|404:348,1,105,14|10,0:0|0:0,0:0:0:0:
312,236,151824,2,0,L|432:224,1,105,10|10,0:0|0:0,0:0:0:0:
340,112,152830,2,0,L|424:103,1,70,14|14,0:0|0:0,0:0:0:0:
500,96,153500,1,14,0:0:0:0:
508,276,154170,6,0,L|480:392,1,105,8|8,0:0|0:0,0:0:0:0:
392,364,155008,2,0,L|416:261,1,105,0|8,0:0|0:0,0:0:0:0:
440,176,155846,1,8,0:0:0:0:
440,84,156181,6,0,P|404:44|356:36,1,105,4|0,0:0|0:0,0:0:0:0:
248,123,157187,2,0,P|281:162|332:171,2,105,0|8|8,0:0|0:0|0:0,0:0:0:0:
200,44,158528,1,0,0:0:0:0:
108,40,158863,6,0,L|4:52,1,105,4|0,0:0|0:0,0:0:0:0:
24,188,159869,2,0,L|128:176,2,105,0|8|8,0:0|0:0|0:0,0:0:0:0:
0,276,161209,1,0,0:0:0:0:
40,356,161545,6,0,P|90:367|137:347,1,105,4|0,0:0|0:0,0:0:0:0:
214,237,162550,2,0,P|264:225|311:245,2,105,0|8|8,0:0|0:0|0:0,0:0:0:0:
256,316,163891,1,0,0:0:0:0:
344,329,164226,6,0,P|394:282|395:214,1,140,4|8,0:0|0:0,0:0:0:0:
332,92,165399,1,0,0:0:0:0:
240,84,165735,2,0,B|169:88|169:88|148:124,1,105,8|8,0:0|3:0,0:0:0:0:
144,300,166908,6,0,P|188:324|240:312,1,105,4|0,0:0|0:0,0:0:0:0:
304,191,167913,2,0,P|258:167|208:179,1,105,8|0,0:0|0:0,0:0:0:0:
84,232,168919,2,0,P|48:224|24:200,1,70,0|8,0:0|0:0,0:0:0:0:
0,112,169589,6,0,L|12:8,1,105,0|0,0:0|0:0,0:0:0:0:
148,24,170595,2,0,L|136:128,1,105,8|0,0:0|0:0,0:0:0:0:
132,264,171600,2,0,L|196:300,1,70,0|8,0:0|0:0,0:0:0:0:
280,328,172271,6,0,P|344:316|364:284,1,105,12|8,0:0|0:0,0:0:0:0:
363,148,173276,2,0,P|330:108|279:105,1,105,12|0,0:0|0:0,0:0:0:0:
144,128,174282,2,0,L|72:156,1,70,0|8,0:0|0:0,0:0:0:0:
4,204,174952,5,8,0:0:0:0:
176,352,175790,1,8,0:0:0:0:
260,316,176126,2,0,L|272:196,1,105,8|8,0:0|0:0,0:0:0:0:
272,120,176964,2,0,L|232:48,1,70,8|8,3:0|0:0,0:0:0:0:
156,20,177634,6,0,L|8:40,1,140,6|0,0:0|0:0,0:0:0:0:
52,172,178807,2,0,L|60:244,1,70,10|10,0:0|0:0,0:0:0:0:
188,196,179645,2,0,L|180:126,1,70,0|8,0:0|0:0,0:0:0:0:
264,84,180316,6,0,L|279:223,1,140,2|0,0:0|0:0,0:0:0:0:
240,356,181489,2,0,L|168:348,1,70,10|10,0:0|0:0,0:0:0:0:
44,292,182327,2,0,L|116:284,1,70,0|8,0:0|0:0,0:0:0:0:
204,264,182997,6,0,L|343:279,1,140,2|0,0:0|0:0,0:0:0:0:
472,232,184170,2,0,L|488:164,1,70,10|10,0:0|0:0,0:0:0:0:
360,120,185008,2,0,L|344:188,1,70,0|8,0:0|0:0,0:0:0:0:
343,279,185679,6,0,L|412:300,1,70,2|8,0:0|0:0,0:0:0:0:
376,384,186349,2,0,L|275:353,2,105,2|10|8,0:0|0:0|3:0,0:0:0:0:
463,364,187690,2,0,P|486:337|493:303,1,70,8|8,0:0|0:0,0:0:0:0:
480,212,188360,6,0,L|346:171,1,140,6|10,0:0|0:0,0:0:0:0:
212,148,189533,1,2,0:0:0:0:
120,156,189869,2,0,L|12:188,1,105,8|8,0:0|0:0,0:0:0:0:
108,344,191042,6,0,P|176:368|236:340,1,140,6|10,0:0|0:0,0:0:0:0:
328,240,192215,1,2,0:0:0:0:
336,148,192550,2,0,L|324:44,1,105,10|8,0:0|0:0,0:0:0:0:
236,16,193388,1,8,0:0:0:0:
144,24,193723,6,0,P|76:56|56:116,1,140,6|0,0:0|0:0,0:0:0:0:
72,248,194897,1,10,0:0:0:0:
148,300,195232,2,0,L|256:284,1,105,10|0,0:0|0:0,0:0:0:0:
340,260,196070,1,8,0:0:0:0:
432,264,196405,6,0,L|507:275,2,70,2|0|0,0:0|0:0|0:0,0:0:0:0:
336,168,197578,2,0,P|320:116|344:64,1,105,8|8,0:0|3:0,0:0:0:0:
426,93,198416,2,0,P|436:132|425:163,1,70,8|8,0:0|0:0,0:0:0:0:
400,248,199086,6,0,L|292:268,1,105,4|4,0:0|0:0,0:0:0:0:
159,267,200092,2,0,L|51:247,1,105,4|4,0:0|0:0,0:0:0:0:
96,116,201098,2,0,L|171:130,1,70,4|8,0:0|0:0,0:0:0:0:
256,148,201768,1,4,0:0:0:0:
256,192,201936,12,2,204450,0:0:0:0:
244,336,209645,6,0,P|300:348|352:320,1,105,4|0,0:0|0:0,0:0:0:0:
380,248,210483,1,8,0:0:0:0:
336,116,210986,2,0,P|280:104|228:132,1,105,0|0,0:0|0:0,0:0:0:0:
200,204,211824,2,0,L|184:272,1,70,8|8,0:0|0:0,0:0:0:0:
148,356,212494,6,0,B|104:368|104:368|32:356,2,105,0|0|0,0:0|0:0|0:0,0:0:0:0:
236,332,213835,2,0,B|268:344|268:344|304:332|304:332|336:344|336:344|368:332|368:332|400:344|400:344|432:332|432:332|468:344|468:344|500:332,1,280,8|4,3:0|3:0,0:0:0:0:
468,248,215511,6,0,L|472:140,1,105,12|0,0:0|0:0,0:0:0:0:
384,112,216349,2,0,L|378:259,1,140,2|2,0:0|0:0,0:0:0:0:
368,344,217355,1,2,0:0:0:0:
280,376,217690,6,0,P|208:368|176:312,2,140,6|4|4,0:0|0:2|0:0,0:0:0:0:
360,264,219533,1,10,0:0:0:0:
292,204,219869,2,0,L|212:212,1,70,0|8,0:0|0:0,0:0:0:0:
136,236,220539,6,0,L|32:216,1,105,14|10,0:0|0:0,0:0:0:0:
148,144,221545,2,0,L|44:124,1,105,10|10,0:0|0:0,0:0:0:0:
160,52,222550,2,0,L|87:38,1,70,14|14,0:0|0:0,0:0:0:0:
0,44,223221,1,14,0:0:0:0:
135,167,223891,6,0,P|187:169|234:145,1,105,8|8,0:0|0:0,0:0:0:0:
303,87,224729,2,0,P|355:86|402:110,1,105,0|8,0:0|3:0,0:0:0:0:
456,236,225735,6,2,L|436:348,1,105,4|10,0:0|0:0,0:0:0:0:
352,372,226573,1,0,0:0:0:0:
232,304,227075,2,2,L|252:192,1,105,6|10,0:0|0:0,0:0:0:0:
336,168,227913,1,2,0:0:0:0:
472,152,228416,6,2,P|488:100|468:52,1,105,4|10,0:0|0:0,0:0:0:0:
392,4,229254,1,0,0:0:0:0:
256,20,229757,2,2,P|240:72|260:120,1,105,6|10,0:0|0:0,0:0:0:0:
336,168,230595,1,2,0:0:0:0:
456,236,231098,6,2,B|468:296|468:296|448:336,1,105,4|10,0:0|0:0,0:0:0:0:
368,380,231936,1,0,0:0:0:0:
232,372,232438,2,2,B|174:352|174:352|149:315,1,105,6|8,0:0|0:0,0:0:0:0:
151,223,233276,1,0,0:0:0:0:
225,109,233779,6,2,B|270:68|270:68|315:65,1,105,6|10,0:0|0:0,0:0:0:0:
395,113,234617,2,0,L|456:156,1,70,10|10,0:0|0:0,0:0:0:0:
488,236,235288,1,4,0:0:0:0:
372,312,235790,1,4,0:0:0:0:
256,240,236293,1,4,0:0:0:0:
256,192,236461,12,0,238388,2:0:0:0:
