osu file format v14

[General]
AudioFilename: audio.mp3
AudioLeadIn: 0
PreviewTime: 58312
Countdown: 0
SampleSet: Soft
StackLeniency: 0.7
Mode: 0
LetterboxInBreaks: 0
WidescreenStoryboard: 1

[Editor]
DistanceSpacing: 0.5
BeatDivisor: 4
GridSize: 4
TimelineZoom: 1.7

[Metadata]
Title:Climber's High!
TitleUnicode:Climber's High!
Artist:Manami Numakura
ArtistUnicode:沼倉愛美
Creator:Owens
Version:Real's Insane
Source:風夏
Tags:fuuka anime climbers opening tv size Realazy Meg Pachiru Kyuukai Yaleufeu
BeatmapID:1259279
BeatmapSetID:589638

[Difficulty]
HPDrainRate:6
CircleSize:4
OverallDifficulty:8
ApproachRate:9
SliderMultiplier:1.62
SliderTickRate:1

[Events]
//Background and Video events
0,0,"772763.jpg",0,0
Video,0,"fuuka+movie.avi"
//Break Periods
//Storyboard Layer 0 (Background)
//Storyboard Layer 1 (Fail)
//Storyboard Layer 2 (Pass)
//Storyboard Layer 3 (Foreground)
//Storyboard Sound Samples

[TimingPoints]
366,335.195530726257,4,2,1,50,1,0
366,-142.857142857143,4,2,1,50,0,0
4555,-100,4,2,1,60,0,0
4723,-83.3333333333333,4,2,1,60,0,0
5561,-83.3333333333333,4,2,1,70,0,0
14947,-133.333333333333,4,2,1,70,0,0
16287,-142.857142857143,4,2,1,50,0,0
27181,-125,4,2,1,60,0,0
35226,-200,4,2,1,60,0,0
37405,-200,4,2,1,60,0,0
37907,-111.111111111111,4,2,1,60,0,0
48634,-142.857142857143,4,2,1,60,0,0
53997,-117.647058823529,4,2,1,60,0,0
56595,-117.647058823529,4,2,1,20,0,0
56678,-200,4,2,1,20,0,0
57349,-200,4,2,1,30,0,0
57684,-200,4,2,1,40,0,0
58019,-200,4,2,1,50,0,0
58354,-142.857142857143,4,2,1,60,0,0
58690,-142.857142857143,4,2,1,70,0,0
59192,-100,4,2,1,80,0,1
70086,-117.647058823529,4,2,1,80,0,0
70421,-100,4,2,1,80,0,1
74779,-83.3333333333333,4,2,1,80,0,1
75449,-100,4,2,1,80,0,1
80477,-83.3333333333333,4,2,1,80,0,1
80645,-100,4,2,1,70,0,0
85924,-100,4,2,1,70,0,0
86846,-100,4,2,1,40,0,0
87181,-100,4,2,1,30,0,0
87516,-100,4,2,1,20,0,0
87684,-100,4,2,1,10,0,0
87852,-100,4,2,1,5,0,0

[Colours]
Combo1 : 185,2,52
Combo2 : 15,64,145
Combo3 : 11,204,244
Combo4 : 215,215,215

[HitObjects]
371,240,366,6,0,L|431:251,6,56.6999982696534,0|0|0|0|0|0|0,3:0|3:0|3:0|3:0|3:0|3:0|3:0,0:0:0:0:
291,160,1539,1,4,0:3:0:0:
291,160,1622,1,4,0:3:0:0:
291,160,1706,6,0,L|351:158,1,56.6999982696534,8|2,0:0|0:0,0:0:0:0:
420,85,2041,1,2,0:0:0:0:
420,85,2209,2,0,L|360:83,1,56.6999982696534,4|2,3:0|0:0,0:0:0:0:
289,81,2544,1,2,0:0:0:0:
219,107,2712,1,2,0:0:0:0:
169,52,2879,1,2,0:0:0:0:
99,78,3047,6,0,L|97:137,6,56.6999982696534,0|0|0|0|0|0|0,3:0|3:0|3:0|3:0|3:0|3:0|3:0,0:0:0:0:
45,27,4220,1,2,3:2:0:0:
45,27,4555,5,4,0:3:0:0:
45,27,4639,1,4,0:3:0:0:
45,27,4723,2,0,L|28:72,1,48.5999985168458,8|8,0:0|0:0,0:0:0:0:
97,134,4891,1,2,0:0:0:0:
97,134,4974,1,8,0:0:0:0:
97,134,5058,2,0,L|96:187,1,48.5999985168458,8|8,0:0|0:0,0:0:0:0:
136,244,5226,2,0,P|161:243|184:239,1,48.5999985168458,8|8,0:0|0:0,0:0:0:0:
236,305,5393,2,0,P|259:300|284:299,1,48.5999985168458,0|0,1:2|1:0,0:0:0:0:
363,333,5561,6,0,P|434:276|404:190,1,194.399994067383,6|2,0:0|0:0,0:0:0:0:
334,121,6064,2,0,P|287:129|239:125,1,97.1999970336915,8|0,0:0|0:0,0:0:0:0:
144,101,6399,1,2,0:0:0:0:
197,19,6567,1,2,0:0:0:0:
334,121,6734,1,8,0:0:0:0:
144,100,6902,6,0,P|78:166|99:257,1,194.399994067383,6|2,0:0|0:0,0:0:0:0:
190,290,7405,2,0,L|287:291,1,97.1999970336915,8|0,0:0|0:0,0:0:0:0:
268,195,7740,2,0,L|170:193,1,97.1999970336915,2|2,0:0|0:0,0:0:0:0:
184,362,8075,1,8,0:0:0:0:
381,322,8243,6,0,P|426:240|381:159,1,194.399994067383,6|2,0:0|0:0,0:0:0:0:
233,238,8745,2,0,L|331:241,1,97.1999970336915,8|0,0:0|0:0,0:0:0:0:
380,158,9081,1,2,0:0:0:0:
326,77,9248,1,2,0:0:0:0:
331,241,9416,1,8,0:0:0:0:
136,248,9583,6,0,B|170:189|170:189|166:131|166:131|200:72,1,194.399994067383,6|2,0:0|0:0,0:0:0:0:
282,12,10086,2,0,P|329:1|374:17,1,97.1999970336915,8|0,0:0|0:0,0:0:0:0:
446,82,10421,1,2,0:0:0:0:
354,112,10589,1,2,0:0:0:0:
475,0,10757,1,8,0:0:0:0:
426,177,10924,6,0,B|390:215|337:209|337:209|284:203|251:240,1,194.399994067383,6|2,0:0|0:0,0:0:0:0:
195,321,11427,2,0,L|97:321,1,97.1999970336915,8|0,0:0|0:0,0:0:0:0:
17,266,11762,1,2,0:0:0:0:
105,224,11930,1,2,0:0:0:0:
9,362,12097,1,8,0:0:0:0:
105,224,12265,6,0,P|192:188|281:221,1,194.399994067383,6|2,0:0|0:0,0:0:0:0:
340,297,12768,2,0,P|369:260|377:212,1,97.1999970336915,8|0,0:0|0:0,0:0:0:0:
275,128,13103,1,2,0:0:0:0:
275,128,13271,2,0,P|265:175|280:220,1,97.1999970336915,2|8,0:0|0:0,0:0:0:0:
389,367,13606,6,0,P|449:291|460:196,1,194.399994067383,6|2,0:0|0:0,0:0:0:0:
417,64,14109,2,0,L|319:63,1,97.1999970336915,8|0,0:0|0:0,0:0:0:0:
183,219,14444,2,0,L|280:219,1,97.1999970336915,8|0,0:0|0:0,0:0:0:0:
460,196,14779,1,8,0:0:0:0:
319,63,14947,1,2,0:0:0:0:
256,192,15114,12,2,16120,0:3:0:0:
151,139,16287,6,0,P|167:192|150:245,1,113.399996539307,6|2,0:0|0:0,0:0:0:0:
95,317,16790,1,8,0:0:0:0:
95,317,17293,6,0,L|151:324,1,56.6999982696534,8|0,3:0|0:0,0:0:0:0:
242,328,17628,2,0,L|298:320,1,56.6999982696534,2|0,0:0|0:0,0:0:0:0:
388,328,17963,1,2,0:0:0:0:
352,192,18131,1,8,0:0:0:0:
224,247,18298,1,0,0:0:0:0:
224,247,18382,1,0,0:0:0:0:
223,247,18466,2,0,P|195:249|168:241,1,56.6999982696534,2|2,0:0|0:0,0:0:0:0:
100,130,18801,2,0,P|99:159|93:187,1,56.6999982696534,8|0,0:0|0:0,0:0:0:0:
66,273,19136,5,2,0:0:0:0:
66,273,19304,1,2,0:0:0:0:
172,168,19472,1,8,0:0:0:0:
172,168,19974,6,0,P|198:177|226:180,1,56.6999982696534,8|0,3:0|0:0,0:0:0:0:
362,131,20310,2,0,P|335:121|307:118,1,56.6999982696534,8|0,0:0|0:0,0:0:0:0:
217,102,20645,1,2,0:0:0:0:
316,196,20812,1,8,0:0:0:0:
247,255,20980,1,4,3:0:0:0:
247,255,21064,1,4,3:0:0:0:
247,255,21148,2,0,P|219:252|191:254,1,56.6999982696534,2|2,0:0|0:0,0:0:0:0:
92,345,21483,2,0,P|120:348|148:346,1,56.6999982696534,8|0,0:0|0:0,0:0:0:0:
237,330,21818,5,2,0:0:0:0:
237,330,21986,1,2,0:0:0:0:
316,196,22153,1,8,0:0:0:0:
316,196,22656,6,0,L|308:139,1,56.6999982696534,8|0,3:0|0:0,0:0:0:0:
224,45,22991,2,0,L|216:101,1,56.6999982696534,8|0,0:0|0:0,0:0:0:0:
169,178,23326,1,2,0:0:0:0:
107,46,23494,1,8,0:0:0:0:
47,114,23662,1,0,0:0:0:0:
47,114,23745,1,4,3:0:0:0:
47,114,23829,2,0,P|36:139|33:167,1,56.6999982696534,2|2,0:0|0:0,0:0:0:0:
36,310,24164,1,8,0:0:0:0:
107,253,24332,1,2,0:0:0:0:
107,253,24416,1,2,0:0:0:0:
107,253,24500,5,2,0:0:0:0:
178,310,24667,1,2,0:0:0:0:
36,310,24835,1,8,0:0:0:0:
36,310,25338,6,0,L|26:254,1,56.6999982696534,0|0,0:0|3:0,0:0:0:0:
116,197,25673,2,0,L|106:252,1,56.6999982696534,8|0,0:0|0:0,0:0:0:0:
114,343,26008,1,2,0:0:0:0:
198,232,26176,1,8,0:0:0:0:
254,302,26343,1,4,3:0:0:0:
254,302,26427,1,4,3:0:0:0:
254,302,26511,1,2,0:0:0:0:
259,156,26678,1,2,0:0:0:0:
376,245,26846,2,0,L|319:241,1,56.6999982696534,8|0,0:0|0:0,0:0:0:0:
197,231,27181,6,0,P|177:207|165:177,1,64.8,2|0,0:0|0:0,0:0:0:0:
266,91,27516,2,0,L|258:155,1,64.8,8|0,0:0|0:0,0:0:0:0:
254,302,27852,2,0,L|252:336,2,32.4,2|4|2,0:0|3:0|0:0,0:0:0:0:
187,221,28187,1,0,0:0:0:0:
343,272,28354,1,8,0:0:0:0:
343,272,28522,6,0,P|362:247|367:215,1,64.8,0|2,0:0|0:0,0:0:0:0:
317,23,28857,2,0,P|297:47|292:79,1,64.8,8|2,0:0|0:0,0:0:0:0:
484,146,29192,2,0,L|515:137,2,32.4,2|0|2,0:0|0:0|0:0,0:0:0:0:
367,214,29528,1,8,0:0:0:0:
367,78,29695,1,0,0:0:0:0:
451,226,29863,5,2,0:0:0:0:
367,354,30030,1,0,0:0:0:0:
367,354,30114,1,4,3:0:0:0:
367,354,30198,2,0,P|367:321|375:290,1,64.8,8|0,0:0|0:0,0:0:0:0:
329,146,30533,1,2,0:0:0:0:
329,146,30617,1,4,3:0:0:0:
329,146,30701,1,2,0:0:0:0:
160,182,30868,1,0,0:0:0:0:
216,361,31036,6,0,L|250:236,1,129.6,8|0,0:0|0:0,0:0:0:0:
239,92,31539,1,8,0:0:0:0:
329,146,31706,2,0,P|343:84|320:25,1,129.6,0|2,0:0|0:0,0:0:0:0:
217,0,32209,2,0,L|152:2,1,64.8,8|0,0:0|0:0,0:0:0:0:
64,49,32544,5,2,0:0:0:0:
64,49,32712,1,2,0:0:0:0:
172,120,32879,2,0,P|184:149|182:181,1,64.8,8|0,0:0|0:0,0:0:0:0:
148,280,33215,1,2,0:0:0:0:
148,280,33298,1,4,3:0:0:0:
148,280,33382,1,2,0:0:0:0:
242,236,33550,5,0,0:0:0:0:
242,236,33717,2,0,L|306:239,1,64.8,8|0,0:0|0:0,0:0:0:0:
389,303,34053,1,2,0:0:0:0:
389,303,34220,2,0,P|407:258|405:210,1,97.2,8|4,0:0|3:0,0:0:0:0:
395,185,34555,1,8,3:0:0:0:
444,124,34723,1,8,3:0:0:0:
423,48,34891,1,8,3:0:0:0:
350,19,35058,1,8,3:0:0:0:
275,39,35226,6,0,P|230:55|191:46,1,81,6|0,0:0|0:0,0:0:0:0:
127,18,35729,1,0,0:0:0:0:
46,85,35896,2,0,L|46:166,1,81,8|0,0:0|0:0,0:0:0:0:
65,240,36399,1,2,0:0:0:0:
134,274,36567,6,0,L|174:274,1,40.5,4|4,0:3|0:3,0:0:0:0:
268,217,36902,1,4,0:3:0:0:
237,350,37069,1,0,1:0:0:0:
268,217,37405,5,8,0:0:0:0:
431,308,37572,1,8,0:0:0:0:
431,121,37740,1,8,0:0:0:0:
268,217,37907,6,0,P|233:223|197:217,1,72.8999977752686,6|0,0:0|0:0,0:0:0:0:
26,169,38243,1,8,0:0:0:0:
26,169,38410,1,0,0:0:0:0:
21,307,38578,2,0,P|89:286|156:311,1,145.799995550537,2|8,0:0|0:0,0:0:0:0:
156,311,39081,1,0,0:0:0:0:
254,338,39248,6,0,P|288:329|324:334,1,72.8999977752686,2|2,0:0|0:0,0:0:0:0:
454,272,39583,2,0,P|419:281|383:276,1,72.8999977752686,8|0,0:0|0:0,0:0:0:0:
293,227,39919,2,0,L|220:227,2,72.8999977752686,2|2|8,0:0|0:0|0:0,0:0:0:0:
383,276,40421,1,0,0:0:0:0:
424,160,40589,6,0,P|430:125|421:90,1,72.8999977752686,2|0,0:0|0:0,0:0:0:0:
351,15,40924,2,0,L|278:14,1,72.8999977752686,8|0,0:0|0:0,0:0:0:0:
175,10,41259,2,0,P|108:34|78:99,1,145.799995550537,2|8,0:0|0:0,0:0:0:0:
83,201,41762,1,0,0:0:0:0:
153,274,41930,6,0,P|188:266|223:273,1,72.8999977752686,2|2,0:0|0:0,0:0:0:0:
315,319,42265,2,0,P|367:331|420:321,1,109.349996662903,8|0,0:0|0:0,0:0:0:0:
443,308,42600,2,0,L|445:235,1,72.8999977752686,2|2,0:0|0:0,0:0:0:0:
372,115,42935,2,0,L|369:187,1,72.8999977752686,8|4,0:0|3:0,0:0:0:0:
356,210,43187,1,4,3:0:0:0:
342,231,43271,6,0,P|301:226|268:234,1,72.8999977752686,2|0,0:0|0:0,0:0:0:0:
153,274,43606,1,8,0:0:0:0:
82,200,43773,1,0,0:0:0:0:
87,97,43941,2,0,P|111:70|144:54,1,72.8999977752686,2|2,0:0|0:0,0:0:0:0:
274,34,44276,1,8,0:0:0:0:
274,33,44444,2,0,P|309:40|342:57,1,72.8999977752686,0|2,0:0|0:0,0:0:0:0:
419,122,44778,5,2,0:0:0:0:
355,264,44947,1,8,0:0:0:0:
283,191,45114,1,0,0:0:0:0:
208,261,45282,2,0,P|172:267|129:262,1,72.8999977752686,2|2,0:0|0:0,0:0:0:0:
20,199,45617,2,0,P|45:224|58:258,1,72.8999977752686,8|0,0:0|0:0,0:0:0:0:
157,346,45952,5,2,0:0:0:0:
255,372,46120,1,0,0:0:0:0:
355,264,46287,2,0,L|209:260,1,145.799995550537,8|2,0:0|0:0,0:0:0:0:
133,189,46790,2,0,P|97:190|62:181,1,72.8999977752686,2|0,0:0|0:0,0:0:0:0:
148,46,47125,1,8,0:0:0:0:
249,123,47293,6,0,P|320:114|390:134,1,145.799995550537,2|8,0:0|0:0,0:0:0:0:
478,187,47796,1,0,0:0:0:0:
360,262,47963,1,2,0:0:0:0:
360,262,48131,1,4,3:0:0:0:
390,134,48298,1,4,3:0:0:0:
432,245,48466,1,4,3:0:0:0:
294,342,48634,6,0,L|287:285,2,56.6999982696534,6|0|2,3:2|0:0|0:0,0:0:0:0:
196,288,49136,2,0,L|202:231,2,56.6999982696534,0|2|0,3:0|0:0|0:0,0:0:0:0:
88,313,49639,2,0,L|94:370,2,56.6999982696534,2|8|2,3:0|0:0|0:0,0:0:0:0:
41,195,50142,5,0,0:0:0:0:
130,212,50310,1,2,0:0:0:0:
207,166,50477,1,0,0:0:0:0:
242,82,50645,2,0,L|183:64,1,56.6999982696534,2|0,0:0|0:0,0:0:0:0:
207,166,50980,2,0,L|266:184,1,56.6999982696534,2|0,0:0|0:0,0:0:0:0:
379,219,51315,6,0,P|385:191|385:163,2,56.6999982696534,6|0|2,3:2|0:0|0:0,0:0:0:0:
298,286,51818,2,0,P|291:313|291:341,2,56.6999982696534,0|2|0,3:0|0:0|0:0,0:0:0:0:
438,328,52321,1,2,3:2:0:0:
438,328,52488,2,0,L|381:324,1,56.6999982696534,8|2,0:0|0:0,0:0:0:0:
298,286,52824,5,0,0:0:0:0:
212,314,52991,1,2,0:0:0:0:
124,286,53159,2,0,P|108:264|99:237,1,56.6999982696534,0|2,0:0|0:0,0:0:0:0:
155,119,53494,1,8,0:0:0:0:
182,225,53662,1,2,0:0:0:0:
80,157,53829,1,0,0:0:0:0:
229,108,53997,5,0,0:0:0:0:
295,264,54164,1,0,0:0:0:0:
295,264,54248,1,0,0:0:0:0:
295,264,54332,1,2,0:0:0:0:
340,122,54500,1,8,0:0:0:0:
182,225,54667,2,0,P|178:259|182:293,1,68.8500013132096,0|0,0:0|0:0,0:0:0:0:
356,361,55002,1,8,0:0:0:0:
286,191,55170,1,0,0:0:0:0:
286,191,55254,1,0,0:0:0:0:
286,191,55338,5,2,0:0:0:0:
217,353,55505,1,8,0:0:0:0:
117,200,55673,1,2,0:0:0:0:
295,264,55840,1,0,0:0:0:0:
112,343,56008,5,2,0:0:0:0:
202,119,56176,1,0,0:0:0:0:
217,353,56343,5,8,0:0:0:0:
127,129,56511,1,4,3:0:0:0:
256,192,56678,12,0,58019,0:0:0:0:
159,175,58354,5,0,0:0:0:0:
159,175,58522,2,0,P|177:195|188:221,1,56.6999982696534,0|0,0:0|0:0,0:0:0:0:
100,288,58857,2,0,L|115:233,1,56.6999982696534,0|0,3:0|0:0,0:0:0:0:
208,113,59192,6,0,P|244:129|284:126,1,81,6|0,0:0|0:0,0:0:0:0:
396,102,59528,1,0,0:0:0:0:
283,1,59695,1,8,0:0:0:0:
284,125,59863,2,0,L|296:205,1,81,0|2,0:0|0:0,0:0:0:0:
339,310,60198,1,2,0:0:0:0:
363,165,60366,1,8,0:0:0:0:
222,262,60533,6,0,P|184:273|143:266,1,81,0|2,0:0|0:0,0:0:0:0:
16,191,60868,1,2,0:0:0:0:
62,317,61036,1,8,0:0:0:0:
178,177,61203,2,0,L|177:97,1,81,0|2,0:0|0:0,0:0:0:0:
285,206,61539,1,2,0:0:0:0:
260,68,61706,1,8,0:0:0:0:
209,251,61874,6,0,P|275:295|348:269,1,162,6|2,0:0|0:0,0:0:0:0:
424,130,62377,1,8,0:0:0:0:
503,259,62544,2,0,P|463:266|431:290,1,81,0|2,0:0|0:0,0:0:0:0:
326,369,62879,1,2,0:0:0:0:
418,203,63047,1,8,0:0:0:0:
326,369,63215,6,0,P|246:378|170:352,1,162,0|0,0:0|0:0,0:0:0:0:
38,257,63717,1,8,0:0:0:0:
84,135,63885,1,0,0:0:0:0:
84,135,64053,2,0,P|121:148|167:147,1,81,2|2,0:0|0:0,0:0:0:0:
314,75,64388,1,8,0:0:0:0:
196,22,64555,1,4,3:0:0:0:
196,22,64639,1,4,3:0:0:0:
196,21,64723,6,0,P|200:61|221:96,1,81,2|0,0:0|0:0,0:0:0:0:
394,75,65058,2,0,L|314:75,1,81,8|0,0:0|0:0,0:0:0:0:
246,187,65393,1,2,0:0:0:0:
246,187,65561,2,0,L|326:186,1,81,2|8,0:0|0:0,0:0:0:0:
432,303,65896,6,0,P|359:270|280:283,1,162,2|2,0:0|0:0,0:0:0:0:
140,353,66399,1,8,0:0:0:0:
140,353,66567,2,0,L|140:272,1,81,0|2,0:0|0:0,0:0:0:0:
133,142,66902,1,2,0:0:0:0:
30,220,67069,1,8,0:0:0:0:
214,249,67237,6,0,P|249:230|274:198,1,81,0|2,0:0|0:0,0:0:0:0:
281,69,67572,1,0,0:0:0:0:
133,142,67740,2,0,L|215:139,1,81,8|0,0:0|0:0,0:0:0:0:
343,135,68075,1,2,0:0:0:0:
343,135,68243,1,2,0:0:0:0:
200,61,68410,5,8,0:0:0:0:
200,61,68578,2,0,L|118:64,1,81,0|2,0:0|0:0,0:0:0:0:
46,171,68913,1,2,0:0:0:0:
207,242,69081,1,8,0:0:0:0:
133,137,69248,5,0,0:0:0:0:
138,156,69332,1,4,3:0:0:0:
141,175,69416,2,0,L|136:215,1,40.5,4|4,3:0|3:0,0:0:0:0:
52,305,69583,1,2,0:0:0:0:
49,286,69667,1,0,0:0:0:0:
46,267,69751,1,8,0:0:0:0:
214,249,69919,5,8,3:2:0:0:
214,249,70002,1,8,3:2:0:0:
214,249,70086,1,2,0:0:0:0:
141,324,70254,1,0,0:0:0:0:
449,308,70421,5,12,0:0:0:0:
449,308,70589,2,0,P|409:305|370:314,1,81,0|2,0:0|0:0,0:0:0:0:
303,219,70924,1,2,0:0:0:0:
449,308,71092,1,8,0:0:0:0:
417,183,71259,6,0,P|371:119|295:97,1,162,0|2,0:0|0:0,0:0:0:0:
148,137,71762,1,8,0:0:0:0:
148,136,71930,2,0,P|176:108|186:70,1,81,0|2,0:0|0:0,0:0:0:0:
71,194,72265,2,0,L|119:259,1,81,2|8,0:0|0:0,0:0:0:0:
240,338,72600,6,0,L|401:332,1,162,6|2,0:0|0:0,0:0:0:0:
300,194,73103,1,8,0:0:0:0:
240,338,73271,6,0,L|398:304,1,162,4|2,0:0|0:0,0:0:0:0:
274,185,73774,1,8,0:0:0:0:
240,338,73941,6,0,L|390:277,1,162,6|2,0:0|0:0,0:0:0:0:
247,182,74444,1,8,0:0:0:0:
140,254,74611,1,0,0:0:0:0:
90,91,74779,5,4,3:0:0:0:
106,74,74862,1,4,3:0:0:0:
127,62,74947,2,0,P|150:57|175:59,1,48.5999985168458,8|8,3:0|3:0,0:0:0:0:
286,116,75114,1,10,3:2:0:0:
286,116,75198,1,2,3:2:0:0:
286,116,75282,1,0,3:0:0:0:
286,116,75366,1,0,3:0:0:0:
286,116,75449,6,0,L|367:119,1,81,12|0,0:0|0:0,0:0:0:0:
475,84,75784,1,2,0:0:0:0:
312,194,75952,6,0,L|393:197,1,81,8|0,0:0|0:0,0:0:0:0:
501,162,76287,1,2,0:0:0:0:
338,272,76455,6,0,L|257:269,1,81,8|0,0:0|0:0,0:0:0:0:
149,304,76790,1,2,0:0:0:0:
312,194,76958,6,0,L|231:191,1,81,8|0,0:0|0:0,0:0:0:0:
123,226,77293,1,0,0:0:0:0:
221,338,77460,6,0,P|186:316|148:303,1,81,8|0,0:0|0:0,0:0:0:0:
338,272,77796,2,0,P|372:250|410:237,1,81,8|0,0:0|0:0,0:0:0:0:
297,334,78131,5,12,0:0:0:0:
297,334,78466,1,2,0:0:0:0:
268,208,78634,1,2,0:0:0:0:
148,303,78801,1,8,0:3:0:0:
338,272,78969,1,8,0:3:0:0:
168,126,79136,1,4,0:3:0:0:
221,338,79304,1,4,0:3:0:0:
338,150,79472,6,0,L|262:120,1,81,8|0,3:2|0:0,0:0:0:0:
120,65,79807,1,8,3:2:0:0:
150,90,79890,1,8,3:2:0:0:
168,126,79974,1,4,3:0:0:0:
171,166,80058,1,4,3:0:0:0:
157,204,80142,2,0,L|158:245,1,40.5,8|8,3:0|3:0,0:0:0:0:
208,348,80310,2,0,L|209:307,1,40.5,2|2,3:2|3:2,0:0:0:0:
259,205,80477,1,8,0:0:0:0:
360,266,80645,6,0,P|376:189|339:118,1,162,6|2,0:0|0:0,0:0:0:0:
225,27,81148,1,8,0:0:0:0:
126,118,81315,1,0,0:0:0:0:
126,118,81399,1,4,3:0:0:0:
126,118,81483,1,2,0:0:0:0:
219,138,81650,1,2,0:0:0:0:
132,7,81818,1,8,0:0:0:0:
139,237,81986,6,0,P|212:214|219:138,1,162,6|2,0:0|0:0,0:0:0:0:
67,55,82488,1,8,0:0:0:0:
8,159,82656,1,0,0:0:0:0:
8,159,82740,1,4,3:0:0:0:
8,159,82824,2,0,P|4:199|12:237,1,81,2|2,0:0|0:0,0:0:0:0:
118,336,83159,1,8,0:0:0:0:
214,215,83326,6,0,P|292:201|361:240,1,162,6|0,0:0|0:0,0:0:0:0:
443,374,83829,5,8,0:0:0:0:
270,324,83997,1,0,0:0:0:0:
436,197,84164,5,8,0:0:0:0:
357,378,84332,1,0,0:0:0:0:
312,206,84500,5,8,0:0:0:0:
485,256,84668,1,8,0:0:0:0:
274,328,84835,1,8,0:0:0:0:
274,328,85170,5,8,0:0:0:0:
369,124,85338,1,8,0:0:0:0:
369,124,85673,5,8,0:0:0:0:
146,138,85841,1,8,0:0:0:0:
256,192,85924,12,0,87852,0:0:0:0:
