osu file format v14

[General]
AudioFilename: audio.mp3
AudioLeadIn: 0
PreviewTime: 58312
Countdown: 0
SampleSet: Soft
StackLeniency: 0.7
Mode: 0
LetterboxInBreaks: 0
WidescreenStoryboard: 1

[Editor]
DistanceSpacing: 1.3
BeatDivisor: 4
GridSize: 4
TimelineZoom: 1.7

[Metadata]
Title:Climber's High!
TitleUnicode:Climber's High!
Artist:Manami Numakura
ArtistUnicode:沼倉愛美
Creator:Owens
Version:Pachiru's Normal
Source:風夏
Tags:fuuka anime climbers opening tv size Realazy Meg Pachiru Kyuukai Yaleufeu
BeatmapID:1309538
BeatmapSetID:589638

[Difficulty]
HPDrainRate:4
CircleSize:3
OverallDifficulty:4
ApproachRate:6
SliderMultiplier:1
SliderTickRate:1

[Events]
//Background and Video events
0,0,"772763.jpg",0,0
Video,0,"fuuka+movie.avi"
//Break Periods
//Storyboard Layer 0 (Background)
//Storyboard Layer 1 (Fail)
//Storyboard Layer 2 (Pass)
//Storyboard Layer 3 (Foreground)
//Storyboard Sound Samples

[TimingPoints]
366,335.195530726257,4,2,1,50,1,0
366,-100,4,2,1,50,0,0
4555,-100,4,2,1,60,0,0
4723,-100,4,2,1,60,0,0
5561,-100,4,2,1,70,0,0
14947,-100,4,2,1,70,0,0
16287,-100,4,2,1,50,0,0
27181,-100,4,2,1,60,0,0
35226,-100,4,2,1,60,0,0
37405,-100,4,2,1,60,0,0
37907,-100,4,2,1,60,0,0
40589,-100,4,2,1,60,0,0
43271,-100,4,2,1,60,0,0
48634,-100,4,2,1,60,0,0
56595,-100,4,2,1,20,0,0
56678,-100,4,2,1,20,0,0
57349,-100,4,2,1,30,0,0
57684,-100,4,2,1,40,0,0
58019,-100,4,2,1,50,0,0
58354,-100,4,2,1,60,0,0
58690,-100,4,2,1,70,0,0
59192,-100,4,2,1,80,0,1
70086,-100,4,2,1,80,0,0
70421,-100,4,2,1,80,0,1
70924,-100,4,2,1,80,0,1
74779,-100,4,2,1,80,0,1
75449,-100,4,2,1,80,0,1
80477,-100,4,2,1,80,0,1
80645,-100,4,2,1,70,0,0
85924,-100,4,2,1,70,0,0
86846,-100,4,2,1,40,0,0
87181,-100,4,2,1,30,0,0
87516,-100,4,2,1,20,0,0
87684,-100,4,2,1,10,0,0
87852,-100,4,2,1,5,0,0

[Colours]
Combo1 : 185,2,52
Combo2 : 15,64,145
Combo3 : 11,204,244
Combo4 : 215,215,215

[HitObjects]
112,80,366,6,0,P|76:172|256:128,1,400,0|8,3:0|0:0,0:0:0:0:
400,80,3047,6,0,P|436:172|256:172,1,350,0|2,3:0|3:2,0:0:0:0:
256,48,4555,2,0,L|256:140,1,50,4|8,0:3|0:0,0:0:0:0:
136,48,5058,2,0,P|124:104|136:148,1,100,8|0,0:0|1:2,0:0:0:0:
140,208,5561,6,0,P|112:256|144:356,1,150,6|8,0:0|0:0,0:0:0:0:
244,280,6399,1,2,0:0:0:0:
356,344,6734,1,8,0:0:0:0:
402,297,6902,2,0,B|428:232|428:232|404:152,1,150,6|8,0:0|0:0,0:0:0:0:
320,56,7740,2,0,B|188:60,1,100,2|8,0:0|0:0,0:0:0:0:
173,105,8243,6,0,L|61:109,1,100,6|2,0:0|0:0,0:0:0:0:
27,154,8745,1,8,0:0:0:0:
119,246,9081,1,2,0:0:0:0:
27,337,9416,1,8,0:0:0:0:
72,382,9583,2,0,L|212:376,1,100,6|2,0:0|0:0,0:0:0:0:
217,331,10086,1,8,0:0:0:0:
344,348,10421,2,0,L|400:348,2,50,2|2|8,0:0|0:0|0:0,0:0:0:0:
304,296,10924,6,0,P|283:231|308:152,1,150,6|8,0:0|0:0,0:0:0:0:
432,188,11762,1,2,0:0:0:0:
492,72,12097,1,8,0:0:0:0:
436,36,12265,2,0,L|328:40,1,100,6|2,0:0|0:0,0:0:0:0:
289,85,12768,1,8,0:0:0:0:
164,52,13103,2,0,L|92:56,1,50,2|2,0:0|0:0,0:0:0:0:
68,100,13438,1,8,0:0:0:0:
108,152,13606,6,0,P|132:216|96:304,1,150,6|8,0:0|0:0,0:0:0:0:
216,360,14444,1,8,0:0:0:0:
324,284,14779,2,0,L|388:288,1,50,8|2,0:0|0:0,0:0:0:0:
392,56,16287,6,0,P|404:112|392:164,1,100,6|2,0:0|0:0,0:0:0:0:
368,212,16790,1,8,0:0:0:0:
204,108,17293,1,8,3:0:0:0:
88,164,17628,2,0,P|72:120|88:56,2,100,2|2|0,0:0|0:0|0:0,0:0:0:0:
136,208,18466,2,0,L|244:204,1,100,2|8,0:0|0:0,0:0:0:0:
308,312,19136,2,0,L|259:315,1,50,2|2,0:0|0:0,0:0:0:0:
215,363,19472,1,8,0:0:0:0:
404,304,19974,6,0,P|412:236|376:168,2,100,8|8|2,3:0|0:0|0:0,0:0:0:0:
376,364,20812,1,8,0:0:0:0:
316,248,21148,2,0,L|316:176,2,50,2|2|8,0:0|0:0|0:0,0:0:0:0:
260,280,21650,1,0,0:0:0:0:
204,316,21818,2,0,L|204:388,2,50,2|2|8,0:0|0:0|0:0,0:0:0:0:
72,172,22656,6,0,L|68:56,2,100,8|8|2,3:0|0:0|0:0,0:0:0:0:
124,212,23494,1,8,0:0:0:0:
232,144,23829,2,0,L|324:148,1,50,2|2,0:0|0:0,0:0:0:0:
328,192,24164,1,8,0:0:0:0:
417,291,24500,2,0,L|368:288,1,50,2|2,0:0|0:0,0:0:0:0:
321,334,24835,1,8,0:0:0:0:
480,220,25338,6,0,P|512:276|508:324,2,100,0|8|2,0:0|0:0|0:0,0:0:0:0:
440,168,26176,1,8,0:0:0:0:
332,96,26511,2,0,L|244:104,1,50,2|2,0:0|0:0,0:0:0:0:
244,152,26846,2,0,L|194:147,1,50,8|0,0:0|0:0,0:0:0:0:
128,148,27181,6,0,P|116:204|132:276,1,100,2|8,0:0|0:0,0:0:0:0:
216,332,27852,2,0,B|264:348|264:348|316:332,1,100,2|0,0:0|0:0,0:0:0:0:
368,300,28354,1,8,0:0:0:0:
424,268,28522,2,0,P|440:220|432:156,1,100,0|8,0:0|0:0,0:0:0:0:
412,112,29025,2,0,P|348:120|300:108,1,100,0|2,0:0|0:0,0:0:0:0:
267,67,29528,1,8,0:0:0:0:
160,140,29863,6,0,L|176:248,1,100,2|8,0:0|0:0,0:0:0:0:
44,240,30533,2,0,L|28:128,1,100,2|0,0:0|0:0,0:0:0:0:
60,84,31036,2,0,B|96:48|96:48|160:36,1,100,8|0,0:0|0:0,0:0:0:0:
208,28,31539,1,8,0:0:0:0:
316,96,31874,2,0,L|376:96,1,50,2|2,0:0|0:0,0:0:0:0:
416,52,32209,5,8,0:0:0:0:
476,168,32544,2,0,P|464:200|460:224,1,50
480,276,32879,2,0,P|468:320|420:352,1,100,8|2,0:0|0:0,0:0:0:0:
304,304,33550,1,0,0:0:0:0:
244,328,33717,2,0,P|184:340|136:332,1,100,8|2,0:0|0:0,0:0:0:0:
84,312,34220,1,8,0:0:0:0:
20,200,34555,2,0,P|8:156|24:100,1,100,8|8,3:0|3:0,0:0:0:0:
60,52,35058,1,8,3:0:0:0:
120,80,35226,6,0,P|228:80|344:64,1,200,6|8,0:0|0:0,0:0:0:0:
412,160,36231,1,0,0:0:0:0:
361,202,36399,2,0,L|369:338,2,100,2|4|0,0:0|0:3|1:0,0:0:0:0:
240,152,37405,2,0,L|236:76,2,50,8|8|8,0:0|0:0|0:0,0:0:0:0:
244,216,37907,6,0,P|184:224|112:200,1,100,6|8,0:0|0:0,0:0:0:0:
80,208,38410,2,0,L|83:257,1,50,0|2,0:0|0:0,0:0:0:0:
8,152,38913,2,0,L|4:92,1,50,8|0,0:0|0:0,0:0:0:0:
40,48,39248,2,0,B|88:28|88:28|136:40,1,100,2|8,0:0|0:0,0:0:0:0:
252,88,39919,2,0,L|312:92,2,50,2|2|8,0:0|0:0|0:0,0:0:0:0:
356,168,40589,6,0,P|387:130|394:80,1,100,2|8,0:0|0:0,0:0:0:0:
380,16,41092,1,0,0:0:0:0:
316,8,41259,2,0,L|216:12,1,100,2|8,0:0|0:0,0:0:0:0:
100,68,41930,2,0,P|88:136|120:200,1,100,2|8,0:0|0:0,0:0:0:0:
144,208,42433,1,0,0:0:0:0:
172,268,42600,2,0,P|176:296|172:332,2,50,2|2|8,0:0|0:0|0:0,0:0:0:0:
292,312,43271,6,0,P|352:292|420:296,1,100,2|8,0:0|0:0,0:0:0:0:
384,160,43941,2,0,P|334:156|287:138,1,100,2|8,0:0|0:0,0:0:0:0:
228,116,44444,2,0,P|176:100|96:112,1,100,0|2,0:0|0:0,0:0:0:0:
84,148,44947,2,0,L|96:224,1,50,8|0,0:0|0:0,0:0:0:0:
44,244,45282,2,0,L|56:320,2,50,2|2|8,0:0|0:0|0:0,0:0:0:0:
168,280,45952,6,0,L|268:272,1,100,2|8,0:0|0:0,0:0:0:0:
460,228,46790,2,0,L|510:231,2,50,2|0|8,0:0|0:0|0:0,0:0:0:0:
408,188,47293,2,0,P|400:136|416:72,1,100,2|8,0:0|0:0,0:0:0:0:
284,60,47963,2,0,P|224:68|168:56,1,100,2|4,0:0|3:0,0:0:0:0:
132,24,48466,1,4,3:0:0:0:
96,80,48634,6,0,P|104:129|96:178,1,100,6|2,3:2|0:0,0:0:0:0:
60,232,49136,2,0,P|48:296|60:360,1,100,0|0,3:0|0:0,0:0:0:0:
100,372,49639,2,0,P|160:376|228:356,1,100,2|2,3:0|0:0,0:0:0:0:
260,340,50142,2,0,P|309:331|358:336,1,100
420,364,50645,1,2,0:0:0:0:
492,256,50980,1,2,0:0:0:0:
416,152,51315,6,0,P|404:84|420:24,1,100,6|2,3:2|0:0,0:0:0:0:
352,20,51818,2,0,P|302:24|254:12,1,100,0|0,3:0|0:0,0:0:0:0:
200,48,52321,1,2,3:2:0:0:
72,20,52656,1,2,0:0:0:0:
4,132,52991,2,0,L|20:244,1,100,2|2,0:0|0:0,0:0:0:0:
116,316,53662,1,2,0:0:0:0:
116,316,53997,6,0,L|252:316,1,100,8|2,0:0|0:0,0:0:0:0:
252,372,54500,2,0,L|364:372,1,100,8|0,0:0|0:0,0:0:0:0:
364,308,55002,2,0,L|500:308,1,100,8|2,0:0|0:0,0:0:0:0:
512,264,55505,2,0,P|506:224|514:156,1,100,8|0,0:0|0:0,0:0:0:0:
460,124,56008,1,10,0:0:0:0:
344,180,56343,2,0,L|348:244,1,50,8|4,0:0|3:0,0:0:0:0:
256,192,56678,12,0,58354,0:0:0:0:
96,56,59192,6,0,L|104:204,1,100,6|0,0:0|0:0,0:0:0:0:
80,216,59695,1,8,0:0:0:0:
112,272,59863,2,0,P|156:280|208:264,1,100,0|2,0:0|0:0,0:0:0:0:
316,192,60533,2,0,P|362:176|411:184,1,100,0|2,0:0|0:0,0:0:0:0:
454,226,61036,1,8,0:0:0:0:
424,276,61203,2,0,P|377:291|328:283,1,100,0|2,0:0|0:0,0:0:0:0:
208,340,61874,6,0,B|160:352|160:352|104:340,2,100,6|2|0,0:0|0:0|0:0,0:0:0:0:
160,220,62879,2,0,B|112:208|112:208|56:220,1,100,2|0,0:0|0:0,0:0:0:0:
12,96,63550,1,0,0:0:0:0:
72,68,63717,2,0,L|132:64,1,50,8|0,0:0|0:0,0:0:0:0:
168,112,64053,2,0,P|220:124|272:112,1,100,2|8,0:0|0:0,0:0:0:0:
320,84,64555,6,0,P|368:75|417:87,1,100,4|0,3:0|0:0,0:0:0:0:
464,132,65058,2,0,L|460:248,1,100,8|2,0:0|0:0,0:0:0:0:
472,296,65561,1,2,0:0:0:0:
360,364,65896,6,0,P|308:352|248:376,1,100,2|2,0:0|0:0,0:0:0:0:
200,372,66399,1,8,0:0:0:0:
148,332,66567,2,0,P|136:284|148:228,1,100,0|2,0:0|0:0,0:0:0:0:
184,184,67069,1,8,0:0:0:0:
224,132,67237,6,0,P|236:84|224:28,1,100
168,4,67740,1,8,0:0:0:0:
52,68,68075,2,0,L|40:20,2,50,2|2|8,0:0|0:0|0:0,0:0:0:0:
72,132,68578,6,0,P|84:188|68:244,1,100,0|2,0:0|0:0,0:0:0:0:
48,288,69081,1,8,0:0:0:0:
140,380,69416,1,4,3:0:0:0:
188,336,69583,2,0,L|244:336,1,50,2|8,0:0|0:0,0:0:0:0:
292,376,69919,6,0,B|340:368|340:368|396:376,1,100,8|0,3:2|0:0,0:0:0:0:
436,329,70421,1,12,0:0:0:0:
408,272,70589,2,0,P|396:224|416:148,1,100,0|2,0:0|0:0,0:0:0:0:
404,44,71259,2,0,B|352:32|352:32|296:44,1,100,0|2,0:0|0:0,0:0:0:0:
248,68,71762,1,8,0:0:0:0:
188,96,71930,2,0,B|142:105|142:105|90:93,1,100,0|2,0:0|0:0,0:0:0:0:
64,220,72600,6,0,L|56:340,2,100,6|2|4,0:0|0:0|0:0,0:0:0:0:
196,224,73606,2,0,L|188:348,1,100,2|6,0:0|0:0,0:0:0:0:
316,356,74276,1,2,0:0:0:0:
362,309,74444,2,0,L|370:201,1,100,8|4,0:0|3:0,0:0:0:0:
323,163,74947,1,8,3:0:0:0:
388,48,75282,1,0,3:0:0:0:
328,20,75449,6,0,P|272:12|220:24,1,100,12|2,0:0|0:0,0:0:0:0:
172,48,75952,2,0,P|122:56|73:48,1,100,8|2,0:0|0:0,0:0:0:0:
27,94,76455,2,0,P|35:143|27:192,1,100,8|2,0:0|0:0,0:0:0:0:
0,252,76958,2,0,P|-8:301|0:350,1,100,8|0,0:0|0:0,0:0:0:0:
56,380,77460,2,0,L|124:372,1,50,8|0,0:0|0:0,0:0:0:0:
148,324,77796,2,0,L|197:329,1,50,8|0,0:0|0:0,0:0:0:0:
244,376,78131,6,0,P|293:385|349:373,1,100,12|2,0:0|0:0,0:0:0:0:
400,344,78634,2,0,P|449:335|505:347,1,100,2|8,0:0|0:3,0:0:0:0:
508,280,79136,2,0,L|512:228,1,50,4|4,0:3|0:3,0:0:0:0:
232,84,80645,6,0,P|176:76|116:92,1,100,6|2,0:0|0:0,0:0:0:0:
76,112,81148,1,8,0:0:0:0:
100,240,81483,2,0,L|96:304,1,50,2|2,0:0|0:0,0:0:0:0:
48,332,81818,1,8,0:0:0:0:
96,376,81986,6,0,B|188:396|164:352|256:372,1,150,6|8,0:0|0:0,0:0:0:0:
332,276,82824,2,0,L|334:212,1,50,2|2,0:0|0:0,0:0:0:0:
288,180,83159,1,8,0:0:0:0:
243,133,83326,6,0,P|236:92|256:24,1,100,6|0,0:0|0:0,0:0:0:0:
304,0,83829,1,8,0:0:0:0:
392,96,84164,1,8,0:0:0:0:
289,179,84500,2,0,L|221:179,1,50,8|8,0:0|0:0,0:0:0:0:
192,225,84835,5,8,0:0:0:0:
76,164,85170,2,0,L|72:100,1,50,8|8,0:0|0:0,0:0:0:0:
184,44,85673,2,0,L|187:93,1,50,8|8,0:0|0:0,0:0:0:0:
256,192,86176,12,0,87852,0:0:0:0:
