osu file format v14

[General]
AudioFilename: audio.mp3
AudioLeadIn: 0
PreviewTime: 58312
Countdown: 0
SampleSet: Soft
StackLeniency: 0.7
Mode: 0
LetterboxInBreaks: 0
WidescreenStoryboard: 0

[Editor]
Bookmarks: 5561,16455,37907
DistanceSpacing: 0.5
BeatDivisor: 4
GridSize: 4
TimelineZoom: 1.7

[Metadata]
Title:Climber's High!
TitleUnicode:Climber's High!
Artist:Manami Numakura
ArtistUnicode:沼倉愛美
Creator:Owens
Version:Meg's Wind
Source:風夏
Tags:fuuka anime climbers opening tv size Realazy Meg Pachiru Kyuukai Yaleufeu
BeatmapID:1254973
BeatmapSetID:589638

[Difficulty]
HPDrainRate:6
CircleSize:4
OverallDifficulty:9
ApproachRate:9.3
SliderMultiplier:1.7
SliderTickRate:1

[Events]
//Background and Video events
0,0,"772763.jpg",0,0
Video,0,"fuuka+movie.avi"
//Break Periods
//Storyboard Layer 0 (Background)
//Storyboard Layer 1 (Fail)
//Storyboard Layer 2 (Pass)
//Storyboard Layer 3 (Foreground)
//Storyboard Sound Samples

[TimingPoints]
366,335.195530726257,4,2,1,50,1,0
366,-200,4,2,1,50,0,0
4555,-100,4,2,1,60,0,0
5561,-100,4,2,1,70,0,0
16287,-133.333333333333,4,2,1,50,0,0
27181,-100,4,2,1,60,0,0
35226,-133.333333333333,4,2,1,60,0,0
37907,-100,4,2,1,60,0,0
56595,-100,4,2,1,20,0,0
57349,-100,4,2,1,30,0,0
57684,-100,4,2,1,40,0,0
58019,-100,4,2,1,50,0,0
58354,-100,4,2,1,60,0,0
58690,-100,4,2,1,70,0,0
59192,-86.9565217391304,4,2,1,80,0,1
70086,-133.333333333333,4,2,1,80,0,0
70421,-86.9565217391303,4,2,1,80,0,1
80645,-86.9565217391303,4,2,1,70,0,0
86846,-86.9565217391303,4,2,1,40,0,0
87181,-86.9565217391303,4,2,1,30,0,0
87516,-86.9565217391303,4,2,1,20,0,0
87684,-86.9565217391303,4,2,1,10,0,0
87852,-86.9565217391303,4,2,1,5,0,0

[Colours]
Combo1 : 185,2,52
Combo2 : 15,64,145
Combo3 : 11,204,244
Combo4 : 215,215,215

[HitObjects]
320,76,366,6,0,L|310:117,1,42.5,0|0,3:0|3:0,0:0:0:0:
192,140,701,2,0,L|201:181,1,42.5,0|0,3:0|3:0,0:0:0:0:
320,204,1036,2,0,L|310:245,1,42.5,0|0,3:0|3:0,0:0:0:0:
192,268,1371,1,0,3:0:0:0:
320,332,1539,5,4,0:3:0:0:
320,332,1622,1,4,0:3:0:0:
320,332,1706,1,8,0:0:0:0:
320,204,1874,1,2,0:0:0:0:
430,268,2041,1,2,0:0:0:0:
192,268,2209,5,4,3:0:0:0:
192,140,2377,1,2,0:0:0:0:
82,204,2544,1,2,0:0:0:0:
320,204,2712,5,2,0:0:0:0:
320,76,2879,1,2,0:0:0:0:
430,140,3047,6,0,L|388:149,1,42.5,0|0,3:0|3:0,0:0:0:0:
328,244,3382,2,0,L|286:234,1,42.5,0|0,3:0|3:0,0:0:0:0:
226,140,3717,2,0,L|184:149,1,42.5,0|0,3:0|3:0,0:0:0:0:
124,244,4053,1,0,3:0:0:0:
22,140,4220,1,2,3:2:0:0:
22,140,4555,5,4,0:3:0:0:
22,140,4639,1,4,0:3:0:0:
22,140,4723,2,0,L|35:180,1,42.5,8|8,0:0|0:0,0:0:0:0:
75,314,4891,2,0,L|88:274,1,42.5,2|8,0:0|0:0,0:0:0:0:
191,204,5058,1,8,0:0:0:0:
229,185,5142,1,8,0:0:0:0:
271,188,5226,1,8,0:0:0:0:
305,212,5310,1,8,0:0:0:0:
339,236,5393,1,0,1:2:0:0:
381,239,5477,1,0,1:0:0:0:
418,219,5561,6,0,P|449:192|468:154,1,85,6|0,0:0|0:0,0:0:0:0:
316,32,5896,1,2,0:0:0:0:
316,32,5980,1,0,0:0:0:0:
316,32,6064,2,0,L|323:116,1,85,8|0,0:0|0:0,0:0:0:0:
292,308,6399,1,2,0:0:0:0:
229,185,6567,1,2,0:0:0:0:
418,219,6734,1,8,0:0:0:0:
268,336,6902,6,0,B|212:296|212:296|112:314,1,170,6|2,0:0|0:0,0:0:0:0:
296,228,7405,2,0,L|365:277,1,85,8|0,0:0|0:0,0:0:0:0:
188,224,7740,1,2,0:0:0:0:
364,156,7907,1,2,0:0:0:0:
218,38,8075,1,8,0:0:0:0:
387,164,8243,6,0,P|429:155|468:139,1,85,6|0,0:0|0:0,0:0:0:0:
365,277,8578,1,2,0:0:0:0:
197,139,8745,2,0,L|187:223,1,85,8|0,0:0|0:0,0:0:0:0:
387,164,9081,1,2,0:0:0:0:
264,288,9248,1,2,0:0:0:0:
433,333,9416,1,8,0:0:0:0:
467,138,9583,6,0,P|407:83|328:103,1,170,6|2,0:0|0:0,0:0:0:0:
187,223,10086,2,0,L|272:208,1,85,8|0,0:0|0:0,0:0:0:0:
144,64,10421,2,0,L|59:49,1,85,2|2,0:0|0:0,0:0:0:0:
103,237,10757,1,8,0:0:0:0:
276,124,10924,6,0,B|280:164|280:164|270:207,1,85,6|0,0:0|0:0,0:0:0:0:
204,336,11259,1,2,0:0:0:0:
340,256,11427,2,0,P|382:261|423:271,1,85,8|0,0:0|0:0,0:0:0:0:
192,160,11762,2,0,P|149:165|108:175,1,85,2|2,0:0|0:0,0:0:0:0:
256,78,12097,1,8,0:0:0:0:
340,256,12265,6,0,B|320:144|320:144|299:160|271:171,1,170,6|2,0:0|0:0,0:0:0:0:
400,48,12768,2,0,P|439:62|480:75,1,85,8|0,0:0|0:0,0:0:0:0:
423,271,13103,1,2,0:0:0:0:
271,171,13271,1,2,0:0:0:0:
416,132,13438,1,8,0:0:0:0:
352,336,13606,6,0,B|280:360|244:296|244:296|251:253,1,170,6|2,0:0|0:0,0:0:0:0:
297,85,14109,1,8,0:0:0:0:
73,181,14276,1,0,0:0:0:0:
345,245,14444,1,8,0:0:0:0:
135,79,14611,1,0,0:0:0:0:
219,353,14779,1,8,0:0:0:0:
416,132,14947,1,2,0:0:0:0:
256,192,15114,12,2,16120,0:3:0:0:
116,336,16287,6,0,L|93:210,1,127.500004863739,6|2,0:0|0:0,0:0:0:0:
36,108,16790,2,0,P|67:112|99:109,1,63.7500024318696,8|0,0:0|0:0,0:0:0:0:
116,104,17041,1,0,0:0:0:0:
128,96,17125,2,0,L|149:35,1,63.7500024318696,0|8,3:0|3:0,0:0:0:0:
208,180,17460,1,0,0:0:0:0:
356,104,17628,6,0,P|300:76|240:92,1,127.500004863739,2|2,0:0|0:0,0:0:0:0:
364,200,18131,1,8,0:0:0:0:
448,84,18298,2,0,L|445:52,2,31.8750012159348,0|0|2,0:0|0:0|0:0,0:0:0:0:
472,180,18634,1,2,0:0:0:0:
364,200,18801,1,8,0:0:0:0:
436,284,18969,1,0,0:0:0:0:
328,304,19136,6,0,L|265:289,1,63.7500024318696,2|2,0:0|0:0,0:0:0:0:
157,309,19472,1,8,0:0:0:0:
260,52,19807,1,0,0:0:0:0:
260,52,19974,2,0,L|267:115,1,63.7500024318696,8|0,3:0|0:0,0:0:0:0:
277,210,20310,1,8,0:0:0:0:
160,144,20477,6,0,P|128:140|96:141,1,63.7500024318696,0|2,0:0|0:0,0:0:0:0:
24,208,20812,1,8,0:0:0:0:
172,296,20980,1,4,3:0:0:0:
168,280,21064,1,4,3:0:0:0:
165,264,21148,1,2,0:0:0:0:
64,328,21315,1,2,0:0:0:0:
256,360,21483,2,0,P|287:363|319:362,1,63.7500024318696,8|0,0:0|0:0,0:0:0:0:
436,304,21818,5,2,0:0:0:0:
400,160,21986,1,2,0:0:0:0:
436,304,22153,2,0,L|442:240,1,63.7500024318696,8|0,0:0|0:0,0:0:0:0:
312,132,22488,2,0,L|318:195,1,63.7500024318696,0|8,0:0|3:0,0:0:0:0:
442,80,22824,1,0,0:0:0:0:
442,240,22991,6,0,B|394:252|394:252|317:234,1,127.500004863739,8|2,0:0|0:0,0:0:0:0:
228,328,23494,2,0,P|199:313|170:301,1,63.7500024318696,8|0,0:0|0:0,0:0:0:0:
152,304,23745,1,4,3:0:0:0:
134,307,23829,1,2,0:0:0:0:
16,348,23997,1,2,0:0:0:0:
108,208,24164,2,0,P|107:176|98:145,1,63.7500024318696,8|2,0:0|0:0,0:0:0:0:
88,132,24416,1,2,0:0:0:0:
77,118,24500,6,0,P|68:87|67:55,1,63.7500024318696,2|2,0:0|0:0,0:0:0:0:
184,68,24835,1,8,0:0:0:0:
30,182,25002,2,0,P|10:155|0:126,1,63.7500024318696
176,189,25338,1,2,0:0:0:0:
176,189,25505,2,0,B|208:181|208:181|238:186,1,63.7500024318696,0|8,3:0|0:0,0:0:0:0:
112,280,25840,6,0,B|80:288|80:288|49:282,2,63.7500024318696,0|2|8,0:0|0:0|0:0,0:0:0:0:
256,344,26343,1,4,3:0:0:0:
256,344,26427,1,4,3:0:0:0:
256,344,26511,1,2,0:0:0:0:
239,187,26678,1,2,0:0:0:0:
112,280,26846,1,8,0:0:0:0:
331,356,27014,2,0,P|332:340|331:324,1,31.8750012159348,0|2,0:0|0:0,0:0:0:0:
280,256,27181,6,0,L|196:268,1,85,2|0,0:0|0:0,0:0:0:0:
352,144,27516,2,0,L|436:156,1,85,8|0,0:0|0:0,0:0:0:0:
300,36,27852,2,0,P|289:54|277:71,1,42.5,2|4,0:0|3:0,0:0:0:0:
200,112,28019,1,2,0:0:0:0:
384,60,28187,1,0,0:0:0:0:
260,183,28354,6,0,P|222:202|179:204,1,85,8|0,0:0|0:0,0:0:0:0:
88,36,28690,1,2,0:0:0:0:
16,136,28857,1,8,0:0:0:0:
200,112,29025,1,0,0:0:0:0:
200,112,29109,1,4,3:0:0:0:
200,112,29192,2,0,B|212:72|212:72|204:29,1,85,2|2,0:0|0:0,0:0:0:0:
16,136,29528,1,8,0:0:0:0:
179,204,29695,2,0,L|220:196,1,42.5,0|2,0:0|0:0,0:0:0:0:
96,288,29863,6,0,L|12:273,1,85,2|0,0:0|0:0,0:0:0:0:
12,273,30114,1,4,3:0:0:0:
12,273,30198,1,8,0:0:0:0:
108,100,30366,2,0,L|116:141,1,42.5,0|2,0:0|0:0,0:0:0:0:
211,238,30533,2,0,L|219:196,2,42.5,2|4|2,0:0|3:0|0:0,0:0:0:0:
96,288,30868,1,0,0:0:0:0:
272,364,31036,6,0,P|352:337|436:323,1,170,8|0,0:0|0:0,0:0:0:0:
504,176,31539,1,8,0:0:0:0:
388,100,31706,1,0,0:0:0:0:
388,100,31790,1,4,3:0:0:0:
388,100,31874,1,2,0:0:0:0:
336,180,32041,1,2,0:0:0:0:
484,84,32209,1,8,0:0:0:0:
298,64,32377,2,0,P|293:84|291:105,1,42.5,0|2,0:0|0:0,0:0:0:0:
419,183,32544,6,0,L|504:176,1,85,2|2,0:0|0:0,0:0:0:0:
376,364,32879,2,0,L|368:279,1,85,8|0,0:0|0:0,0:0:0:0:
352,248,33131,1,0,0:0:0:0:
352,248,33215,2,0,L|309:251,1,42.5,2|4,0:0|3:0,0:0:0:0:
139,265,33382,1,2,0:0:0:0:
288,160,33550,1,0,0:0:0:0:
232,352,33717,6,0,P|222:310|217:268,1,85,8|0,0:0|0:0,0:0:0:0:
288,160,34053,1,2,0:0:0:0:
92,192,34220,2,0,P|37:163|32:102,1,127.5,8|4,0:0|3:0,0:0:0:0:
60,72,34555,1,8,3:0:0:0:
168,32,34723,1,8,3:0:0:0:
226,131,34891,1,8,3:0:0:0:
334,91,35058,1,8,3:0:0:0:
392,190,35226,6,0,L|376:324,2,127.500004863739,6|0|8,0:0|0:0|0:0,0:0:0:0:
480,24,36231,2,0,P|487:55|491:86,1,63.7500024318696,0|2,0:0|0:0,0:0:0:0:
392,190,36567,1,4,0:3:0:0:
272,208,36734,1,4,0:3:0:0:
356,64,36902,1,4,0:3:0:0:
428,316,37069,1,0,1:0:0:0:
428,316,37405,5,8,0:0:0:0:
152,226,37572,1,8,0:0:0:0:
491,86,37740,1,8,0:0:0:0:
319,257,37907,6,0,L|152:226,1,170,6|8,0:0|0:0,0:0:0:0:
228,92,38410,1,0,0:0:0:0:
403,187,38578,2,0,P|421:226|426:268,1,85,2|2,0:0|0:0,0:0:0:0:
204,352,38913,2,0,P|209:309|226:271,1,85,8|0,0:0|0:0,0:0:0:0:
323,96,39248,5,2,0:0:0:0:
323,96,39416,1,2,0:0:0:0:
426,268,39583,1,8,0:0:0:0:
426,268,39751,1,0,0:0:0:0:
226,271,39919,2,0,L|142:256,1,85,2|2,0:0|0:0,0:0:0:0:
340,200,40254,2,0,L|423:185,1,85,8|0,0:0|0:0,0:0:0:0:
196,68,40589,5,2,0:0:0:0:
140,144,40757,1,0,0:0:0:0:
290,79,40924,1,8,0:0:0:0:
102,57,41092,1,0,0:0:0:0:
234,155,41259,1,2,0:0:0:0:
84,220,41427,1,2,0:0:0:0:
196,68,41595,1,8,0:0:0:0:
272,242,41762,1,0,0:0:0:0:
140,144,41930,5,2,0:0:0:0:
178,231,42097,1,2,0:0:0:0:
328,166,42265,1,8,0:0:0:0:
216,318,42433,1,0,0:0:0:0:
234,155,42600,1,2,0:0:0:0:
310,329,42768,1,2,0:0:0:0:
122,307,42935,1,8,0:0:0:0:
46,133,43103,1,4,3:0:0:0:
46,133,43187,1,4,3:0:0:0:
46,133,43271,6,0,L|59:49,1,85,2|0,0:0|0:0,0:0:0:0:
234,155,43606,2,0,L|247:238,1,85,8|0,0:0|0:0,0:0:0:0:
55,244,43941,2,0,P|93:224|135:216,1,85,2|2,0:0|0:0,0:0:0:0:
256,328,44276,1,8,0:0:0:0:
140,116,44444,1,0,0:0:0:0:
348,88,44611,6,0,B|347:130|347:130|330:168,1,85,2|2,0:0|0:0,0:0:0:0:
176,304,44947,1,8,0:0:0:0:
263,119,45114,1,0,0:0:0:0:
301,319,45282,1,2,0:0:0:0:
152,180,45449,1,2,0:0:0:0:
355,207,45617,1,8,0:0:0:0:
278,29,45784,1,0,0:0:0:0:
151,180,45952,6,0,P|109:185|68:176,1,85,2|0,0:0|0:0,0:0:0:0:
191,320,46287,2,0,P|250:296|314:296,1,127.5,8|0,0:0|0:0,0:0:0:0:
348,312,46622,1,2,0:0:0:0:
300,112,46790,1,2,0:0:0:0:
240,208,46958,1,0,0:0:0:0:
420,124,47125,1,8,0:0:0:0:
240,36,47293,2,0,L|155:46,1,85,2|0,0:0|0:0,0:0:0:0:
180,304,47628,5,8,0:0:0:0:
300,112,47796,1,0,0:0:0:0:
177,161,47963,5,2,0:0:0:0:
312,245,48131,1,4,3:0:0:0:
177,161,48298,1,4,3:0:0:0:
312,245,48466,1,4,3:0:0:0:
55,236,48634,6,0,P|48:193|47:151,1,85,6|0,3:2|0:0,0:0:0:0:
155,45,48969,1,2,0:0:0:0:
271,228,49136,6,0,P|237:254|201:276,1,85,0|2,3:0|0:0,0:0:0:0:
55,236,49472,1,0,0:0:0:0:
155,43,49639,6,0,P|195:59|232:80,1,85,2|8,3:0|0:0,0:0:0:0:
271,227,49974,1,2,0:0:0:0:
404,48,50142,5,0,0:0:0:0:
268,100,50310,1,2,0:0:0:0:
382,192,50477,1,0,0:0:0:0:
320,34,50645,5,2,0:0:0:0:
271,227,50812,1,0,0:0:0:0:
493,157,50980,1,2,0:0:0:0:
268,100,51148,1,0,0:0:0:0:
467,270,51315,6,0,L|447:352,1,85,6|0,3:2|0:0,0:0:0:0:
493,157,51650,1,2,0:0:0:0:
328,276,51818,6,0,L|308:358,1,85,0|2,3:0|0:0,0:0:0:0:
354,163,52153,1,0,0:0:0:0:
189,282,52321,6,0,L|169:364,1,85,2|8,3:2|0:0,0:0:0:0:
215,169,52656,1,2,0:0:0:0:
448,267,52824,5,0,0:0:0:0:
405,270,52907,1,0,0:0:0:0:
363,274,52991,1,2,0:0:0:0:
392,152,53159,1,0,0:0:0:0:
447,352,53326,1,2,0:0:0:0:
246,299,53494,1,8,0:0:0:0:
476,176,53662,1,2,0:0:0:0:
307,358,53829,1,0,0:0:0:0:
233,120,53997,5,0,0:0:0:0:
328,276,54164,1,0,0:0:0:0:
328,276,54248,1,0,0:0:0:0:
328,275,54332,2,0,P|368:264|410:257,1,85,2|8,0:0|0:0,0:0:0:0:
152,172,54667,1,0,0:0:0:0:
246,299,54835,1,0,0:0:0:0:
308,80,55002,1,8,0:0:0:0:
116,98,55170,1,0,0:0:0:0:
88,108,55254,1,0,0:0:0:0:
59,117,55338,5,2,0:0:0:0:
256,192,55505,1,8,0:0:0:0:
204,20,55673,1,2,0:0:0:0:
144,276,55840,1,0,0:0:0:0:
396,200,56008,1,2,0:0:0:0:
64,116,56176,1,0,0:0:0:0:
332,40,56343,1,8,0:0:0:0:
256,360,56511,1,4,3:0:0:0:
256,192,56678,12,0,58857,3:0:0:0:
416,124,59192,6,0,L|319:138,1,97.7500018644333,6|0,0:0|0:0,0:0:0:0:
136,156,59528,1,0,0:0:0:0:
256,24,59695,1,8,0:0:0:0:
276,228,59863,2,0,L|264:325,1,97.7500018644333,0|2,0:0|0:0,0:0:0:0:
319,138,60198,1,2,0:0:0:0:
140,284,60366,1,8,0:0:0:0:
356,367,60533,6,0,L|367:269,1,97.7500018644333,0|2,0:0|0:0,0:0:0:0:
248,136,60868,1,2,0:0:0:0:
468,80,61036,1,8,0:0:0:0:
276,228,61203,2,0,P|227:224|179:216,1,97.7500018644333,0|2,0:0|0:0,0:0:0:0:
371,68,61539,2,0,P|419:71|467:79,1,97.7500018644333,2|8,0:0|0:0,0:0:0:0:
303,323,61874,6,0,P|211:303|178:215,1,195.500003728867,6|2,0:0|0:0,0:0:0:0:
252,48,62377,1,8,0:0:0:0:
366,210,62544,2,0,B|326:234|326:234|275:227,1,97.7500018644333,0|2,0:0|0:0,0:0:0:0:
76,156,62879,2,0,B|116:132|116:132|166:138,1,97.7500018644333,2|8,0:0|0:0,0:0:0:0:
303,323,63215,1,0,0:0:0:0:
80,372,63382,6,0,B|64:249|64:249|132:270,1,195.500003728867,6|8,0:0|0:0,0:0:0:0:
166,138,63885,1,0,0:0:0:0:
0,192,64053,1,2,0:0:0:0:
192,332,64220,2,0,P|214:289|211:241,1,97.7500018644333,2|8,0:0|0:0,0:0:0:0:
88,72,64555,1,4,3:0:0:0:
88,72,64639,1,4,3:0:0:0:
88,72,64723,6,0,L|78:169,1,97.7500018644333,2|0,0:0|0:0,0:0:0:0:
298,276,65058,2,0,P|259:249|211:240,1,97.7500018644333,8|0,0:0|0:0,0:0:0:0:
80,372,65393,1,2,0:0:0:0:
78,169,65561,2,0,P|117:141|165:132,1,97.7500018644333,2|8,0:0|0:0,0:0:0:0:
280,16,65896,6,0,B|316:76|316:76|277:195,1,195.500003728867,2|2,0:0|0:0,0:0:0:0:
313,371,66399,1,8,0:0:0:0:
496,248,66567,2,0,P|448:237|399:235,1,97.7500018644333,0|2,0:0|0:0,0:0:0:0:
176,300,66902,1,2,0:0:0:0:
360,168,67069,1,8,0:0:0:0:
313,371,67237,6,0,P|301:323|297:275,1,97.7500018644333,0|2,0:0|0:0,0:0:0:0:
376,64,67572,1,0,0:0:0:0:
239,169,67740,1,8,0:0:0:0:
399,235,67907,1,0,0:0:0:0:
264,61,68075,1,2,0:0:0:0:
296,272,68243,1,2,0:0:0:0:
463,140,68410,1,8,0:0:0:0:
239,168,68578,6,0,P|190:169|144:154,1,97.7500018644333,0|2,0:0|0:0,0:0:0:0:
376,64,68913,1,2,0:0:0:0:
430,267,69081,2,0,P|395:301|352:323,1,97.7500018644333,8|0,0:0|0:0,0:0:0:0:
327,324,69332,1,4,3:0:0:0:
303,320,69416,2,0,L|295:271,1,48.8750009322167,4|4,3:0|3:0,0:0:0:0:
219,128,69583,1,2,0:0:0:0:
92,280,69751,1,8,0:0:0:0:
360,136,69919,1,8,3:2:0:0:
360,136,70002,1,8,3:2:0:0:
360,136,70086,6,0,L|367:72,1,63.7500024318696,2|0,0:0|0:0,0:0:0:0:
510,251,70421,6,0,P|492:266|469:274,1,48.8750009322167,12|0,0:0|0:0,0:0:0:0:
337,301,70589,2,0,P|305:264|263:238,1,97.7500018644333,0|2,0:0|0:0,0:0:0:0:
64,164,70924,1,2,0:0:0:0:
8,312,71092,1,8,0:0:0:0:
176,360,71259,6,0,L|185:262,1,97.7500018644333,0|2,0:0|0:0,0:0:0:0:
277,77,71595,1,2,0:0:0:0:
64,164,71762,1,8,0:0:0:0:
304,260,71930,2,0,L|399:238,1,97.7500018644333,0|2,0:0|0:0,0:0:0:0:
159,142,72265,2,0,L|63:163,1,97.7500018644333,2|8,0:0|0:0,0:0:0:0:
280,356,72600,6,0,B|376:332|376:332|399:238,1,195.500003728867,6|2,0:0|0:0,0:0:0:0:
277,77,73103,1,8,0:0:0:0:
122,206,73271,2,0,L|264:240,1,146.62500279665,4|0,0:0|0:0,0:0:0:0:
278,264,73606,1,2,0:0:0:0:
475,194,73773,1,8,0:0:0:0:
356,40,73941,6,0,B|346:81|368:112|368:112|340:152|340:152|360:176|353:220,1,195.500003728867,6|2,0:0|0:0,0:0:0:0:
492,336,74444,2,0,P|449:311|401:305,1,97.7500018644333,8|0,0:0|0:0,0:0:0:0:
223,356,74779,1,4,3:0:0:0:
196,369,74863,1,4,3:0:0:0:
166,373,74947,1,8,3:0:0:0:
137,366,75030,1,8,3:0:0:0:
112,349,75114,1,10,3:2:0:0:
94,324,75198,1,2,3:2:0:0:
86,295,75282,1,0,3:0:0:0:
89,265,75366,1,0,3:0:0:0:
102,236,75449,6,0,P|150:234|198:243,1,97.7500018644333,12|0,0:0|0:0,0:0:0:0:
292,320,75784,1,2,0:0:0:0:
388,160,75952,6,0,P|339:157|291:166,1,97.7500018644333,8|0,0:0|0:0,0:0:0:0:
198,243,76287,1,2,0:0:0:0:
101,82,76455,6,0,P|149:79|197:88,1,97.7500018644333,8|0,0:0|0:0,0:0:0:0:
291,166,76790,1,2,0:0:0:0:
387,5,76958,6,0,P|338:2|290:11,1,97.7500018644333,8|0,0:0|0:0,0:0:0:0:
197,88,77293,1,0,0:0:0:0:
385,254,77460,6,0,P|394:207|387:159,1,97.7500018644333,8|0,0:0|0:0,0:0:0:0:
101,82,77796,2,0,P|91:129|98:177,1,97.7500018644333,8|0,0:0|0:0,0:0:0:0:
260,356,78131,5,12,0:0:0:0:
260,356,78466,1,2,0:0:0:0:
256,192,78634,1,2,0:0:0:0:
164,308,78801,1,8,0:3:0:0:
348,252,78969,1,8,0:3:0:0:
98,177,79136,1,4,0:3:0:0:
423,76,79304,1,4,0:3:0:0:
258,274,79472,5,8,3:2:0:0:
274,286,79807,1,8,3:2:0:0:
325,317,79891,1,8,3:2:0:0:
384,309,79974,1,4,3:0:0:0:
426,267,80058,1,4,3:0:0:0:
433,207,80142,6,0,P|416:189|396:175,1,48.8750009322167,8|8,3:0|3:0,0:0:0:0:
231,205,80310,2,0,P|254:199|277:189,1,48.8750009322167,2|2,3:2|3:2,0:0:0:0:
334,31,80477,2,0,P|326:54|324:78,1,48.8750009322167,8|0,0:0|0:0,0:0:0:0:
246,328,80645,6,0,B|116:344|116:344|62:308,1,195.500003728867,6|2,0:0|0:0,0:0:0:0:
72,88,81148,1,8,0:0:0:0:
136,252,81315,1,0,0:0:0:0:
136,252,81399,1,4,3:0:0:0:
136,252,81483,1,2,0:0:0:0:
244,156,81650,1,2,0:0:0:0:
40,192,81818,1,8,0:0:0:0:
320,224,81986,6,0,P|345:133|282:64,1,195.500003728867,6|2,0:0|0:0,0:0:0:0:
136,252,82488,2,0,L|149:348,1,97.7500018644333,8|0,0:0|0:0,0:0:0:0:
149,348,82740,1,4,3:0:0:0:
149,348,82824,1,2,0:0:0:0:
244,156,82991,1,2,0:0:0:0:
40,192,83159,1,8,0:0:0:0:
271,349,83326,6,0,L|243:155,1,195.500003728867,6|0,0:0|0:0,0:0:0:0:
104,120,83829,1,8,0:0:0:0:
324,16,83997,1,0,0:0:0:0:
134,211,84164,1,8,0:0:0:0:
404,176,84332,1,0,0:0:0:0:
114,304,84500,1,8,0:0:0:0:
393,354,84667,1,8,0:0:0:0:
104,120,84835,5,8,0:0:0:0:
308,244,85170,1,8,0:0:0:0:
332,140,85338,1,8,0:0:0:0:
128,224,85673,1,8,0:0:0:0:
152,328,85841,1,8,0:0:0:0:
256,192,86008,12,0,87852,0:0:0:0:
