osu file format v14

[General]
AudioFilename: audio.mp3
AudioLeadIn: 0
PreviewTime: 2055
Countdown: 0
SampleSet: Soft
StackLeniency: 0.7
Mode: 3
LetterboxInBreaks: 0
SpecialStyle: 0
WidescreenStoryboard: 0

[Editor]
DistanceSpacing: 1
BeatDivisor: 4
GridSize: 4
TimelineZoom: 0.6500006

[Metadata]
Title:Looking for a House
TitleUnicode:Looking for a House
Artist:Manaka Tominaga & Shiho Fujii
ArtistUnicode:富永真央 & 藤井志帆
Creator:Adiopulse
Version:Normal 7k
Source:街へ行こうよ どうぶつの森
Tags:animal crossing city folk let's go to the city おいでよ どうぶつの森 wild world nintendo ds wii kataoka
BeatmapID:1364480
BeatmapSetID:643725

[Difficulty]
HPDrainRate:7
CircleSize:7
OverallDifficulty:7
ApproachRate:5
SliderMultiplier:1.4
SliderTickRate:1

[Events]
//Background and Video events
0,0,"Background.png",0,0
//Break Periods
//Storyboard Layer 0 (Background)
//Storyboard Layer 1 (Fail)
//Storyboard Layer 2 (Pass)
//Storyboard Layer 3 (Foreground)
//Storyboard Sound Samples

[TimingPoints]
36,576.923076923077,4,2,1,5,1,0

[HitObjects]
402,192,36,5,0,0:0:0:0:
109,192,324,1,0,0:0:0:0:
298,192,612,1,0,0:0:0:0:
213,192,901,1,0,0:0:0:0:
475,192,1189,1,0,0:0:0:0:
36,192,1478,1,0,0:0:0:0:
298,192,1766,1,0,0:0:0:0:
42,192,2055,1,0,0:0:0:0:
256,192,2055,1,0,0:0:0:0:
475,192,2343,1,4,0:0:0:0:
402,192,2343,1,0,0:0:0:0:
182,192,2632,1,0,0:0:0:0:
329,192,2632,1,0,0:0:0:0:
51,192,2920,1,0,0:0:0:0:
256,192,2920,1,0,0:0:0:0:
384,192,3209,1,4,0:0:0:0:
128,192,3209,1,0,0:0:0:0:
329,192,3497,1,4,0:0:0:0:
182,192,3497,1,0,0:0:0:0:
475,192,3786,1,0,0:0:0:0:
256,192,4074,1,0,0:0:0:0:
109,192,4362,1,0,0:0:0:0:
402,192,4651,1,0,0:0:0:0:
298,192,4651,1,4,0:0:0:0:
36,192,4939,1,0,0:0:0:0:
109,192,5228,1,0,0:0:0:0:
402,192,5516,1,0,0:0:0:0:
182,192,5516,1,4,0:0:0:0:
36,192,5805,1,4,0:0:0:0:
475,192,5805,1,0,0:0:0:0:
256,192,6093,1,0,0:0:0:0:
329,192,6382,1,0,0:0:0:0:
182,192,6670,1,0,0:0:0:0:
109,192,6959,1,4,0:0:0:0:
402,192,6959,1,0,0:0:0:0:
64,192,7247,1,0,0:0:0:0:
256,192,7536,1,0,0:0:0:0:
469,192,7536,128,0,7680:0:0:0:0:
182,192,7824,1,0,0:0:0:0:
128,192,7824,1,4,0:0:0:0:
298,192,8112,1,4,0:0:0:0:
256,192,8112,1,0,0:0:0:0:
402,192,8401,1,0,0:0:0:0:
64,192,8689,1,0,0:0:0:0:
128,192,8978,1,0,0:0:0:0:
384,192,9266,1,0,0:0:0:0:
256,192,9266,1,4,0:0:0:0:
329,192,9555,1,0,0:0:0:0:
182,192,9843,1,0,0:0:0:0:
402,192,10132,1,0,0:0:0:0:
475,192,10132,1,4,0:0:0:0:
109,192,10420,1,0,0:0:0:0:
36,192,10420,1,4,0:0:0:0:
329,192,10709,1,0,0:0:0:0:
256,192,10997,1,0,0:0:0:0:
213,192,11286,1,0,0:0:0:0:
36,192,11286,1,0,0:0:0:0:
460,192,11574,1,4,0:0:0:0:
329,192,11574,1,0,0:0:0:0:
256,192,11862,1,0,0:0:0:0:
128,192,11862,1,0,0:0:0:0:
402,192,12151,1,0,0:0:0:0:
182,192,12151,1,0,0:0:0:0:
475,192,12439,1,0,0:0:0:0:
256,192,12439,1,4,0:0:0:0:
42,192,12728,1,4,0:0:0:0:
182,192,12728,1,0,0:0:0:0:
402,192,13016,1,0,0:0:0:0:
182,192,13305,1,0,0:0:0:0:
109,192,13593,1,0,0:0:0:0:
51,192,13882,1,4,0:0:0:0:
448,192,13882,1,0,0:0:0:0:
329,192,14170,1,0,0:0:0:0:
109,192,14459,1,0,0:0:0:0:
256,192,14747,1,4,0:0:0:0:
153,192,14747,1,0,0:0:0:0:
460,192,15036,1,4,0:0:0:0:
320,192,15036,1,0,0:0:0:0:
36,192,15324,1,0,0:0:0:0:
182,192,15612,1,0,0:0:0:0:
128,192,15901,1,0,0:0:0:0:
402,192,16189,1,0,0:0:0:0:
256,192,16189,1,4,0:0:0:0:
469,192,16478,1,0,0:0:0:0:
109,192,16766,1,0,0:0:0:0:
36,192,16766,128,0,16911:0:0:0:0:
256,192,17055,1,0,0:0:0:0:
469,192,17055,1,4,0:0:0:0:
402,192,17343,1,0,0:0:0:0:
182,192,17343,1,4,0:0:0:0:
109,192,17632,1,0,0:0:0:0:
329,192,17920,1,0,0:0:0:0:
182,192,18209,1,0,0:0:0:0:
64,192,18497,1,4,0:0:0:0:
475,192,18497,1,0,0:0:0:0:
109,192,18786,1,0,0:0:0:0:
402,192,19074,1,0,0:0:0:0:
298,192,19362,1,4,0:0:0:0:
153,192,19362,1,0,0:0:0:0:
42,192,19651,1,0,0:0:0:0:
469,192,19651,1,4,0:0:0:0:
109,192,19939,1,0,0:0:0:0:
182,192,20228,1,0,0:0:0:0:
329,192,20516,1,0,0:0:0:0:
402,192,20516,1,0,0:0:0:0:
109,192,20805,1,0,0:0:0:0:
256,192,20805,1,4,0:0:0:0:
329,192,21093,1,0,0:0:0:0:
42,192,21093,1,0,0:0:0:0:
402,192,21382,1,0,0:0:0:0:
109,192,21382,1,0,0:0:0:0:
475,192,21670,1,0,0:0:0:0:
182,192,21670,1,4,0:0:0:0:
36,192,21959,1,0,0:0:0:0:
256,192,21959,1,4,0:0:0:0:
109,192,22247,1,0,0:0:0:0:
402,192,22536,1,0,0:0:0:0:
329,192,22824,1,0,0:0:0:0:
256,192,23112,1,0,0:0:0:0:
182,192,23112,1,4,0:0:0:0:
475,192,23401,1,0,0:0:0:0:
36,192,23689,1,0,0:0:0:0:
182,192,23978,1,0,0:0:0:0:
109,192,23978,1,4,0:0:0:0:
329,192,24266,1,4,0:0:0:0:
469,192,24266,1,0,0:0:0:0:
384,192,24555,1,0,0:0:0:0:
256,192,24843,1,0,0:0:0:0:
109,192,25132,1,0,0:0:0:0:
36,192,25420,1,0,0:0:0:0:
329,192,25420,1,4,0:0:0:0:
402,192,25709,1,0,0:0:0:0:
51,192,25997,128,0,26141:0:0:0:0:
475,192,25997,1,0,0:0:0:0:
256,192,26286,1,4,0:0:0:0:
402,192,26286,1,0,0:0:0:0:
182,192,26574,1,0,0:0:0:0:
329,192,26574,1,4,0:0:0:0:
109,192,26862,1,0,0:0:0:0:
36,192,27151,1,0,0:0:0:0:
298,192,27439,1,0,0:0:0:0:
469,192,27728,1,0,0:0:0:0:
182,192,27728,1,4,0:0:0:0:
256,192,28016,1,0,0:0:0:0:
36,192,28305,1,0,0:0:0:0:
182,192,28593,1,0,0:0:0:0:
329,192,28593,1,4,0:0:0:0:
402,192,28882,1,4,0:0:0:0:
475,192,28882,1,0,0:0:0:0:
256,192,29170,1,0,0:0:0:0:
109,192,29459,1,0,0:0:0:0:
182,192,29747,1,0,0:0:0:0:
256,192,29747,1,0,0:0:0:0:
402,192,30036,1,4,0:0:0:0:
298,192,30036,1,0,0:0:0:0:
128,192,30324,1,0,0:0:0:0:
36,192,30324,1,0,0:0:0:0:
402,192,30612,1,0,0:0:0:0:
475,192,30612,1,0,0:0:0:0:
256,192,30901,1,0,0:0:0:0:
298,192,30901,1,4,0:0:0:0:
36,192,31189,1,4,0:0:0:0:
182,192,31189,1,0,0:0:0:0:
402,192,31478,1,0,0:0:0:0:
109,192,31766,1,0,0:0:0:0:
256,192,32055,1,0,0:0:0:0:
329,192,32343,1,4,0:0:0:0:
182,192,32343,1,0,0:0:0:0:
36,192,32632,1,0,0:0:0:0:
469,192,32920,1,0,0:0:0:0:
402,192,33209,1,0,0:0:0:0:
256,192,33209,1,4,0:0:0:0:
42,192,33497,1,0,0:0:0:0:
213,192,33497,1,4,0:0:0:0:
329,192,33786,1,0,0:0:0:0:
402,192,34074,1,0,0:0:0:0:
42,192,34362,1,0,0:0:0:0:
128,192,34651,1,0,0:0:0:0:
213,192,34651,1,4,0:0:0:0:
384,192,34939,1,0,0:0:0:0:
182,192,35228,1,0,0:0:0:0:
460,192,35228,128,0,35372:0:0:0:0:
256,192,35516,1,0,0:0:0:0:
329,192,35516,1,4,0:0:0:0:
109,192,35805,1,0,0:0:0:0:
36,192,35805,1,4,0:0:0:0:
256,192,36093,1,0,0:0:0:0:
329,192,36382,1,0,0:0:0:0:
469,192,36670,1,0,0:0:0:0:
213,192,36959,1,4,0:0:0:0:
109,192,36959,1,0,0:0:0:0:
36,192,37247,1,0,0:0:0:0:
256,192,37536,1,0,0:0:0:0:
448,192,37824,1,0,0:0:0:0:
402,192,37824,1,4,0:0:0:0:
64,192,38112,1,4,0:0:0:0:
213,192,38112,1,0,0:0:0:0:
256,192,38401,1,0,0:0:0:0:
329,192,38689,1,0,0:0:0:0:
213,192,38978,1,0,0:0:0:0:
109,192,38978,1,0,0:0:0:0:
475,192,39266,1,4,0:0:0:0:
256,192,39266,1,0,0:0:0:0:
182,192,39555,1,0,0:0:0:0:
36,192,39555,1,0,0:0:0:0:
469,192,39843,1,0,0:0:0:0:
320,192,39843,1,0,0:0:0:0:
109,192,40132,1,4,0:0:0:0:
256,192,40132,1,0,0:0:0:0:
469,192,40420,1,4,0:0:0:0:
36,192,40420,1,0,0:0:0:0:
182,192,40709,1,0,0:0:0:0:
256,192,40997,1,0,0:0:0:0:
475,192,41286,1,0,0:0:0:0:
36,192,41574,1,0,0:0:0:0:
182,192,41574,1,0,0:0:0:0:
469,192,41862,1,0,0:0:0:0:
384,192,42151,1,0,0:0:0:0:
256,192,42439,1,4,0:0:0:0:
329,192,42439,1,0,0:0:0:0:
51,192,42728,1,0,0:0:0:0:
109,192,42728,1,4,0:0:0:0:
182,192,43016,1,0,0:0:0:0:
329,192,43305,1,0,0:0:0:0:
475,192,43593,1,0,0:0:0:0:
36,192,43882,1,0,0:0:0:0:
182,192,43882,1,4,0:0:0:0:
329,192,44170,1,0,0:0:0:0:
109,192,44459,128,0,44603:0:0:0:0:
182,192,44459,1,0,0:0:0:0:
475,192,44747,1,0,0:0:0:0:
402,192,44747,1,4,0:0:0:0:
128,192,45036,1,4,0:0:0:0:
298,192,45036,1,0,0:0:0:0:
