osu file format v14

[General]
AudioFilename: audio.mp3
AudioLeadIn: 0
PreviewTime: 2055
Countdown: 0
SampleSet: Soft
StackLeniency: 0.7
Mode: 3
LetterboxInBreaks: 0
SpecialStyle: 0
WidescreenStoryboard: 0

[Editor]
DistanceSpacing: 1
BeatDivisor: 2
GridSize: 4
TimelineZoom: 0.8000001

[Metadata]
Title:Looking for a House
TitleUnicode:Looking for a House
Artist:Manaka Tominaga & Shiho Fujii
ArtistUnicode:富永真央 & 藤井志帆
Creator:Adiopulse
Version:Easy 4k
Source:街へ行こうよ どうぶつの森
Tags:animal crossing city folk let's go to the city おいでよ どうぶつの森 wild world nintendo ds wii kataoka
BeatmapID:1364468
BeatmapSetID:643725

[Difficulty]
HPDrainRate:6
CircleSize:4
OverallDifficulty:6
ApproachRate:5
SliderMultiplier:1.4
SliderTickRate:1

[Events]
//Background and Video events
0,0,"Background.png",0,0
//Break Periods
//Storyboard Layer 0 (Background)
//Storyboard Layer 1 (Fail)
//Storyboard Layer 2 (Pass)
//Storyboard Layer 3 (Foreground)
//Storyboard Sound Samples

[TimingPoints]
36,576.923076923077,4,2,1,5,1,0

[HitObjects]
320,192,2055,5,0,0:0:0:0:
64,192,2343,1,0,0:0:0:0:
192,192,2632,1,0,0:0:0:0:
448,192,2920,1,0,0:0:0:0:
64,192,3209,1,4,0:0:0:0:
320,192,3497,1,4,0:0:0:0:
320,192,4651,1,4,0:0:0:0:
448,192,5516,1,4,0:0:0:0:
64,192,5805,1,4,0:0:0:0:
192,192,6959,1,4,0:0:0:0:
320,192,7824,1,4,0:0:0:0:
64,192,8112,1,4,0:0:0:0:
448,192,9266,1,4,0:0:0:0:
320,192,10132,1,4,0:0:0:0:
192,192,10420,1,4,0:0:0:0:
448,192,11286,1,0,0:0:0:0:
64,192,11574,1,4,0:0:0:0:
192,192,11862,1,0,0:0:0:0:
320,192,12151,1,0,0:0:0:0:
448,192,12439,1,4,0:0:0:0:
64,192,12728,1,4,0:0:0:0:
320,192,13882,1,4,0:0:0:0:
64,192,14747,1,4,0:0:0:0:
192,192,15036,1,4,0:0:0:0:
320,192,16189,1,4,0:0:0:0:
448,192,17055,1,4,0:0:0:0:
192,192,17343,1,4,0:0:0:0:
64,192,18497,1,4,0:0:0:0:
192,192,19362,1,4,0:0:0:0:
448,192,19651,1,4,0:0:0:0:
320,192,20516,1,0,0:0:0:0:
64,192,20805,1,4,0:0:0:0:
192,192,21093,1,0,0:0:0:0:
448,192,21382,1,0,0:0:0:0:
64,192,21670,1,4,0:0:0:0:
320,192,21959,1,4,0:0:0:0:
192,192,23112,1,4,0:0:0:0:
448,192,23978,1,4,0:0:0:0:
64,192,24266,1,4,0:0:0:0:
320,192,25420,1,4,0:0:0:0:
64,192,26286,1,4,0:0:0:0:
448,192,26574,1,4,0:0:0:0:
192,192,27728,1,4,0:0:0:0:
320,192,28593,1,4,0:0:0:0:
64,192,28882,1,4,0:0:0:0:
448,192,29747,1,0,0:0:0:0:
64,192,30036,1,4,0:0:0:0:
192,192,30324,1,0,0:0:0:0:
320,192,30612,1,0,0:0:0:0:
448,192,30901,1,4,0:0:0:0:
64,192,31189,1,4,0:0:0:0:
192,192,32343,1,4,0:0:0:0:
448,192,33209,1,4,0:0:0:0:
320,192,33497,1,4,0:0:0:0:
448,192,34651,1,4,0:0:0:0:
64,192,35516,1,4,0:0:0:0:
192,192,35805,1,4,0:0:0:0:
64,192,36959,1,4,0:0:0:0:
448,192,37824,1,4,0:0:0:0:
192,192,38112,1,4,0:0:0:0:
320,192,38978,1,0,0:0:0:0:
64,192,39266,1,4,0:0:0:0:
192,192,39555,1,0,0:0:0:0:
448,192,39843,1,0,0:0:0:0:
64,192,40132,1,4,0:0:0:0:
320,192,40420,1,4,0:0:0:0:
192,192,41574,1,4,0:0:0:0:
64,192,42439,1,4,0:0:0:0:
320,192,42728,1,4,0:0:0:0:
448,192,43882,1,4,0:0:0:0:
192,192,44747,1,4,0:0:0:0:
64,192,45036,1,4,0:0:0:0:
