osu file format v14

[General]
AudioFilename: audio.mp3
AudioLeadIn: 0
PreviewTime: 80316
Countdown: 0
SampleSet: Soft
StackLeniency: 0.7
Mode: 0
LetterboxInBreaks: 0
WidescreenStoryboard: 0

[Editor]
DistanceSpacing: 1
BeatDivisor: 4
GridSize: 8
TimelineZoom: 2.6

[Metadata]
Title:Main Theme
TitleUnicode:メインテーマ
Artist:Manaka Kataoka & Yasuaki Iwata
ArtistUnicode:片岡真央&岩田恭明
Creator:Mao
Version:Desperate's Simple
Source:ゼルダの伝説 ブレス オブ ザ ワイルド
Tags:breath of the wild legend zelda desperate-kun nintendo switch wiiu bgm ost
BeatmapID:1235435
BeatmapSetID:583900

[Difficulty]
HPDrainRate:3
CircleSize:4.5
OverallDifficulty:3
ApproachRate:4
SliderMultiplier:1.4
SliderTickRate:1

[Events]
//Background and Video events
0,0,"the_legend_of_zelda_breath_of_the_wild_4k-wide.jpg",0,0
Video,0,"vid.avi"
//Break Periods
//Storyboard Layer 0 (Background)
//Storyboard Layer 1 (Fail)
//Storyboard Layer 2 (Pass)
//Storyboard Layer 3 (Foreground)
//Storyboard Sound Samples

[TimingPoints]
88,666.666666666667,3,2,1,20,1,0
3754,827.586206896552,3,2,1,20,1,0
3960,1800.01800018,3,2,1,20,1,0
4409.67741935484,638.297872340426,3,2,1,20,1,0
4410,-200,3,2,1,20,0,0
8399,-200,3,2,1,15,0,0
13345,638.297872340426,3,2,1,20,1,0
13345,-200,3,2,1,20,0,0
17174,638.297872340426,4,2,1,20,1,0
17174,-200,4,2,1,20,0,0
19727,653.950953678474,4,2,1,25,1,0
21688,574.162679425837,3,2,1,25,1,0
22070,638.297872340426,3,2,1,25,1,0
22070,-133.333333333333,3,2,1,25,0,0
22282,638.297872340426,3,2,1,25,1,0
22282,-133.333333333333,3,2,1,25,0,0
29941,641.711229946524,3,2,1,25,1,0
29941,-200,3,2,1,25,0,0
35716,628.272251308901,3,2,1,25,1,0
37600,576.923076923077,3,2,1,30,1,0
37600,-133.333333333333,3,2,1,30,0,0
53176,-125,3,2,1,30,0,0
54907,-111.111111111111,3,2,1,30,0,0
56638,582.52427184466,3,2,1,30,1,0
58385,594.059405940594,3,2,1,40,1,0
60167,600,3,2,1,25,1,0
61367,631.578947368421,3,2,1,35,1,0
61367,-90.9090909090909,3,2,1,35,0,0
61998,618.556701030928,3,2,1,35,1,0
63235,705.882352941176,3,2,1,25,1,0
63940,708.666997377932,3,2,1,25,1,0
64648,-100,3,2,1,5,0,0
66066,600.000000000001,3,2,1,40,1,0
72666,-100,3,2,1,25,0,0
73266,-100,3,2,1,40,0,0
80466,-90.9090909090909,3,2,1,50,0,0
87066,-90.9090909090909,3,2,1,30,0,0
87666,603.015075376884,3,2,1,50,1,0
87666,-90.9090909090909,3,2,1,50,0,0
94600,-100,3,2,1,20,0,0
94902,618.556701030928,3,2,1,30,1,0
94902,-133.333333333333,3,2,1,30,0,0
100469,631.578947368421,3,2,1,30,1,0
100469,-133.333333333333,3,2,1,30,0,0
102363,576.923076923077,3,2,1,30,1,0
102363,-133.333333333333,3,2,1,30,0,0
103516,666.666666666667,3,2,1,30,1,0
104182,618.556701030928,3,2,1,30,1,0
104800,681.818181818182,4,2,1,30,1,0
104800,-133.333333333333,4,2,1,30,0,0
105481,618.556701030928,4,2,1,30,1,0
105790,1764.70588235294,4,2,1,20,1,0
107334,789.473684210526,4,2,1,30,1,0
107531,681.818181818182,3,2,1,15,1,0

[Colours]
Combo1 : 133,157,188
Combo2 : 203,245,105
Combo3 : 245,174,27
Combo4 : 99,124,243
Combo5 : 238,100,186

[HitObjects]
147,243,4410,6,0,P|194:238|256:218,1,105,4|0,0:0|0:0,0:0:0:0:
273,182,5686,1,2,0:0:0:0:
359,211,6324,1,0,0:0:0:0:
314,290,6962,1,2,0:0:0:0:
394,333,7601,1,0,0:0:0:0:
464,275,8239,2,0,P|465:224|478:131,1,140,2|0,0:0|0:0,0:0:0:0:
422,62,10154,1,2,0:0:0:0:
235,295,13345,6,0,P|179:301|123:328,1,105,2|0,0:0|0:0,0:0:0:0:
104,354,14621,1,2,0:0:0:0:
18,322,15259,1,0,0:0:0:0:
49,236,15898,1,2,0:0:0:0:
139,225,16536,1,0,0:0:0:0:
169,139,17174,2,0,P|101:125|45:84,1,140,2|2,0:0|0:0,0:0:0:0:
305,35,21688,5,2,0:0:0:0:
339,75,22070,2,0,P|325:118|325:172,1,96.2500036716463,2|0,0:0|0:0,0:0:0:0:
360,207,22920,2,0,P|395:170|447:166,1,105.000004005432,2|0,0:0|0:0,0:0:0:0:
447,276,24196,2,0,P|417:291|401:306,1,52.5000020027161,2|0,0:0|0:0,0:0:0:0:
378,350,24835,2,0,P|335:341|272:347,1,105.000004005432,2|0,0:0|0:0,0:0:0:0:
173,318,26111,5,2,0:0:0:0:
129,347,26430,1,0,0:0:0:0:
76,348,26750,2,0,B|62:341|46:342|46:342|75:313|66:246|28:231,1,157.500006008148,2|0,0:0|0:0,0:0:0:0:
3,186,28026,2,0,B|27:180|41:157|41:157|48:207|104:253|162:234,1,210.000008010865,2|0,0:0|0:0,0:0:0:0:
140,137,29941,6,0,B|201:96|210:152|275:111,1,140,2|0,0:0|0:0,0:0:0:0:
357,62,31866,2,0,B|398:123|342:132|383:197,1,140,2|0,0:0|0:0,0:0:0:0:
256,192,33470,12,2,35716,0:0:0:0:
25,119,37600,6,0,P|75:105|132:99,1,105.000004005432,4|2,0:0|0:3,0:0:0:0:
173,125,38465,1,0,0:0:0:0:
217,150,38753,1,2,0:0:0:0:
296,81,39330,1,4,0:3:0:0:
357,166,39907,1,2,0:3:0:0:
455,130,40484,6,0,P|461:75|480:25,2,105.000004005432,2|4|2,0:0|0:3|0:3,0:0:0:0:
505,222,42215,1,2,0:0:0:0:
455,314,42792,2,0,P|426:319|399:328,1,52.5000020027161,4|0,0:3|0:0,0:0:0:0:
366,289,43369,2,0,P|337:284|310:275,1,52.5000020027161,2|0,0:3|0:0,0:0:0:0:
287,321,43946,2,0,P|258:326|231:335,1,52.5000020027161,2|2,0:3|0:3,0:0:0:0:
190,307,44523,6,0,P|152:321|81:325,1,105.000004005432,4|2,0:0|0:3,0:0:0:0:
52,286,45388,1,0,0:0:0:0:
16,247,45676,1,2,0:0:0:0:
106,193,46253,1,4,0:3:0:0:
39,111,46830,1,2,0:3:0:0:
102,27,47407,1,2,0:0:0:0:
169,109,47984,6,0,P|245:122|319:23,1,210.000008010865,4|2,0:3|0:0,0:0:0:0:
422,6,49715,2,0,P|424:57|440:110,1,105.000004005432,4|2,0:3|0:0,0:0:0:0:
507,188,50869,2,0,P|492:211|482:237,1,52.5000020027161,2|0,0:3|0:0,0:0:0:0:
495,285,51446,6,0,P|446:279|394:312,1,105.000004005432,2|0,0:0|0:0,0:0:0:0:
361,342,52311,1,2,0:0:0:0:
309,332,52600,1,0,0:0:0:0:
260,352,52888,1,0,0:0:0:0:
212,329,53176,2,0,P|195:288|219:224,1,112,2|0,0:0|0:0,0:0:0:0:
276,195,54042,1,2,0:0:0:0:
245,135,54330,1,0,0:0:0:0:
284,80,54619,1,0,0:0:0:0:
231,38,54907,6,0,B|187:44|187:44|159:69|159:69|112:76,1,125.999996154785,2|2,0:0|0:0,0:0:0:0:
1,21,56061,1,2,0:0:0:0:
11,147,56638,2,0,P|30:186|179:180,1,210,4|0,0:0|0:0,0:0:0:0:
219,130,57803,1,2,0:0:0:0:
257,188,58094,1,0,0:0:0:0:
235,254,58385,6,0,P|252:307|387:160,1,420,4|4,0:1|0:0,0:0:0:0:
338,250,61367,6,0,P|320:226|311:197,1,51.3333348999024,2|0,0:0|0:0,0:0:0:0:
248,169,61788,2,0,P|248:136|257:112,1,51.3333348999024,0|4,0:0|0:0,0:0:0:0:
256,192,62307,12,0,64648,0:0:0:0:
220,81,66066,5,4,0:0:0:0:
283,136,66366,1,0,0:0:0:0:
301,54,66666,2,0,B|334:44|334:44|367:55|380:94|348:117|360:151|394:162|394:162|426:153,1,210,2|0,0:0|0:0,0:0:0:0:
503,131,67866,2,0,P|498:199|442:237,1,140,4|2,0:0|0:0,0:0:0:0:
286,175,69066,1,0,0:0:0:0:
315,340,69666,6,0,P|278:341|243:358,1,70,2|0,0:0|0:0,0:0:0:0:
166,332,70266,2,0,P|105:348|42:295,1,140,2|0,0:0|0:0,0:0:0:0:
108,149,71466,2,0,P|111:186|126:221,1,70,4|0,0:0|0:0,0:0:0:0:
199,252,72066,1,2,0:0:0:0:
34,220,72666,1,4,0:3:0:0:
87,60,73266,5,4,0:0:0:0:
140,124,73566,1,0,0:0:0:0:
169,45,73866,2,0,B|211:39|211:39|213:89|263:121|324:107|340:83,1,210,2|2,0:0|0:0,0:0:0:0:
374,8,75066,2,0,P|406:33|412:126,1,140,4|2,0:0|0:0,0:0:0:0:
256,188,76266,1,2,0:3:0:0:
389,289,76866,6,0,P|421:274|471:276,2,70,2|0|0,0:0|0:0|0:0,0:0:0:0:
332,351,77766,1,0,0:0:0:0:
256,313,78066,1,2,0:0:0:0:
180,351,78366,2,0,P|125:353|79:281,1,140,0|2,0:0|0:0,0:0:0:0:
107,210,79266,2,0,P|73:151|5:148,1,140,0|2,0:0|0:0,0:0:0:0:
57,325,80466,5,4,0:1:0:0:
145,350,80766,1,0,0:0:0:0:
210,284,81066,2,0,B|323:259|303:376|418:349,1,231.000007049561,2|0,0:0|0:0,0:0:0:0:
487,287,82266,1,4,0:0:0:0:
473,118,82866,1,2,0:0:0:0:
385,256,83466,1,2,0:0:0:0:
371,87,84066,6,0,P|400:117|441:130,1,77.0000023498536,0|0,0:0|0:0,0:0:0:0:
475,210,84666,2,0,P|434:232|428:338,1,154.000004699707,2|0,0:0|0:0,0:0:0:0:
238,308,85866,2,0,P|213:342|154:358,1,77.0000023498536,2|0,0:0|0:0,0:0:0:0:
91,336,86466,1,2,0:0:0:0:
225,209,87066,1,4,0:3:0:0:
9,185,87666,5,4,0:1:0:0:
89,230,87967,1,0,0:0:0:0:
145,156,88269,2,0,B|255:190|179:282|292:316,1,231.000007049561,2|2,0:0|0:0,0:0:0:0:
350,243,89475,1,4,0:0:0:0:
504,311,90078,1,2,0:0:0:0:
353,384,90681,1,2,0:0:0:0:
446,230,91284,6,0,P|462:160|338:66,1,231.000007049561,4|0,0:0|0:0,0:0:0:0:
272,109,92490,2,0,P|256:179|380:273,1,231.000007049561,2|2,0:0|0:0,0:0:0:0:
444,319,93696,2,0,B|331:294|351:411|236:384,1,231.000007049561,0|0,0:0|0:0,0:0:0:0:
173,340,94902,6,0,P|120:336|75:370,2,105.000004005432,4|2|0,0:0|0:0|0:0,0:0:0:0:
217,245,96757,2,0,P|270:249|315:215,2,105.000004005432,2|2|0,0:0|0:0|0:0,0:0:0:0:
174,213,98304,1,0,0:0:0:0:
131,181,98613,6,0,P|131:240|163:334,1,157.500006008148,2|0,0:0|0:0,0:0:0:0:
57,326,100159,1,0,0:0:0:0:
33,279,100469,2,0,P|24:195|67:68,1,210.000008010865,2|0,0:0|0:0,0:0:0:0:
169,37,102363,6,0,B|247:43|220:103|302:109,1,157.500006008148,2|0,0:0|0:0,0:0:0:0:
346,97,103516,1,2,0:0:0:0:
414,6,104182,1,0,0:0:0:0:
458,111,104800,2,0,P|431:144|430:204,1,105.000004005432,2|0,0:0|0:0,0:0:0:0:
483,300,107334,5,2,0:0:0:0:
