osu file format v14

[General]
AudioFilename: audio.mp3
AudioLeadIn: 0
PreviewTime: 80316
Countdown: 0
SampleSet: Soft
StackLeniency: 0.7
Mode: 0
LetterboxInBreaks: 0
WidescreenStoryboard: 0

[Editor]
DistanceSpacing: 0.9
BeatDivisor: 12
GridSize: 4
TimelineZoom: 2.899999

[Metadata]
Title:Main Theme
TitleUnicode:メインテーマ
Artist:Manaka Kataoka & Yasuaki Iwata
ArtistUnicode:片岡真央&岩田恭明
Creator:Mao
Version:Calamity
Source:ゼルダの伝説 ブレス オブ ザ ワイルド
Tags:breath of the wild legend zelda desperate-kun nintendo switch wiiu bgm ost
BeatmapID:1235434
BeatmapSetID:583900

[Difficulty]
HPDrainRate:6
CircleSize:6
OverallDifficulty:6
ApproachRate:6
SliderMultiplier:2
SliderTickRate:1

[Events]
//Background and Video events
0,0,"the_legend_of_zelda_breath_of_the_wild_4k-wide.jpg",0,0
Video,0,"vid.avi"
//Break Periods
//Storyboard Layer 0 (Background)
//Storyboard Layer 1 (Fail)
//Storyboard Layer 2 (Pass)
//Storyboard Layer 3 (Foreground)
//Storyboard Sound Samples

[TimingPoints]
88,666.666666666667,3,2,1,20,1,0
3754,827.586206896552,3,2,1,20,1,0
3960,1800.01800018,3,2,1,20,1,0
4409.67741935484,638.297872340426,3,2,1,20,1,0
8239,-200,3,2,1,20,0,0
8399,-100,3,2,1,15,0,0
13345,638.297872340426,3,2,1,20,1,0
13345,-200,3,2,1,20,0,0
15579,-200,3,2,1,15,0,0
15898,-200,3,2,1,20,0,0
16217,-200,3,2,1,15,0,0
16536,-200,3,2,1,20,0,0
16855,-200,3,2,1,15,0,0
17174,638.297872340426,4,2,1,20,1,0
19727,653.950953678474,4,2,1,25,1,0
21688,574.162679425837,3,2,1,25,1,0
21688,-133.333333333333,3,2,1,25,0,0
22070,638.297872340426,3,2,1,25,1,0
22070,-133.333333333333,3,2,1,25,0,0
22282,638.297872340426,3,2,1,25,1,0
22282,-133.333333333333,3,2,1,25,0,0
29941,641.711229946524,3,2,1,25,1,0
29941,-133.333333333333,3,2,1,25,0,0
35716,628.272251308901,3,2,1,25,1,0
35716,-133.333333333333,3,2,1,25,0,0
37600,576.923076923077,3,2,1,30,1,0
37600,-125,3,2,1,30,0,0
43946,-125,3,2,1,20,0,0
44523,-125,3,2,1,30,0,0
55869,-125,3,2,1,5,0,0
56061,-125,3,2,1,30,0,0
56446,-125,3,2,1,5,0,0
56638,582.52427184466,3,2,1,30,1,0
56638,-125,3,2,1,30,0,0
58385,594.059405940594,3,2,1,40,1,0
58385,-100,3,2,1,40,0,0
60167,600,3,2,1,25,1,0
60767,-100,3,2,1,20,0,0
61367,631.578947368421,3,2,1,35,1,0
61998,618.556701030928,3,2,1,35,1,0
63235,705.882352941176,3,2,1,25,1,0
63940,708.666997377932,3,2,1,25,1,0
65534,-100,3,2,1,10,0,0
66066,600.000000000001,3,2,1,40,1,0
72666,-100,3,2,1,25,0,0
72966,-100,3,2,1,33,0,0
73266,-100,3,2,1,40,0,0
80316,-100,3,2,1,5,0,0
80466,-90.9090909090909,3,2,1,50,0,0
82266,-90.9090909090909,3,2,1,40,0,0
82566,-90.9090909090909,3,2,1,30,0,0
82866,-90.9090909090909,3,2,1,40,0,0
83166,-90.9090909090909,3,2,1,30,0,0
83466,-90.9090909090909,3,2,1,40,0,0
83766,-90.9090909090909,3,2,1,30,0,0
84066,-90.9090909090909,3,2,1,50,0,0
87066,-90.9090909090909,3,2,1,30,0,0
87366,-90.9090909090909,3,2,1,40,0,0
87666,603.015075376884,3,2,1,50,1,0
87666,-90.9090909090909,3,2,1,50,0,0
89475,-90.9090909090909,3,2,1,40,0,0
89776,-90.9090909090909,3,2,1,30,0,0
90078,-90.9090909090909,3,2,1,40,0,0
90379,-90.9090909090909,3,2,1,30,0,0
90681,-90.9090909090909,3,2,1,40,0,0
90982,-90.9090909090909,3,2,1,30,0,0
91284,-90.9090909090909,3,2,1,50,0,0
94600,-90.9090909090909,3,2,1,20,0,0
94902,618.556701030928,3,2,1,30,1,0
94902,-125,3,2,1,30,0,0
100469,631.578947368421,3,2,1,30,1,0
100469,-125,3,2,1,30,0,0
102363,576.923076923077,3,2,1,30,1,0
102363,-125,3,2,1,30,0,0
103516,666.666666666667,3,2,1,30,1,0
103516,-125,3,2,1,30,0,0
104016,-125,3,2,1,5,0,0
104182,618.556701030928,3,2,1,30,1,0
104182,-125,3,2,1,30,0,0
104491,-125,3,2,1,15,0,0
104800,681.818181818182,4,2,1,30,1,0
104800,-125,4,2,1,30,0,0
105481,618.556701030928,4,2,1,30,1,0
105790,1764.70588235294,4,2,1,20,1,0
107334,789.473684210526,4,2,1,30,1,0
107531,681.818181818182,3,2,1,15,1,0

[Colours]
Combo1 : 133,157,188
Combo2 : 203,245,105
Combo3 : 245,174,27
Combo4 : 99,124,243
Combo5 : 238,100,186

[HitObjects]
41,41,4410,5,4,0:0:0:0:
217,154,5367,1,0,0:0:0:0:
194,87,5686,1,2,0:0:0:0:
108,170,6324,1,0,0:0:0:0:
160,277,6962,1,2,0:0:0:0:
277,260,7601,1,0,0:0:0:0:
296,143,8239,2,0,P|283:145|271:147,1,25,2|0,0:0|0:0,0:0:0:0:
431,352,9516,5,0,0:0:0:0:
460,235,10154,1,2,0:0:0:0:
75,350,13345,6,0,P|50:349|24:353,2,50,2|0|0,0:0|0:0|0:0,0:0:0:0:
152,368,14302,1,0,0:0:0:0:
127,292,14621,2,0,P|123:267|124:242,1,50,2|0,0:0|0:0,0:0:0:0:
96,167,15259,2,0,P|121:168|147:164,1,50
169,87,15898,2,0,P|190:100|214:109,1,50,2|0,0:0|0:0,0:0:0:0:
272,54,16536,2,0,P|283:76|300:96,1,50
377,76,17174,1,2,0:0:0:0:
385,80,18450,1,2,0:0:0:0:
397,283,21688,5,2,0:0:0:0:
469,299,22070,2,0,P|422:353|353:343,1,137.500005245209,2|0,0:0|0:0,0:0:0:0:
296,299,22920,2,0,P|224:289|178:344,1,150.000005722046,2|0,0:0|0:0,0:0:0:0:
10,243,24196,1,2,0:0:0:0:
86,273,24516,1,0,0:0:0:0:
67,192,24835,2,0,B|98:219|137:195|137:192|137:188|176:164|206:191,1,150.000005722046,2|0,0:0|0:0,0:0:0:0:
295,330,26111,5,2,0:0:0:0:
370,363,26430,1,0,0:0:0:0:
441,321,26750,2,0,P|474:275|452:115,1,225.000008583069,2|0,0:0|0:0,0:0:0:0:
394,59,28026,2,0,B|348:99|289:63|289:57|289:52|230:16|183:57,1,225.000008583069,2|0,0:0|0:0,0:0:0:0:
129,119,29303,1,0,0:0:0:0:
71,60,29622,1,0,0:0:0:0:
20,125,29941,6,0,P|42:228|147:246,1,225.000008583069,2|0,0:0|0:0,0:0:0:0:
186,174,31224,1,0,0:0:0:0:
229,244,31545,1,0,0:0:0:0:
268,174,31866,2,0,P|372:192|395:295,1,225.000008583069,2|0,0:0|0:0,0:0:0:0:
365,371,33149,5,0,0:0:0:0:
315,305,33470,2,0,P|268:312|242:345,1,75.0000028610231,2|0,0:0|0:0,0:0:0:0:
182,378,34112,2,0,B|141:332|177:273|183:273|188:273|224:214|183:167,1,225.000008583069,2|0,0:0|0:0,0:0:0:0:
120,24,35716,2,0,B|144:68|200:68|236:44|224:4|256:54|288:4|276:44|312:68|368:68|392:24,1,300.000011444092,2|0,0:0|0:0,0:0:0:0:
503,180,37600,6,0,P|458:177|398:272,1,160,4|2,0:0|0:3,0:0:0:0:
446,324,38465,1,0,0:0:0:0:
367,336,38753,1,2,0:0:0:0:
236,243,39330,2,0,P|199:263|178:296,1,80,4|0,0:3|0:0,0:0:0:0:
111,337,39907,2,0,P|91:300|58:279,1,80,2|0,0:3|0:0,0:0:0:0:
17,212,40484,1,2,0:0:0:0:
111,52,41061,6,0,P|110:117|126:213,2,160,4|2|2,0:3|0:3|0:0,0:0:0:0:
267,17,42792,1,4,0:3:0:0:
280,54,43080,1,0,0:0:0:0:
263,90,43369,1,2,0:3:0:0:
230,112,43657,1,0,0:0:0:0:
213,148,43946,1,2,0:3:0:0:
226,185,44234,1,2,0:3:0:0:
301,158,44523,6,0,B|334:186|376:161|376:158|376:153|417:127|450:156,1,160,4|2,0:0|0:3,0:0:0:0:
500,219,45388,1,0,0:0:0:0:
421,231,45676,1,2,0:0:0:0:
483,378,46253,2,0,P|447:348|401:344,1,80,4|0,0:3|0:0,0:0:0:0:
355,289,46830,2,0,P|398:272|425:234,1,80,2|0,0:3|0:0,0:0:0:0:
496,222,47407,2,0,P|488:268|507:310,1,80,2|0,0:0|0:0,0:0:0:0:
431,168,47984,6,0,P|384:172|299:103,1,160,4|2,0:3|0:3,0:0:0:0:
162,23,49138,1,2,0:0:0:0:
155,182,49715,1,4,0:3:0:0:
242,48,50292,1,2,0:0:0:0:
81,39,50869,1,2,0:3:0:0:
42,109,51157,1,0,0:0:0:0:
123,106,51446,6,0,P|151:134|177:249,1,160,2|0,0:0|0:0,0:0:0:0:
182,327,52311,1,2,0:0:0:0:
256,356,52600,1,0,0:0:0:0:
330,327,52888,1,0,0:0:0:0:
334,247,53177,2,0,P|341:169|389:106,1,160,2|0,0:0|0:0,0:0:0:0:
461,71,54042,1,2,0:0:0:0:
507,135,54330,1,0,0:0:0:0:
436,172,54619,1,0,0:0:0:0:
482,236,54907,6,0,L|520:291,2,53.3333333333333,2|0|0,0:0|0:0|0:0,0:0:0:0:
429,227,55484,2,0,P|385:247|367:310,1,106.666666666667,2|0,0:0|0:0,0:0:0:0:
410,329,56061,2,0,P|396:344|320:327,1,106.666666666667,2|0,0:0|0:0,0:0:0:0:
283,289,56638,2,0,B|233:246|170:284|170:291|170:296|107:334|57:291,1,240,4|0,0:0|0:0,0:0:0:0:
1,214,57803,1,2,0:0:0:0:
61,139,58094,1,0,0:0:0:0:
12,59,58385,6,0,B|24:-21|164:-37|196:55|192:59|188:63|152:107|256:151|360:107|324:63|320:59|316:55|348:-37|488:-21|500:59,1,600,4|4,0:1|0:0,0:0:0:0:
256,7,60767,1,0,0:0:0:0:
199,245,61367,1,2,0:0:0:0:
226,297,61577,1,0,0:0:0:0:
286,297,61788,1,0,0:0:0:0:
313,245,61998,1,4,0:0:0:0:
256,192,62152,12,0,65711,0:0:0:0:
148,201,66066,5,4,0:0:0:0:
49,210,66366,1,0,0:0:0:0:
87,124,66666,2,0,B|148:70|227:118|227:125|227:133|305:181|367:127,1,300,2|0,0:0|0:0,0:0:0:0:
428,48,67866,2,0,P|459:91|414:219,2,200,4|2|0,0:0|0:0|0:0,0:0:0:0:
476,308,69666,5,2,0:0:0:0:
393,364,69966,1,0,0:0:0:0:
330,285,70266,2,0,B|268:231|189:279|189:287|189:294|111:342|49:288,1,300,2|0,0:0|0:0,0:0:0:0:
14,197,71466,1,4,0:0:0:0:
109,205,71766,1,0,0:0:0:0:
67,113,72066,2,0,P|59:69|82:13,1,100,2|0,0:0|0:0,0:0:0:0:
159,75,72666,1,4,0:3:0:0:
256,4,72966,1,4,0:3:0:0:
353,75,73266,5,4,0:0:0:0:
255,103,73566,1,0,0:0:0:0:
323,175,73866,2,0,B|261:228|182:180|182:172|182:165|104:117|42:171,1,300,2|2,0:0|0:0,0:0:0:0:
105,249,75066,2,0,P|83:296|91:345,1,100,4|0,0:0|0:0,0:0:0:0:
184,307,75666,2,0,P|201:355|241:384,1,100,2|0,0:0|0:0,0:0:0:0:
280,292,76266,2,0,P|327:314|376:305,1,100,2|0,0:3|0:0,0:0:0:0:
466,269,76866,6,0,P|452:319|470:366,2,100,2|0|0,0:0|0:0|0:0,0:0:0:0:
505,177,77766,1,0,0:0:0:0:
381,215,78066,1,2,0:0:0:0:
420,124,78366,2,0,P|434:74|416:27,1,100
330,78,78966,2,0,B|288:113|235:81|235:75|235:71|183:39|142:75,1,200,2|0,0:0|0:0,0:0:0:0:
50,38,79866,2,0,P|69:110|78:184,1,150,2|0,0:0|0:0,0:0:0:0:
76,200,80466,5,4,0:1:0:0:
132,281,80766,1,0,0:0:0:0:
25,348,81066,2,0,B|93:405|180:350|180:344|180:337|266:284|333:343,1,330.000010070801,2|0,0:0|0:0,0:0:0:0:
434,382,82266,2,0,P|444:346|497:292,1,110.000003356934,4|0,0:0|0:0,0:0:0:0:
395,264,82866,2,0,P|392:226|423:157,1,110.000003356934,2|0,0:0|0:0,0:0:0:0:
317,166,83466,2,0,P|301:131|307:56,1,110.000003356934,2|0,0:0|0:0,0:0:0:0:
183,12,84066,5,0,0:0:0:0:
212,106,84366,1,0,0:0:0:0:
89,57,84666,2,0,B|146:125|91:212|85:212|78:212|25:298|84:365,1,330.000010070801,2|0,0:0|0:0,0:0:0:0:
220,369,85866,1,6,0:0:0:0:
155,296,86166,1,0,0:0:0:0:
294,306,86466,2,0,B|333:260|296:201|292:201|287:201|251:143|290:100,1,220.000006713867,2|4,0:0|0:3,0:0:0:0:
393,19,87366,1,4,0:3:0:0:
489,107,87666,5,4,0:1:0:0:
390,115,87967,1,0,0:0:0:0:
492,11,88269,2,0,B|435:79|490:166|496:166|503:166|556:252|497:319,1,330.000010070801,2|2,0:0|0:0,0:0:0:0:
415,250,89475,2,0,P|393:280|386:356,1,110.000003356934,4|0,0:0|0:0,0:0:0:0:
298,295,90078,2,0,P|266:317|234:385,1,110.000003356934,2|0,0:0|0:0,0:0:0:0:
173,299,90681,2,0,P|135:309|82:362,1,110.000003356934,2|0,0:0|0:0,0:0:0:0:
13,241,91284,6,0,P|69:238|125:18,1,330.000010070801,4|0,0:0|0:0,0:0:0:0:
66,98,92490,2,0,B|112:137|171:100|170:96|171:91|229:54|272:94,1,220.000006713867,2|0,0:0|0:0,0:0:0:0:
346,157,93394,1,2,0:0:0:0:
440,44,93696,2,0,B|492:80|484:168|408:128|416:192|408:256|484:216|492:304|440:340,1,330.000010070801
358,367,94902,5,4,0:0:0:0:
313,291,95211,1,0,0:0:0:0:
233,327,95520,2,0,P|177:347|38:253,1,240,2|0,0:0|0:0,0:0:0:0:
91,184,96757,1,2,0:0:0:0:
4,168,97066,1,0,0:0:0:0:
60,100,97376,2,0,B|93:128|136:101|136:98|136:94|178:68|209:97,1,160,2|0,0:0|0:0,0:0:0:0:
256,171,98304,1,0,0:0:0:0:
303,97,98613,5,2,0:0:0:0:
303,97,98922,1,0,0:0:0:0:
350,170,99231,2,0,P|404:160|494:301,1,240,2|0,0:0|0:0,0:0:0:0:
443,360,100469,1,2,0:0:0:0:
373,306,100784,2,0,B|341:277|299:303|299:307|299:310|257:337|223:308,1,160,2|0,0:0|0:0,0:0:0:0:
149,357,101732,1,0,0:0:0:0:
82,299,102047,1,0,0:0:0:0:
162,245,102363,6,0,P|206:125|142:32,1,240,2|0,0:0|0:0,0:0:0:0:
74,41,103516,2,0,P|71:101|51:176,1,120,2|0,0:0|0:0,0:0:0:0:
52,172,104182,2,0,P|31:173|-18:211,1,80
50,251,104800,2,0,P|99:241|200:368,1,232.5,2|0,0:0|0:0,0:0:0:0:
474,41,107334,6,0,P|484:43|496:48,3,16.6666666666667,2|0|0|0,0:0|0:0|0:0|0:0,0:0:0:0:
